osu file format v14

[General]
AudioFilename: audio.mp3
AudioLeadIn: 0
PreviewTime: 40653
Countdown: 0
SampleSet: Soft
StackLeniency: 0.7
Mode: 0
LetterboxInBreaks: 0
WidescreenStoryboard: 1

[Editor]
Bookmarks: 750,13057,28442,40750,53057,65365,89980
DistanceSpacing: 0.9
BeatDivisor: 4
GridSize: 4
TimelineZoom: 1.7

[Metadata]
Title:"If" short ver.
TitleUnicode:「If」 short ver.
Artist:Marika
ArtistUnicode:真里歌
Creator:Naotoshi
Version:Mir's "Hard"
Source:タラレバ
Tags:technical mapping emphasis faking tarareba aries maru oku eroge visual novel kocari iwinnie akitoshi corinn doj mir
BeatmapID:1439148
BeatmapSetID:680350

[Difficulty]
HPDrainRate:5.5
CircleSize:4
OverallDifficulty:6
ApproachRate:7
SliderMultiplier:1.4
SliderTickRate:1

[Events]
//Background and Video events
0,0,"bg.jpg",0,0
//Break Periods
//Storyboard Layer 0 (Background)
//Storyboard Layer 1 (Fail)
//Storyboard Layer 2 (Pass)
//Storyboard Layer 3 (Foreground)
//Storyboard Sound Samples

[TimingPoints]
750,384.615384615385,4,2,0,50,1,0
750,-125,4,2,0,50,0,0
11615,-100,4,2,0,5,0,0
11711,-100,4,2,0,50,0,0
12000,-100,4,2,0,5,0,0
12480,-100,4,2,0,50,0,0
12961,-100,4,2,0,5,0,0
13057,-100,4,2,0,65,0,0
16423,-100,4,2,0,5,0,0
16519,-100,4,2,0,65,0,0
22192,-100,4,2,0,5,0,0
22288,-100,4,2,0,65,0,0
23923,-100,4,2,0,5,0,0
24019,-100,4,2,0,65,0,0
27000,-100,4,2,0,5,0,0
27096,-100,4,2,0,65,0,0
27288,-100,4,2,0,55,0,0
27480,-100,4,2,0,45,0,0
27673,-100,4,2,0,35,0,0
28442,-125,4,2,0,35,0,0
34500,-125,4,2,0,5,0,0
34596,-125,4,2,0,35,0,0
36038,-125,4,2,0,5,0,0
36134,-125,4,2,0,35,0,0
37673,-125,4,2,0,40,0,0
38442,-125,4,2,0,45,0,0
39211,-125,4,2,0,55,0,0
40750,-111.111111111111,4,2,0,50,0,0
42192,-111.111111111111,4,2,0,5,0,0
42288,-111.111111111111,4,2,0,50,0,0
53057,-111.111111111111,4,2,0,35,0,0
59211,-105.263157894737,4,2,0,40,0,0
62480,-105.263157894737,4,2,0,45,0,0
62865,-105.263157894737,4,2,0,40,0,0
63923,-105.263157894737,4,2,0,5,0,0
64019,-105.263157894737,4,2,0,40,0,0
64211,-105.263157894737,4,2,0,50,0,0
65365,-83.3333333333333,4,2,0,70,0,1
65653,-83.3333333333333,4,2,0,5,0,1
65750,-83.3333333333333,4,2,0,70,0,1
67000,-83.3333333333333,4,2,0,5,0,1
67096,-83.3333333333333,4,2,0,70,0,1
68346,-83.3333333333333,4,2,0,5,0,1
68442,-83.3333333333333,4,2,0,70,0,1
68730,-83.3333333333333,4,2,0,5,0,1
68826,-83.3333333333333,4,2,0,70,0,1
70076,-83.3333333333333,4,2,0,5,0,1
70173,-83.3333333333333,4,2,0,70,0,1
71423,-83.3333333333333,4,2,0,5,0,1
71519,-83.3333333333333,4,2,0,70,0,1
75461,-83.3333333333333,4,2,0,5,0,1
75557,-83.3333333333333,4,2,0,70,0,1
76230,-83.3333333333333,4,2,0,5,0,1
76326,-83.3333333333333,4,2,0,70,0,1
79307,-83.3333333333333,4,2,0,5,0,1
79403,-83.3333333333333,4,2,0,70,0,1
81038,-83.3333333333333,4,2,0,5,0,1
81134,-83.3333333333333,4,2,0,70,0,1
83826,-83.3333333333333,4,2,0,50,0,1
88250,-200,4,2,0,50,0,1
89980,-125,4,2,0,50,0,0
90173,-125,4,2,0,40,0,0
90365,-125,4,2,0,30,0,0
90557,-125,4,2,0,45,0,0
90942,-125,4,2,0,30,0,0
91326,-125,4,2,12,45,0,0
93057,-125,4,2,0,20,0,0

[Colours]
Combo1 : 253,198,238
Combo2 : 207,197,252

[HitObjects]
64,160,557,5,0,0:0:0:0:
64,160,750,2,0,L|65:217,1,56,2|0,0:0|0:0,0:0:0:0:
132,255,1134,2,0,L|131:312,1,56,2|2,0:0|0:0,0:0:0:0:
188,364,1519,2,0,P|244:364|301:314,1,112,0|2,0:0|0:0,0:0:0:0:
382,207,2288,6,0,L|378:338,1,112,0|0,3:2|0:0,0:0:0:0:
224,290,3057,1,0,0:0:0:0:
244,134,3442,1,0,0:0:0:0:
244,134,3634,1,0,0:0:0:0:
190,77,3826,6,0,P|136:67|68:85,1,112,2|2,0:0|0:0,0:0:0:0:
5,216,4596,2,0,L|9:343,2,112,0|2|2,0:0|0:0|3:2,0:0:0:0:
161,217,5750,1,2,0:0:0:0:
161,217,5942,1,0,0:0:0:0:
183,291,6134,2,0,L|300:285,1,112,0|0,0:0|0:0,0:0:0:0:
391,161,6903,6,0,P|431:212|431:275,1,112,2|0,0:0|0:0,0:0:0:0:
358,239,7480,2,0,L|362:62,1,168,2|0,0:0|0:0,0:0:0:0:
428,28,8250,2,0,P|362:46|272:-6,1,168,0|0,3:0|0:0,0:0:0:0:
241,71,9019,2,0,P|170:113|90:97,1,168,2|0,0:0|0:0,0:0:0:0:
37,38,9788,1,0,0:0:0:0:
15,113,9980,6,0,L|18:247,1,112,4|0,0:2|0:0,0:0:0:0:
67,285,10557,1,2,0:0:0:0:
67,285,10750,2,0,L|57:351,1,56,0|2,1:0|0:0,0:0:0:0:
144,319,11134,2,0,L|154:385,1,56,0|0,1:0|1:3,0:0:0:0:
166,370,11423,1,0,1:3:0:0:
179,366,11519,1,0,1:0:0:0:
256,352,11711,1,0,1:0:0:0:
242,38,12480,5,0,1:0:0:0:
242,38,12576,1,0,0:0:0:0:
242,38,12673,1,2,0:0:0:0:
79,146,13057,6,0,L|234:135,1,140,4|0,0:0|0:0,0:0:0:0:
310,170,13634,1,2,0:0:0:0:
234,232,13826,2,0,P|231:292|237:326,1,70,0|2,0:0|0:0,0:0:0:0:
326,329,14211,2,0,P|327:294|324:259,1,70,8|0,1:2|1:0,0:0:0:0:
415,223,14596,5,2,0:0:0:0:
415,223,14788,1,0,0:0:0:0:
446,130,14980,2,0,P|446:66|435:41,1,70,0|2,0:0|0:0,0:0:0:0:
346,54,15365,2,0,P|310:64|258:60,1,70,0|0,1:2|1:2,0:0:0:0:
191,17,15750,1,8,0:0:0:0:
105,193,16134,6,0,B|85:131|144:124|99:36,1,140,0|10,1:1|2:2,0:0:0:0:
9,226,16903,1,2,1:2:0:0:
9,226,17096,1,0,0:0:0:0:
83,288,17288,2,0,L|172:286,1,70,8|0,1:2|0:0,0:0:0:0:
228,349,17673,6,0,P|246:305|238:259,1,70,2|0,0:0|0:0,0:0:0:0:
208,192,18057,2,0,P|190:148|198:102,1,70,10|0,0:2|0:0,0:0:0:0:
203,114,18346,1,0,0:0:0:0:
216,102,18442,1,2,0:0:0:0:
293,42,18634,1,2,0:0:0:0:
374,96,18826,2,0,L|368:187,1,70,0|0,1:2|0:0,0:0:0:0:
416,252,19211,6,0,B|362:253|362:253|342:263|342:263|249:266,1,140,4|8,0:0|0:2,0:0:0:0:
193,314,19788,2,0,P|180:258|225:183,1,140,2|2,0:0|0:0,0:0:0:0:
291,136,20365,1,8,1:2:0:0:
124,31,20750,5,2,0:0:0:0:
124,31,20942,1,0,0:0:0:0:
63,107,21134,1,8,0:2:0:0:
63,107,21326,2,0,L|62:195,1,70,2|0,0:0|1:0,0:0:0:0:
6,257,21711,1,2,0:0:0:0:
6,257,21903,1,8,1:2:0:0:
186,333,22288,5,10,2:2:0:0:
186,333,22480,1,0,0:0:0:0:
248,256,22673,1,2,0:0:0:0:
286,345,22865,1,0,1:0:0:0:
290,361,22961,1,0,1:0:0:0:
295,377,23057,2,0,L|354:376,2,35,0|0|2,1:0|0:0|2:2,0:0:0:0:
248,256,23442,1,2,2:0:0:0:
363,268,23634,6,0,B|404:248|429:262|429:262|449:290|489:298,1,140,4|8,1:2|0:0,0:0:0:0:
511,203,24211,1,0,1:0:0:0:
428,163,24403,2,0,L|425:115,1,35,2|0,0:0|0:0,0:0:0:0:
509,86,24596,5,2,0:0:0:0:
429,54,24788,1,8,0:3:0:0:
429,54,24884,1,0,3:0:0:0:
429,54,24980,2,0,L|333:52,1,70,4|0,0:3|1:1,0:0:0:0:
341,53,25269,1,0,1:0:0:0:
323,54,25365,1,0,1:0:0:0:
241,108,25557,6,0,L|245:171,2,35,0|0|2,1:0|0:0|0:0,0:0:0:0:
161,50,25942,2,0,P|103:32|8:71,1,140,2|2,0:0|0:0,0:0:0:0:
98,126,26519,1,2,0:0:0:0:
61,216,26711,2,0,B|107:243|153:187|218:230,1,140,4|8,0:0|3:3,0:0:0:0:
213,227,27192,1,0,0:0:0:0:
228,235,27288,2,0,P|261:242|306:237,2,70,0|0|0,1:0|0:0|1:0,0:0:0:0:
218,137,27865,1,8,0:3:0:0:
314,155,28057,2,0,P|357:180|377:214,1,70,4|2,1:3|0:0,0:0:0:0:
412,261,28442,6,0,L|411:186,1,56,6|0,0:0|0:0,0:0:0:0:
477,163,28826,2,0,L|478:88,1,56,8|0,0:0|0:0,0:0:0:0:
429,44,29211,2,0,P|382:13|327:16,1,112,2|8,0:0|0:0,0:0:0:0:
265,62,29788,2,0,L|275:100,1,28,2|0,2:2|0:0,0:0:0:0:
286,125,29980,6,0,L|154:115,2,112,2|8|2,0:2|0:0|0:0,0:0:0:0:
371,256,31134,1,8,0:0:0:0:
323,318,31326,1,0,1:1:0:0:
371,256,31519,6,0,P|400:298|384:372,2,112,0|10|2,1:0|0:0|0:0,0:0:0:0:
214,248,32673,1,8,0:0:0:0:
83,334,33057,6,0,L|80:205,1,112,2|10,0:0|0:2,0:0:0:0:
53,148,33634,1,0,0:0:0:0:
130,160,33826,2,0,P|172:164|200:158,1,56,2|0,0:0|0:0,0:0:0:0:
213,88,34211,2,0,P|255:84|283:90,1,56,8|0,1:2|0:0,0:0:0:0:
317,147,34596,6,0,L|324:15,1,112,2|8,1:2|0:0,0:0:0:0:
398,14,35173,2,0,P|458:18|497:65,1,112,2|2,0:0|0:0,0:0:0:0:
422,89,35750,1,8,0:0:0:0:
488,129,35942,6,0,L|482:240,1,112,0|0,0:0|0:0,0:0:0:0:
497,318,36519,1,8,0:0:0:0:
432,362,36711,2,0,P|371:357|316:321,1,112,2|0,0:0|3:0,0:0:0:0:
320,320,37192,1,0,3:0:0:0:
313,307,37288,1,8,3:0:0:0:
312,228,37480,1,4,3:3:0:0:
241,262,37673,6,0,L|116:264,1,112,4|8,0:0|0:0,0:0:0:0:
20,150,38442,2,0,L|131:148,1,112,2|8,1:2|0:0,0:0:0:0:
187,92,39019,1,8,3:0:0:0:
187,92,39115,1,8,3:0:0:0:
187,92,39211,5,0,1:1:0:0:
246,143,39403,2,0,L|251:219,1,56,2|8,0:0|0:0,0:0:0:0:
287,77,39788,1,6,0:0:0:0:
339,134,39980,2,0,L|344:210,1,56,2|0,0:0|0:0,0:0:0:0:
382,69,40365,1,12,0:0:0:0:
487,224,40750,6,0,P|436:231|425:231,1,62.9999980773926,4|0,1:2|0:0,0:0:0:0:
347,194,41134,1,8,0:0:0:0:
347,194,41326,1,0,0:0:0:0:
365,280,41519,2,0,L|363:358,1,62.9999980773926,2|2,0:0|0:0,0:0:0:0:
278,368,41903,2,0,L|276:305,1,62.9999980773926,8|0,0:0|0:0,0:0:0:0:
217,239,42288,6,0,P|127:219|80:234,2,125.999996154785,2|8|2,1:2|0:0|0:0,0:0:0:0:
273,170,43250,1,0,1:0:0:0:
226,95,43442,2,0,P|226:55|233:17,1,62.9999980773926,0|2,1:0|0:0,0:0:0:0:
317,34,43826,6,0,L|401:38,1,62.9999980773926,2|0,1:2|0:0,0:0:0:0:
448,93,44211,2,0,P|471:141|451:227,1,125.999996154785,8|2,0:0|0:0,0:0:0:0:
397,273,44788,1,2,0:0:0:0:
433,353,44980,1,8,0:0:0:0:
264,299,45365,5,0,1:2:0:0:
264,299,45557,1,0,1:2:0:0:
192,246,45750,2,0,L|107:251,1,62.9999980773926,12|0,2:2|3:0,0:0:0:0:
115,257,46038,1,0,3:0:0:0:
101,265,46134,1,0,1:0:0:0:
28,315,46326,1,0,0:0:0:0:
24,226,46519,2,0,L|28:157,1,62.9999980773926,8|0,0:0|0:0,0:0:0:0:
111,137,46903,6,0,P|163:137|196:120,1,62.9999980773926,4|0,0:0|0:0,0:0:0:0:
220,58,47288,1,10,0:0:0:0:
295,103,47480,2,0,L|294:241,1,125.999996154785,0|0,0:0|0:0,0:0:0:0:
240,299,48057,2,0,P|289:318|320:313,1,62.9999980773926,10|0,0:0|0:0,0:0:0:0:
373,270,48442,5,2,1:2:0:0:
373,270,48634,1,0,1:0:0:0:
294,228,48826,1,8,0:0:0:0:
240,299,49019,2,0,P|181:306|107:270,1,125.999996154785,2|2,0:0|0:0,0:0:0:0:
82,201,49596,1,8,0:0:0:0:
129,126,49788,1,2,0:0:0:0:
129,126,49884,1,2,0:0:0:0:
129,126,49980,6,0,L|254:135,1,125.999996154785,4|8,1:2|0:0,0:0:0:0:
332,176,50557,2,0,B|339:136|339:136|319:40,1,125.999996154785,6|0,1:2|2:2,0:0:0:0:
245,7,51134,1,8,1:2:0:0:
400,9,51326,6,0,L|434:143,1,125.999996154785,4|0,1:2|0:0,0:0:0:0:
435,146,51807,1,0,0:0:0:0:
438,161,51903,1,8,0:3:0:0:
461,246,52096,1,4,0:3:0:0:
392,301,52288,2,0,L|392:371,1,62.9999980773926,2|4,0:0|0:3,0:0:0:0:
323,246,52673,1,4,0:3:0:0:
158,309,53057,6,0,L|146:158,1,125.999996154785,4|0,1:2|0:0,0:0:0:0:
206,116,53634,1,2,0:0:0:0:
136,62,53826,2,0,P|185:32|265:54,1,125.999996154785,0|10,1:0|0:0,0:0:0:0:
307,109,54403,6,0,L|387:113,2,62.9999980773926,2|0|0,1:2|0:0|0:0,0:0:0:0:
250,42,54980,1,8,0:0:0:0:
425,58,55365,2,0,P|448:108|444:133,1,62.9999980773926,0|0,1:0|0:0,0:0:0:0:
397,187,55750,2,0,P|374:237|378:262,1,62.9999980773926,0|0,0:0|0:0,0:0:0:0:
384,330,56134,5,4,1:2:0:0:
384,330,56326,1,0,1:2:0:0:
301,363,56519,1,8,0:0:0:0:
301,363,56711,1,0,1:1:0:0:
243,296,56903,2,0,P|182:273|114:278,1,125.999996154785,2|2,1:2|0:0,0:0:0:0:
36,298,57480,6,0,L|39:368,2,62.9999980773926,0|0|0,1:2|0:0|1:0,0:0:0:0:
63,213,58057,1,8,2:2:0:0:
34,38,58442,2,0,P|90:60|171:43,1,125.999996154785,0|8,1:0|0:0,0:0:0:0:
237,21,59019,1,0,1:0:0:0:
237,21,59115,1,0,1:0:0:0:
237,21,59211,6,0,L|236:109,1,66.4999982242585,4|0,1:2|0:0,0:0:0:0:
308,146,59596,2,0,L|309:234,1,66.4999982242585,8|0,0:0|0:0,0:0:0:0:
242,278,59980,1,2,0:0:0:0:
242,278,60173,1,2,0:0:0:0:
167,222,60365,2,0,P|110:213|76:221,1,66.4999982242585,8|0,0:0|0:0,0:0:0:0:
17,254,60750,5,0,1:0:0:0:
17,254,60942,1,0,0:0:0:0:
101,214,61134,2,0,P|107:159|53:75,1,132.999996448517,8|2,0:0|2:2,0:0:0:0:
10,22,61711,1,0,1:0:0:0:
100,2,61903,2,0,P|137:0|192:19,1,66.4999982242585,8|0,1:2|1:0,0:0:0:0:
253,36,62288,5,2,1:2:0:0:
184,101,62480,1,2,0:0:0:0:
182,117,62576,1,2,0:0:0:0:
180,133,62673,1,8,0:0:0:0:
233,208,62865,2,0,P|285:225|367:191,1,132.999996448517,4|0,1:2|0:0,0:0:0:0:
401,115,63442,1,8,0:0:0:0:
505,238,63634,6,0,L|505:305,1,66.4999982242585,4|0,1:0|0:0,0:0:0:0:
492,141,64019,1,8,1:3:0:0:
413,265,64211,5,4,1:3:0:0:
409,283,64596,5,0,0:0:0:0:
406,300,64980,5,0,0:0:0:0:
81,323,65365,6,0,P|164:339|261:288,1,167.999994873047,4|8,1:2|0:0,0:0:0:0:
268,211,65942,1,0,0:0:0:0:
181,159,66134,1,2,0:0:0:0:
181,159,66326,1,2,0:0:0:0:
265,103,66519,1,8,0:0:0:0:
181,159,66711,6,0,B|120:158|120:158|84:140|84:140|1:141,1,167.999994873047,4|0,1:2|1:0,0:0:0:0:
56,233,67288,2,0,L|51:325,1,83.9999974365235,8|0,2:2|0:0,0:0:0:0:
138,368,67673,1,2,2:2:0:0:
138,368,67865,1,0,0:0:0:0:
228,324,68057,2,0,L|223:240,1,83.9999974365235,8|0,0:0|0:0,0:0:0:0:
305,180,68442,6,0,B|392:152|392:216|476:180,2,167.999994873047,4|8|2,1:2|0:0|0:0,0:0:0:0:
223,240,69403,1,0,0:0:0:0:
209,139,69596,1,10,0:0:0:0:
131,203,69788,6,0,B|108:268|108:268|140:371,1,167.999994873047,4|0,1:2|1:1,0:0:0:0:
238,333,70365,1,8,0:0:0:0:
335,306,70557,1,0,1:0:0:0:
343,342,70653,1,0,1:0:0:0:
353,378,70750,1,2,1:2:0:0:
434,320,70942,1,2,0:0:0:0:
512,347,71134,1,12,0:0:0:0:
413,152,71519,6,0,B|363:145|363:145|211:170,1,167.999994873047,4|10,1:2|0:0,0:0:0:0:
166,103,72096,2,0,P|206:146|169:268,1,167.999994873047,2|2,0:0|0:0,0:0:0:0:
109,189,72673,1,8,0:0:0:0:
147,341,72865,6,0,L|327:333,1,167.999994873047,4|0,1:2|0:0,0:0:0:0:
415,328,73442,2,0,L|414:209,1,83.9999974365235,10|0,0:0|0:0,0:0:0:0:
314,231,73826,2,0,L|315:112,1,83.9999974365235,2|0,0:0|0:0,0:0:0:0:
404,101,74211,2,0,L|403:-18,1,83.9999974365235,10|2,0:0|0:0,0:0:0:0:
308,53,74596,5,4,1:2:0:0:
210,28,74788,1,0,1:1:0:0:
181,21,74884,1,0,2:2:0:0:
152,15,74980,1,0,1:0:0:0:
64,65,75173,2,0,P|64:136|88:167,1,83.9999974365235,4|0,1:2|0:0,0:0:0:0:
161,185,75557,2,0,P|168:225|155:265,1,83.9999974365235,2|0,0:0|0:0,0:0:0:0:
102,351,75942,6,0,P|168:304|271:334,1,167.999994873047,4|2,1:2|0:0,0:0:0:0:
322,384,76519,1,4,0:0:0:0:
350,287,76711,1,2,1:2:0:0:
163,273,77096,1,8,0:3:0:0:
163,273,77192,1,8,0:3:0:0:
163,273,77288,1,4,0:3:0:0:
184,106,77673,6,0,B|274:79|255:138|366:102,2,167.999994873047,4|8|2,1:2|0:0|0:0,0:0:0:0:
108,39,78634,1,2,0:0:0:0:
84,137,78826,1,8,0:0:0:0:
169,193,79019,6,0,P|180:233|93:327,1,167.999994873047,4|0,1:2|0:1,0:0:0:0:
74,228,79596,1,8,0:0:0:0:
228,356,79980,2,0,L|314:351,1,83.9999974365235,2|2,0:0|0:0,0:0:0:0:
413,349,80365,2,0,L|496:344,1,83.9999974365235,8|0,0:0|0:0,0:0:0:0:
486,243,80750,6,0,P|471:173|524:82,2,167.999994873047,4|8|0,1:2|0:0|0:0,0:0:0:0:
385,232,81711,1,2,0:0:0:0:
342,140,81903,1,10,0:0:0:0:
278,219,82096,6,0,L|96:235,1,167.999994873047,6|0,1:2|0:0,0:0:0:0:
49,314,82673,1,0,1:0:0:0:
7,222,82865,1,0,1:0:0:0:
12,193,82961,1,0,0:0:0:0:
18,164,83057,1,2,1:2:0:0:
46,66,83250,1,2,0:2:0:0:
118,135,83442,2,0,P|165:153|199:154,1,83.9999974365235,2|0,1:2|0:0,0:0:0:0:
359,66,83826,6,0,P|314:97|338:222,1,167.999994873047,4|10,0:2|0:0,0:0:0:0:
414,220,84403,2,0,L|511:219,1,83.9999974365235,2|0,0:0|1:0,0:0:0:0:
501,320,84788,2,0,L|417:320,1,83.9999974365235,0|0,0:0|0:0,0:0:0:0:
287,361,85173,6,0,B|319:303|319:303|314:188,2,167.999994873047,4|2|0,1:2|0:0|0:0,0:0:0:0:
186,358,86134,1,2,0:0:0:0:
121,281,86326,1,2,0:0:0:0:
129,180,86519,1,8,0:0:0:0:
187,99,86711,1,0,1:1:0:0:
212,85,86807,1,0,1:1:0:0:
239,73,86903,6,0,L|126:75,1,83.9999974365235,4|0,1:2|0:0,0:0:0:0:
53,72,87288,1,8,0:0:0:0:
18,166,87480,2,0,P|13:207|31:269,1,83.9999974365235,0|0,1:0|1:0,0:0:0:0:
81,330,87865,1,0,1:0:0:0:
81,330,87961,1,8,3:0:0:0:
81,330,88057,1,4,3:0:0:0:
142,245,88250,6,0,B|241:192|297:250|329:293|341:336|426:235|363:196|333:212|316:229,1,315,4|2,0:0|0:0,0:0:0:0:
266,132,90365,5,2,0:0:0:0:
266,132,90557,2,0,P|261:83|294:17,2,112,2|0|2,0:0|0:0|0:0,0:0:0:0:
354,97,93057,5,2,0:0:0:0:
