osu file format v14

[General]
AudioFilename: audio.mp3
AudioLeadIn: 0
PreviewTime: 40653
Countdown: 0
SampleSet: Soft
StackLeniency: 0.3
Mode: 0
LetterboxInBreaks: 0
WidescreenStoryboard: 1

[Editor]
Bookmarks: 750,13057,28442,37080,38234,40750,45926,53057,65365,74580,82849,89980,93041
DistanceSpacing: 0.9
BeatDivisor: 4
GridSize: 8
TimelineZoom: 1.7

[Metadata]
Title:"If" short ver.
TitleUnicode:「If」 short ver.
Artist:Marika
ArtistUnicode:真里歌
Creator:Naotoshi
Version:Doj's "Insane"
Source:タラレバ
Tags:technical mapping emphasis faking tarareba aries maru oku eroge visual novel kocari iwinnie akitoshi corinn doj mir
BeatmapID:1439760
BeatmapSetID:680350

[Difficulty]
HPDrainRate:6.5
CircleSize:4
OverallDifficulty:7.5
ApproachRate:8.8
SliderMultiplier:1.4
SliderTickRate:1

[Events]
//Background and Video events
0,0,"bg.jpg",0,0
//Break Periods
//Storyboard Layer 0 (Background)
//Storyboard Layer 1 (Fail)
//Storyboard Layer 2 (Pass)
//Storyboard Layer 3 (Foreground)
//Storyboard Sound Samples

[TimingPoints]
750,384.615384615385,4,2,0,50,1,0
750,-117.647058823529,4,2,0,50,0,0
11519,-100,4,2,0,50,0,0
11615,-100,4,2,0,5,0,0
11711,-76.9230769230769,4,2,0,50,0,0
12000,-83.3333333333333,4,2,0,5,0,0
12480,-83.3333333333333,4,2,0,50,0,0
12673,-86.9565217391304,4,2,0,50,0,0
12961,-86.9565217391304,4,2,0,5,0,0
13057,-90.9090909090909,4,2,0,65,0,0
16423,-90.9090909090909,4,2,0,5,0,0
16519,-90.9090909090909,4,2,0,65,0,0
22192,-90.9090909090909,4,2,0,5,0,0
22288,-90.9090909090909,4,2,0,65,0,0
23057,-100,4,2,0,65,0,0
23923,-100,4,2,0,5,0,0
24019,-100,4,2,0,65,0,0
27000,-100,4,2,0,5,0,0
27096,-100,4,2,0,65,0,0
27288,-100,4,2,0,55,0,0
27480,-100,4,2,0,45,0,0
27673,-100,4,2,0,35,0,0
27865,-100,4,2,0,35,0,0
34500,-100,4,2,0,5,0,0
34596,-100,4,2,0,35,0,0
36134,-100,4,2,0,35,0,0
37673,-100,4,2,0,40,0,0
38442,-100,4,2,0,45,0,0
39211,-100,4,2,0,55,0,0
40653,-100,4,2,0,5,0,0
40750,-100,4,2,0,50,0,0
42192,-100,4,2,0,5,0,0
42288,-100,4,2,0,50,0,0
53057,-117.647058823529,4,2,0,35,0,0
59211,-100,4,2,0,40,0,0
62480,-100,4,2,0,45,0,0
62865,-90.9090909090909,4,2,0,40,0,0
63923,-90.9090909090909,4,2,0,5,0,0
64019,-90.9090909090909,4,2,0,40,0,0
64211,-90.9090909090909,4,2,0,50,0,0
65365,-86.9565217391304,4,2,0,70,0,1
65653,-86.9565217391304,4,2,0,5,0,1
65750,-86.9565217391304,4,2,0,70,0,1
67000,-86.9565217391304,4,2,0,5,0,1
67096,-86.9565217391304,4,2,0,70,0,1
68346,-86.9565217391304,4,2,0,5,0,1
68442,-86.9565217391304,4,2,0,70,0,1
68730,-86.9565217391304,4,2,0,5,0,1
68826,-86.9565217391304,4,2,0,70,0,1
70076,-86.9565217391304,4,2,0,5,0,1
70173,-86.9565217391304,4,2,0,70,0,1
71423,-86.9565217391304,4,2,0,5,0,1
71519,-86.9565217391304,4,2,0,70,0,1
75173,-100,4,2,0,70,0,1
75461,-100,4,2,0,5,0,1
75557,-76.9230769230769,4,2,0,70,0,1
75942,-100,4,2,0,70,0,1
76230,-100,4,2,0,5,0,1
76326,-76.9230769230769,4,2,0,70,0,1
76711,-100,4,2,0,70,0,1
77673,-83.3333333333333,4,2,0,70,0,1
79307,-83.3333333333333,4,2,0,5,0,1
79403,-83.3333333333333,4,2,0,70,0,1
81038,-83.3333333333333,4,2,0,5,0,1
81134,-83.3333333333333,4,2,0,70,0,1
83826,-100,4,2,0,50,0,1
86903,-71.4285714285714,4,2,0,50,0,1
88250,-71.4285714285714,4,2,0,50,0,0
89980,-111.111111111111,4,2,0,50,0,0
90173,-111.111111111111,4,2,0,40,0,0
90365,-111.111111111111,4,2,0,30,0,0
90557,-111.111111111111,4,2,0,45,0,0
90942,-111.111111111111,4,2,0,30,0,0
91326,-111.111111111111,4,2,12,45,0,0
93057,-111.111111111111,4,2,0,20,0,0

[Colours]
Combo1 : 253,198,238
Combo2 : 207,197,252

[HitObjects]
223,232,750,6,0,P|230:269|234:311,1,59.5000011348725,2|0,0:0|0:0,0:0:0:0:
306,126,1134,2,0,P|299:163|295:205,1,59.5000011348725,2|2,0:0|0:0,0:0:0:0:
296,184,1903,1,2,0:0:0:0:
439,230,2096,1,0,3:0:0:0:
450,211,2288,6,0,P|481:202|515:188,1,59.5000011348725,0|0,3:2|0:0,0:0:0:0:
370,317,2673,2,0,P|331:320|297:327,1,59.5000011348725,0|2,0:0|0:0,0:0:0:0:
310,323,3442,1,0,0:0:0:0:
348,178,3826,6,0,L|362:109,1,59.5000011348725,2|0,0:0|0:0,0:0:0:0:
455,32,4211,2,0,L|471:104,1,59.5000011348725,2|2,0:0|0:0,0:0:0:0:
467,90,4980,1,2,0:0:0:0:
308,42,5173,1,0,3:0:0:0:
289,54,5365,6,0,P|256:46|221:42,1,59.5000011348725,2|0,3:2|0:0,0:0:0:0:
64,168,5750,2,0,P|104:168|129:164,1,59.5000011348725,2|0,0:0|0:0,0:0:0:0:
263,284,6134,2,0,P|234:309|211:338,1,59.5000011348725
379,198,6519,2,0,P|377:162|369:129,1,59.5000011348725
446,332,6903,6,0,P|448:296|456:263,1,59.5000011348725,2|0,0:0|0:0,0:0:0:0:
479,187,7288,1,0,0:0:0:0:
345,70,7480,1,2,0:0:0:0:
345,70,8057,1,0,0:0:0:0:
221,106,8250,1,0,3:0:0:0:
210,90,8442,6,0,L|150:83,1,59.5000011348725,2|0,3:2|0:0,0:0:0:0:
248,218,8826,2,0,L|306:207,1,59.5000011348725,0|2,0:0|0:0,0:0:0:0:
306,207,9596,1,0,0:0:0:0:
428,125,9980,6,0,P|453:179|443:255,1,119.000002269745,4|0,0:2|0:0,0:0:0:0:
387,296,10557,1,2,0:0:0:0:
306,207,10750,1,0,1:0:0:0:
278,351,10942,1,2,0:0:0:0:
337,194,11134,1,0,1:0:0:0:
205,85,11326,1,0,1:3:0:0:
190,82,11423,1,0,1:3:0:0:
176,87,11519,6,0,P|154:120|144:142,1,35,0|0,1:0|0:0,0:0:0:0:
95,219,11711,2,0,P|84:155|76:63,1,136.499993751526,0|0,1:0|0:0,0:0:0:0:
42,233,12480,2,0,P|24:255|12:276,2,27.9999991455078,0|0|0,1:0|0:0|0:0,0:0:0:0:
62,237,12673,2,0,P|129:223|206:224,1,120.750002303124,2|0,0:0|0:0,0:0:0:0:
252,227,13057,6,0,P|286:271|252:355,1,154.000004699707,4|0,0:0|0:0,0:0:0:0:
151,308,13634,1,2,0:0:0:0:
314,273,13826,2,0,P|365:269|416:270,1,77.0000023498536,0|2,0:0|0:0,0:0:0:0:
194,189,14211,1,8,1:2:0:0:
136,331,14403,1,0,1:0:0:0:
212,159,14596,6,0,P|255:145|294:140,1,77.0000023498536,2|0,0:0|0:0,0:0:0:0:
148,299,14980,1,0,0:0:0:0:
65,199,15173,1,2,0:0:0:0:
218,334,15365,2,0,P|263:334|319:329,1,77.0000023498536,0|0,1:2|1:2,2:2:0:0:
316,149,15750,1,8,0:0:0:0:
402,282,15942,1,0,0:0:0:0:
201,208,16134,6,0,P|185:153|211:80,1,115.50000352478,0|0,1:1|0:0,0:0:0:0:
252,42,16519,2,0,P|299:38|336:34,1,77.0000023498536,8|0,2:2|0:0,0:0:0:0:
347,40,16807,1,0,0:0:0:0:
364,47,16903,1,2,0:0:0:0:
420,158,17096,1,0,0:0:0:0:
333,279,17288,2,0,P|320:325|313:369,1,77.0000023498536,0|0,1:0|0:0,0:0:0:0:
229,159,17673,6,0,P|242:205|249:249,1,77.0000023498536,2|0,0:0|0:0,0:0:0:0:
175,49,18057,1,2,0:0:0:0:
353,145,18250,1,0,0:0:0:0:
370,152,18346,1,0,0:0:0:0:
389,152,18442,1,2,0:0:0:0:
457,59,18634,1,2,0:0:0:0:
259,87,18826,2,0,P|223:82|182:64,1,77.0000023498536,0|0,1:2|0:0,0:0:0:0:
389,152,19211,6,0,P|411:214|354:279,1,154.000004699707,4|0,0:0|0:0,0:0:0:0:
265,181,19788,1,2,0:0:0:0:
378,301,19980,2,0,P|384:363|383:390,1,77.0000023498536,0|2,0:0|0:0,0:0:0:0:
249,201,20365,1,0,1:0:0:0:
378,133,20557,1,0,1:0:0:0:
226,228,20750,6,0,P|185:223|145:220,1,77.0000023498536,2|0,0:0|0:0,0:0:0:0:
370,109,21134,1,0,0:0:0:0:
212,249,21326,1,2,0:0:0:0:
361,76,21519,2,0,P|405:65|457:60,1,77.0000023498536,0|2,1:0|0:0,0:0:0:0:
287,146,21903,2,0,P|237:163|168:139,1,115.50000352478,0|0,1:0|0:0,0:0:0:0:
118,105,22288,6,0,P|107:62|104:25,1,77.0000023498536,10|0,2:2|0:0,0:0:0:0:
234,48,22673,1,2,0:0:0:0:
75,186,22865,1,0,1:0:0:0:
56,192,22961,1,0,1:0:0:0:
35,193,23057,2,0,P|26:172|19:146,1,35,0|0,1:0|0:0,0:0:0:0:
61,298,23250,1,2,2:2:0:0:
164,167,23442,1,2,2:0:0:0:
40,325,23634,2,0,P|93:305|158:306,1,105,4|0,1:2|0:0,0:0:0:0:
218,321,24019,5,8,0:0:0:0:
169,182,24211,1,0,1:0:0:0:
326,307,24403,1,2,0:0:0:0:
354,327,24499,1,0,0:0:0:0:
379,353,24596,1,2,0:0:0:0:
390,313,24692,1,0,0:0:0:0:
419,282,24788,1,8,0:3:0:0:
458,269,24884,1,0,0:0:0:0:
499,272,24980,2,0,P|501:302|499:322,1,35,4|0,0:3|0:0,0:0:0:0:
350,237,25173,2,0,P|348:207|348:185,1,35,0|0,1:1|1:0,0:0:0:0:
402,109,25365,6,0,P|354:106|309:95,1,70,0|0,1:0|1:0,0:0:0:0:
308,95,25653,1,0,0:0:0:0:
285,84,25750,1,2,0:0:0:0:
111,39,25942,2,0,P|67:42|12:48,1,70,2|0,0:0|0:0,0:0:0:0:
144,181,26326,1,2,0:0:0:0:
188,88,26519,1,2,0:0:0:0:
66,128,26711,2,0,P|48:183|70:243,1,105,4|0,0:0|0:0,0:0:0:0:
112,288,27096,2,0,P|116:309|117:329,1,35,8|0,3:3|0:0,0:0:0:0:
235,220,27288,5,0,1:0:0:0:
301,324,27480,1,0,0:0:0:0:
337,239,27673,1,8,1:3:0:0:
295,338,27865,1,8,0:3:0:0:
244,243,28057,1,4,1:3:0:0:
293,349,28250,1,2,0:0:0:0:
278,384,28442,6,0,P|234:382|190:382,1,70,6|0,0:0|0:0,0:0:0:0:
414,230,28826,2,0,P|377:259|369:293,1,70,8|0,0:0|0:0,0:0:0:0:
500,340,29211,2,0,P|504:273|497:180,1,140,2|8,0:0|0:0,0:0:0:0:
386,58,29788,1,2,2:2:0:0:
375,51,29884,1,0,0:0:0:0:
362,50,29980,6,0,P|341:83|332:126,1,70,2|0,0:2|0:0,0:0:0:0:
361,210,30365,2,0,L|371:291,1,70,8|0,0:0|0:0,0:0:0:0:
255,228,30750,2,0,L|236:71,1,140,2|8,0:0|0:0,0:0:0:0:
386,58,31326,1,0,1:1:0:0:
148,148,31519,6,0,P|113:141|57:146,1,70,0|0,1:0|0:0,0:0:0:0:
66,149,31807,1,2,0:0:0:0:
60,161,31903,1,10,0:0:0:0:
164,263,32096,1,0,0:0:0:0:
238,89,32288,2,0,L|249:174,1,70,2|0,0:0|0:0,0:0:0:0:
314,263,32673,2,0,L|303:348,1,70,8|0,0:0|0:0,0:0:0:0:
426,148,33057,5,2,0:0:0:0:
426,148,33250,1,2,0:0:0:0:
362,72,33442,1,10,0:2:0:0:
475,65,33634,1,0,0:0:0:0:
334,176,33826,1,2,0:0:0:0:
334,176,34019,1,0,0:0:0:0:
457,269,34211,2,0,P|474:320|459:377,1,105,8|0,1:2|0:0,0:0:0:0:
384,384,34596,6,0,P|350:385|313:380,1,70,2|0,1:2|0:0,0:0:0:0:
172,238,34980,1,8,0:0:0:0:
287,362,35173,1,2,0:0:0:0:
138,358,35365,1,0,0:0:0:0:
254,273,35558,1,2,0:0:0:0:
116,374,35750,2,0,P|74:364|53:324,1,70,8|0,0:0|0:0,0:0:0:0:
52,316,36038,1,0,0:0:0:0:
57,288,36134,6,0,P|63:249|62:210,1,70,0|0,1:1|0:0,0:0:0:0:
50,97,36519,1,8,0:0:0:0:
50,97,36711,1,2,0:0:0:0:
177,32,36903,1,0,3:0:0:0:
244,137,37096,1,0,3:0:0:0:
240,161,37192,1,0,3:0:0:0:
235,185,37288,1,8,3:0:0:0:
230,209,37384,1,8,0:3:0:0:
225,233,37480,2,0,P|221:253|219:271,1,35,4|0,3:3|0:0,0:0:0:0:
270,366,37673,6,0,P|292:335|292:292,1,70,4|0,0:0|0:0,0:0:0:0:
141,200,38057,1,8,0:0:0:0:
29,275,38250,2,0,P|30:294|35:318,1,35,0|0,1:0|0:0,0:0:0:0:
108,373,38442,2,0,L|122:294,1,70,2|0,1:2|0:0,0:0:0:0:
145,180,38826,1,8,0:0:0:0:
65,30,39019,1,8,3:0:0:0:
48,36,39115,1,8,3:0:0:0:
36,49,39211,5,0,1:1:0:0:
183,30,39403,1,2,0:0:0:0:
29,65,39596,1,8,0:0:0:0:
234,127,39788,1,6,0:0:0:0:
160,16,39980,1,8,0:0:0:0:
189,197,40173,1,0,0:0:0:0:
24,80,40365,2,0,P|9:129|56:170,1,105,6|0,0:0|0:0,0:0:0:0:
61,162,40750,6,0,L|54:242,1,70,4|0,1:2|0:0,0:0:0:0:
140,314,41134,2,0,L|147:394,2,70,8|0|2,0:0|0:0|0:0,0:0:0:0:
32,240,41711,1,2,0:0:0:0:
150,226,41903,2,0,P|209:218|272:228,1,105,8|0,0:0|0:0,0:0:0:0:
335,249,42288,6,0,P|333:212|337:172,1,70,2|0,1:2|0:0,0:0:0:0:
459,57,42673,2,0,P|488:112|451:182,1,140,8|2,0:0|0:0,0:0:0:0:
356,247,43250,1,0,1:0:0:0:
251,83,43442,1,0,1:0:0:0:
342,157,43634,1,2,0:0:0:0:
228,64,43826,6,0,P|188:59|140:56,1,70,2|0,1:2|0:0,0:0:0:0:
0,158,44211,2,0,P|35:156|88:150,1,70,8|0,0:0|0:0,0:0:0:0:
138,53,44596,1,2,0:0:0:0:
211,168,44788,1,2,0:0:0:0:
322,12,44980,2,0,P|330:55|323:101,1,70,8|0,0:0|0:0,0:0:0:0:
219,188,45365,5,0,1:2:0:0:
94,217,45557,1,0,1:2:0:0:
120,49,45750,1,12,2:2:0:0:
233,194,45942,1,0,3:0:0:0:
249,199,46038,1,0,3:0:0:0:
266,199,46134,1,0,1:0:0:0:
141,78,46326,1,0,0:0:0:0:
70,289,46519,1,8,0:0:0:0:
64,308,46903,6,0,P|100:326|145:321,1,70,4|0,0:0|0:0,0:0:0:0:
280,192,47288,1,10,0:0:0:0:
232,290,47480,2,0,P|228:326|231:366,1,70,0|2,0:0|0:0,0:0:0:0:
355,259,47865,1,0,0:0:0:0:
403,161,48057,2,8,P|406:124|404:85,1,70,10|0,0:0|0:0,0:0:0:0:
313,29,48442,5,2,1:2:0:0:
313,29,48634,1,0,1:0:0:0:
489,64,48826,1,8,0:0:0:0:
389,181,49019,2,0,P|347:178|310:174,1,70,2|2,0:0|0:0,0:0:0:0:
152,100,49403,2,0,P|194:97|231:93,1,70,2|8,0:0|0:0,0:0:0:0:
357,15,49788,1,2,0:0:0:0:
374,15,49884,1,2,0:0:0:0:
389,23,49980,6,0,P|400:57|404:98,1,70,4|0,1:2|0:0,0:0:0:0:
313,193,50365,1,8,0:0:0:0:
478,17,50557,2,0,P|491:66|488:160,1,140,6|0,1:2|2:2,0:0:0:0:
432,259,51134,1,8,1:2:0:0:
403,110,51326,6,0,P|377:82|300:122,1,140,4|0,1:2|0:0,0:0:0:0:
321,342,51903,1,8,0:3:0:0:
301,218,52096,1,4,0:3:0:0:
424,275,52288,1,2,0:0:0:0:
327,328,52480,1,4,0:3:0:0:
409,276,52673,1,4,0:3:0:0:
393,275,53057,6,0,P|359:278|317:284,1,59.5000011348725,4|0,1:2|1:0,0:0:0:0:
133,375,53634,1,2,0:0:0:0:
144,383,53826,2,0,L|224:383,1,59.5000011348725,0|0,1:0|0:0,0:0:0:0:
101,268,54211,1,10,0:0:0:0:
93,285,54403,6,0,P|14:283|27:206,1,178.500003404617,2|8,1:2|0:0,0:0:0:0:
39,212,55365,2,0,P|83:213|108:152,1,119.000002269745,0|0,1:0|0:0,0:0:0:0:
108,152,56134,5,4,1:2:0:0:
15,104,56326,1,0,1:2:0:0:
30,189,56519,1,8,0:0:0:0:
92,64,56711,1,0,1:1:0:0:
183,193,56903,1,2,1:2:0:0:
211,29,57288,1,2,0:0:0:0:
221,45,57480,6,0,P|278:55|346:38,1,119.000002269745,0|0,1:2|1:0,2:2:0:0:
434,4,58057,2,0,P|442:37|448:83,1,59.5000011348725,8|0,2:2|0:0,0:0:0:0:
323,204,58442,2,0,P|311:176|301:139,1,59.5000011348725,0|0,1:0|0:0,0:0:0:0:
351,32,58826,1,8,0:0:0:0:
448,216,59019,1,0,1:0:0:0:
462,220,59115,1,0,1:0:0:0:
475,214,59211,6,0,P|478:181|472:144,1,70,4|0,1:2|0:0,0:0:0:0:
302,148,59596,2,0,P|295:195|302:246,1,70,8|0,0:0|0:0,0:0:0:0:
340,305,59980,1,2,0:0:0:0:
438,211,60173,1,2,0:0:0:0:
316,325,60365,2,0,L|239:321,1,70,8|0,0:0|0:0,0:0:0:0:
88,234,60750,6,0,L|165:230,1,70,0|0,1:0|0:0,0:0:0:0:
316,325,61134,1,8,0:0:0:0:
254,217,61326,1,0,0:0:0:0:
169,330,61519,2,0,P|132:328|99:322,1,70,2|0,2:2|1:0,0:0:0:0:
14,226,61903,1,0,1:0:0:0:
39,74,62096,1,0,1:0:0:0:
52,62,62192,1,0,1:0:0:0:
69,59,62288,5,2,1:2:0:0:
266,33,62480,1,2,0:0:0:0:
251,64,62576,1,2,0:0:0:0:
222,85,62673,1,8,0:0:0:0:
102,205,62865,6,0,P|164:199|269:201,1,154.000004699707,4|0,1:2|0:0,0:0:0:0:
362,315,63442,1,8,0:0:0:0:
423,73,63634,2,0,P|448:124|389:169,1,115.50000352478,4|0,1:0|0:0,0:0:0:0:
356,209,64019,1,8,1:3:0:0:
222,85,64211,1,4,1:3:0:0:
222,85,65365,6,0,P|239:40|313:38,1,120.750002303124,4|0,1:2|0:0,0:0:0:0:
376,91,65750,2,0,P|385:133|385:180,1,80.5000015354157,8|0,0:0|0:0,0:0:0:0:
332,272,66134,1,2,0:0:0:0:
284,189,66326,1,2,0:0:0:0:
223,344,66519,1,8,0:0:0:0:
361,250,66711,6,0,P|421:246|447:310,1,120.750002303124,4|0,1:2|0:0,0:0:0:0:
441,369,67096,1,0,1:0:0:0:
486,180,67288,2,0,P|485:128|483:84,1,80.5000015354157,8|0,2:2|0:0,0:0:0:0:
358,330,67673,2,0,P|359:278|361:234,1,80.5000015354157,2|0,2:2|0:0,0:0:0:0:
475,87,68057,2,0,P|423:75|351:69,1,120.750002303124,8|0,0:0|0:0,0:0:0:0:
292,126,68442,6,0,P|321:85|282:15,1,120.750002303124,4|0,1:2|0:0,0:0:0:0:
222,9,68826,1,8,0:0:0:0:
157,114,69019,1,2,0:0:0:0:
51,6,69211,1,2,0:0:0:0:
176,128,69403,1,0,0:0:0:0:
297,23,69596,1,2,0:0:0:0:
199,143,69788,6,0,P|186:199|204:275,1,120.750002303124,4|0,1:2|0:0,0:0:0:0:
265,304,70173,1,0,1:1:0:0:
362,165,70365,1,8,0:0:0:0:
172,286,70557,1,0,1:0:0:0:
144,292,70653,1,0,1:0:0:0:
116,286,70750,1,2,1:2:0:0:
25,177,70942,1,2,0:0:0:0:
145,23,71134,2,0,P|170:66|149:132,1,120.750002303124,12|0,0:0|0:0,0:0:0:0:
117,202,71519,6,0,P|180:201|212:206,1,80.5000015354157,4|0,1:2|0:0,0:0:0:0:
293,253,71903,1,10,0:0:0:0:
385,111,72096,2,0,P|404:68|410:18,1,80.5000015354157,2|0,0:0|0:0,0:0:0:0:
303,228,72480,1,2,0:0:0:0:
237,110,72673,1,8,0:0:0:0:
70,287,72865,2,0,B|112:312|148:291|184:272|232:288,1,161.000003070831,4|0,1:2|0:0,0:0:0:0:
336,319,73442,5,10,0:0:0:0:
407,215,73634,1,2,0:0:0:0:
499,347,73826,1,2,0:0:0:0:
400,205,74019,1,8,0:0:0:0:
293,384,74211,1,10,0:0:0:0:
393,194,74403,1,2,0:0:0:0:
251,319,74596,2,0,P|204:321|172:308,1,80.5000015354157,4|0,1:2|0:0,0:0:0:0:
134,239,74884,1,0,1:0:0:0:
134,239,74980,1,0,1:0:0:0:
283,16,75173,6,0,P|323:59|319:122,1,105,4|0,1:2|0:0,0:0:0:0:
279,174,75557,2,0,L|181:157,1,90.9999958343508,2|0,0:0|0:0,0:0:0:0:
22,63,75942,6,0,P|8:116|4:186,1,105,4|0,1:2|0:0,0:0:0:0:
5,250,76326,2,0,P|50:239|95:237,1,90.9999958343508,2|4,0:0|0:0,0:0:0:0:
395,359,76711,2,0,P|351:386|265:333,1,140,2|0,1:2|0:0,0:0:0:0:
254,278,77192,1,8,0:3:0:0:
254,278,77288,1,4,0:3:0:0:
246,291,77673,6,0,P|201:287|149:282,1,83.9999974365235,4|0,1:2|0:0,0:0:0:0:
5,250,78057,2,0,P|50:244|102:241,1,83.9999974365235,8|0,0:0|0:0,0:0:0:0:
197,168,78442,1,2,0:0:0:0:
5,250,78634,1,2,0:0:0:0:
162,283,78826,1,8,0:0:0:0:
40,166,79019,2,0,P|21:112|82:75,1,125.999996154785,4|0,1:2|0:0,0:0:0:0:
142,88,79403,5,0,0:1:0:0:
112,286,79596,2,0,P|118:328|130:377,1,83.9999974365235,8|0,0:0|0:0,0:0:0:0:
236,189,79980,1,2,0:0:0:0:
40,166,80173,1,2,0:0:0:0:
165,64,80365,2,0,P|210:59|266:57,1,83.9999974365235,8|0,0:0|0:0,0:0:0:0:
450,131,80750,6,0,P|408:148|359:76,1,125.999996154785,4|0,1:2|0:0,0:0:0:0:
355,22,81134,1,8,0:0:0:0:
488,104,81326,1,2,0:0:0:0:
349,12,81519,1,2,0:0:0:0:
409,219,81711,1,10,0:0:0:0:
342,1,81903,1,10,0:0:0:0:
208,155,82096,2,0,B|157:175|122:154|85:134|27:163,1,167.999994873047,6|0,1:2|0:0,0:0:0:0:
167,47,82673,1,8,1:2:0:0:
327,193,82865,5,0,1:0:0:0:
333,213,82961,1,0,0:0:0:0:
331,233,83058,1,2,1:2:0:0:
368,215,83153,1,0,1:0:0:0:
409,219,83250,1,2,0:2:0:0:
441,245,83345,1,0,1:0:0:0:
455,284,83442,1,2,1:2:0:0:
445,325,83537,1,0,0:0:0:0:
416,354,83633,1,8,0:3:0:0:
375,363,83730,1,0,0:0:0:0:
334,351,83826,6,0,P|286:346|246:348,1,70,4|0,1:3|0:0,0:0:0:0:
126,328,84211,1,10,0:0:0:0:
154,207,84403,1,2,0:0:0:0:
126,328,84596,2,0,P|166:351|239:288,1,140,0|0,1:0|0:0,0:0:0:0:
144,186,85173,1,4,1:2:0:0:
209,21,85557,5,2,0:0:0:0:
116,97,85750,2,0,P|63:97|32:90,1,70,8|0,0:0|0:0,0:0:0:0:
152,169,86134,2,0,P|201:163|238:163,1,70,2|2,0:0|0:0,0:0:0:0:
325,108,86519,1,8,0:0:0:0:
423,249,86711,1,0,1:1:0:0:
429,268,86807,1,0,1:1:0:0:
436,289,86903,6,0,P|443:329|423:384,1,97.9999970092774,4|0,1:2|0:0,0:0:0:0:
501,98,87288,2,0,L|511:202,1,97.9999970092774,8|0,0:0|1:0,0:0:0:0:
241,211,87673,2,0,L|232:317,1,97.9999970092774,0|0,1:0|1:0,0:0:0:0:
284,382,87961,1,8,3:0:0:0:
284,382,88057,1,4,3:0:0:0:
343,85,88250,1,4,0:0:0:0:
334,85,89980,5,2,0:0:0:0:
245,49,90173,1,0,0:0:0:0:
150,55,90365,1,2,0:0:0:0:
71,106,90557,1,2,0:0:0:0:
245,49,90942,1,0,0:0:0:0:
71,106,91326,1,2,0:0:0:0:
334,85,93057,5,2,0:0:0:0:
