osu file format v14

[General]
AudioFilename: audio.mp3
AudioLeadIn: 0
PreviewTime: 40653
Countdown: 0
SampleSet: Normal
StackLeniency: 0.7
Mode: 1
LetterboxInBreaks: 0
WidescreenStoryboard: 1

[Editor]
DistanceSpacing: 1.4
BeatDivisor: 4
GridSize: 32
TimelineZoom: 3.699999

[Metadata]
Title:"If" short ver.
TitleUnicode:「If」 short ver.
Artist:Marika
ArtistUnicode:真里歌
Creator:Naotoshi
Version:"Oni"
Source:タラレバ
Tags:technical mapping emphasis faking tarareba aries maru oku eroge visual novel kocari iwinnie akitoshi corinn doj mir
BeatmapID:1438989
BeatmapSetID:680350

[Difficulty]
HPDrainRate:6
CircleSize:2
OverallDifficulty:5.5
ApproachRate:6
SliderMultiplier:1.4
SliderTickRate:1

[Events]
//Background and Video events
0,0,"bg.jpg",0,0
//Break Periods
//Storyboard Layer 0 (Background)
//Storyboard Layer 1 (Fail)
//Storyboard Layer 2 (Pass)
//Storyboard Layer 3 (Foreground)
//Storyboard Sound Samples

[TimingPoints]
750,384.615384615385,4,1,0,65,1,0
13057,-100,4,1,0,58,0,0
28442,-100,4,1,0,63,0,0
40750,-100,4,1,0,68,0,0
53057,-100,4,1,0,65,0,0
65365,-90.9090909090909,4,1,0,85,0,1
88250,-90.9090909090909,4,1,0,85,0,0
89980,-100,4,1,0,40,0,0

[HitObjects]
256,192,750,5,8,0:0:0:0:
256,192,942,1,0,0:0:0:0:
257,192,1134,1,0,0:0:0:0:
257,192,1519,1,8,0:0:0:0:
257,192,1903,1,0,0:0:0:0:
257,192,2096,1,0,0:0:0:0:
257,192,2288,1,8,0:0:0:0:
257,192,2673,1,8,0:0:0:0:
257,192,2865,1,0,0:0:0:0:
257,192,3057,1,0,0:0:0:0:
257,192,3442,1,8,0:0:0:0:
257,192,3634,1,0,0:0:0:0:
257,192,3826,1,8,0:0:0:0:
259,193,4211,1,0,0:0:0:0:
259,193,4403,1,8,0:0:0:0:
259,193,4596,1,0,0:0:0:0:
259,193,4980,1,0,0:0:0:0:
259,193,5173,1,0,0:0:0:0:
259,193,5365,1,8,0:0:0:0:
259,193,5750,1,8,0:0:0:0:
259,193,6134,1,0,0:0:0:0:
259,193,6519,1,0,0:0:0:0:
262,195,6903,1,8,0:0:0:0:
262,195,7288,1,0,0:0:0:0:
262,195,7480,1,8,0:0:0:0:
262,195,8057,1,0,0:0:0:0:
262,195,8250,1,0,0:0:0:0:
262,195,8442,1,8,0:0:0:0:
256,192,8826,1,0,0:0:0:0:
256,192,9019,1,8,0:0:0:0:
256,192,9403,1,8,0:0:0:0:
256,192,9596,1,0,0:0:0:0:
256,192,9980,1,4,0:0:0:0:
256,192,10365,1,0,0:0:0:0:
256,192,10557,1,0,0:0:0:0:
256,192,10750,1,8,0:0:0:0:
256,192,10942,1,8,0:0:0:0:
256,192,11134,1,0,0:0:0:0:
256,192,11326,1,0,0:0:0:0:
256,192,11423,1,0,0:0:0:0:
256,192,11519,1,8,0:0:0:0:
256,192,11711,1,12,0:0:0:0:
256,192,12480,1,0,0:0:0:0:
256,192,12544,1,0,0:0:0:0:
256,192,12608,1,0,0:0:0:0:
256,192,12673,1,8,0:0:0:0:
256,192,12865,1,0,0:0:0:0:
256,192,13057,1,12,0:0:0:0:
256,192,13442,1,8,0:0:0:0:
256,192,13634,1,0,0:0:0:0:
256,192,13826,1,0,0:0:0:0:
256,192,14019,1,0,0:0:0:0:
256,192,14115,1,0,0:0:0:0:
256,192,14211,1,8,0:0:0:0:
256,192,14596,1,0,0:0:0:0:
256,192,14788,1,0,0:0:0:0:
256,192,14980,1,8,0:0:0:0:
256,192,15173,1,8,0:0:0:0:
256,192,15269,1,8,0:0:0:0:
256,192,15365,1,0,0:0:0:0:
256,192,15557,1,0,0:0:0:0:
256,192,15750,1,8,0:0:0:0:
256,192,16134,1,0,0:0:0:0:
256,192,16326,1,0,0:0:0:0:
256,192,16519,1,8,0:0:0:0:
256,192,16711,1,0,0:0:0:0:
256,192,16807,1,0,0:0:0:0:
256,192,16903,1,0,0:0:0:0:
256,192,17096,1,0,0:0:0:0:
256,192,17288,1,8,0:0:0:0:
256,192,17673,1,0,0:0:0:0:
256,192,17865,1,0,0:0:0:0:
256,192,17961,1,0,0:0:0:0:
256,192,18057,1,8,0:0:0:0:
256,192,18250,1,8,0:0:0:0:
256,192,18346,1,8,0:0:0:0:
256,192,18442,1,8,0:0:0:0:
256,192,18634,1,0,0:0:0:0:
256,192,18826,1,8,0:0:0:0:
256,192,19019,1,0,0:0:0:0:
256,192,19211,1,12,0:0:0:0:
256,192,19596,1,8,0:0:0:0:
256,192,19788,1,0,0:0:0:0:
256,192,19980,1,0,0:0:0:0:
256,192,20173,1,0,0:0:0:0:
256,192,20269,1,0,0:0:0:0:
256,192,20365,1,8,0:0:0:0:
256,192,20750,1,0,0:0:0:0:
256,192,20942,1,0,0:0:0:0:
256,192,21134,1,8,0:0:0:0:
256,192,21326,1,8,0:0:0:0:
256,192,21423,1,8,0:0:0:0:
256,192,21519,1,0,0:0:0:0:
256,192,21711,1,0,0:0:0:0:
256,192,21903,1,8,0:0:0:0:
256,192,22096,1,8,0:0:0:0:
256,192,22288,1,0,0:0:0:0:
256,192,22480,1,0,0:0:0:0:
256,192,22576,1,0,0:0:0:0:
256,192,22673,1,8,0:0:0:0:
256,192,22865,1,8,0:0:0:0:
256,192,22961,1,8,0:0:0:0:
256,192,23057,1,0,0:0:0:0:
256,192,23153,1,0,0:0:0:0:
256,192,23250,1,8,0:0:0:0:
256,192,23442,1,8,0:0:0:0:
256,192,23634,1,4,0:0:0:0:
256,192,24019,1,0,0:0:0:0:
256,192,24211,1,0,0:0:0:0:
256,192,24403,1,8,0:0:0:0:
256,192,24500,1,8,0:0:0:0:
256,192,24596,1,0,0:0:0:0:
256,192,24692,1,0,0:0:0:0:
256,192,24788,1,0,0:0:0:0:
256,192,24884,1,0,0:0:0:0:
256,192,24980,1,8,0:0:0:0:
256,192,25173,1,8,0:0:0:0:
256,192,25269,1,8,0:0:0:0:
256,192,25365,1,0,0:0:0:0:
256,192,25557,1,0,0:0:0:0:
256,192,25653,1,0,0:0:0:0:
256,192,25750,1,8,0:0:0:0:
256,192,25942,1,4,0:0:0:0:
256,192,26326,1,0,0:0:0:0:
256,192,26519,1,0,0:0:0:0:
256,192,26711,1,12,0:0:0:0:
256,192,27096,1,0,0:0:0:0:
256,192,27192,1,0,0:0:0:0:
256,192,27288,1,8,0:0:0:0:
256,192,27480,1,8,0:0:0:0:
256,192,27673,1,0,0:0:0:0:
256,192,27769,1,0,0:0:0:0:
256,192,27865,1,8,0:0:0:0:
256,192,27961,1,8,0:0:0:0:
256,192,28057,1,8,0:0:0:0:
256,192,28442,1,0,0:0:0:0:
256,192,28634,1,0,0:0:0:0:
256,192,28826,1,8,0:0:0:0:
256,192,29019,1,0,0:0:0:0:
256,192,29211,1,8,0:0:0:0:
256,192,29596,1,0,0:0:0:0:
256,192,29788,1,0,0:0:0:0:
256,192,29884,1,0,0:0:0:0:
256,192,29980,1,8,0:0:0:0:
256,192,30365,1,8,0:0:0:0:
256,192,30750,1,8,0:0:0:0:
256,192,30942,1,0,0:0:0:0:
256,192,31038,1,0,0:0:0:0:
256,192,31134,1,0,0:0:0:0:
256,192,31326,1,8,0:0:0:0:
256,192,31519,1,0,0:0:0:0:
256,192,31903,1,8,0:0:0:0:
256,192,32096,1,8,0:0:0:0:
256,192,32288,1,0,0:0:0:0:
256,192,32673,1,8,0:0:0:0:
256,192,32865,1,0,0:0:0:0:
256,192,33057,1,0,0:0:0:0:
256,192,33250,1,0,0:0:0:0:
256,192,33346,1,0,0:0:0:0:
256,192,33442,1,8,0:0:0:0:
256,192,33826,1,8,0:0:0:0:
256,192,34211,1,0,0:0:0:0:
256,192,34403,1,0,0:0:0:0:
256,192,34500,1,0,0:0:0:0:
256,192,34596,1,8,0:0:0:0:
256,192,34980,1,0,0:0:0:0:
256,192,35173,1,8,0:0:0:0:
256,192,35269,1,8,0:0:0:0:
256,192,35365,1,0,0:0:0:0:
256,192,35750,1,8,0:0:0:0:
256,192,35942,1,0,0:0:0:0:
256,192,36134,1,0,0:0:0:0:
256,192,36519,1,8,0:0:0:0:
256,192,36711,1,0,0:0:0:0:
256,192,36903,1,0,0:0:0:0:
256,192,37096,1,8,0:0:0:0:
256,192,37192,1,8,0:0:0:0:
256,192,37288,1,0,0:0:0:0:
256,192,37480,1,8,0:0:0:0:
256,192,37673,1,0,0:0:0:0:
256,192,38057,1,0,0:0:0:0:
256,192,38442,1,8,0:0:0:0:
256,192,38634,1,8,0:0:0:0:
256,192,38826,1,0,0:0:0:0:
256,192,39019,1,0,0:0:0:0:
256,192,39115,1,0,0:0:0:0:
256,192,39211,1,8,0:0:0:0:
256,192,39403,1,0,0:0:0:0:
256,192,39596,1,0,0:0:0:0:
256,192,39788,1,8,0:0:0:0:
256,192,39884,1,8,0:0:0:0:
256,192,39980,1,8,0:0:0:0:
256,192,40173,1,0,0:0:0:0:
256,192,40365,1,12,0:0:0:0:
256,192,40750,1,4,0:0:0:0:
256,192,40942,1,0,0:0:0:0:
256,192,41134,1,8,0:0:0:0:
256,192,41326,1,8,0:0:0:0:
256,192,41423,1,8,0:0:0:0:
256,192,41519,1,8,0:0:0:0:
256,192,41711,1,0,0:0:0:0:
256,192,41903,1,0,0:0:0:0:
256,192,42288,1,0,0:0:0:0:
256,192,42480,1,0,0:0:0:0:
256,192,42576,1,0,0:0:0:0:
256,192,42673,1,8,0:0:0:0:
256,192,42865,1,8,0:0:0:0:
256,192,43057,1,0,0:0:0:0:
256,192,43250,1,8,0:0:0:0:
256,192,43442,1,0,0:0:0:0:
256,192,43826,1,0,0:0:0:0:
256,192,44019,1,0,0:0:0:0:
256,192,44211,1,8,0:0:0:0:
256,192,44596,1,8,0:0:0:0:
256,192,44788,1,0,0:0:0:0:
256,192,44884,1,0,0:0:0:0:
256,192,44980,1,0,0:0:0:0:
256,192,45173,1,0,0:0:0:0:
256,192,45365,1,8,0:0:0:0:
256,192,45557,1,0,0:0:0:0:
256,192,45750,1,8,0:0:0:0:
256,192,45942,1,8,0:0:0:0:
256,192,46038,1,8,0:0:0:0:
256,192,46134,1,0,0:0:0:0:
256,192,46326,1,0,0:0:0:0:
256,192,46519,1,8,0:0:0:0:
256,192,46903,1,12,0:0:0:0:
256,192,47096,1,0,0:0:0:0:
256,192,47288,1,0,0:0:0:0:
256,192,47673,1,8,0:0:0:0:
256,192,47865,1,0,0:0:0:0:
256,192,48057,1,8,0:0:0:0:
256,192,48442,1,0,0:0:0:0:
256,192,48634,1,0,0:0:0:0:
256,192,48730,1,0,0:0:0:0:
256,192,48826,1,8,0:0:0:0:
256,192,49211,1,8,0:0:0:0:
256,192,49403,1,0,0:0:0:0:
256,192,49596,1,8,0:0:0:0:
256,192,49788,1,8,0:0:0:0:
256,192,49884,1,8,0:0:0:0:
256,192,49980,1,0,0:0:0:0:
256,192,50365,1,0,0:0:0:0:
256,192,50557,1,12,0:0:0:0:
256,192,50942,1,0,0:0:0:0:
256,192,51038,1,0,0:0:0:0:
256,192,51134,1,0,0:0:0:0:
256,192,51326,1,12,0:0:0:0:
256,192,51711,1,8,0:0:0:0:
256,192,51807,1,0,0:0:0:0:
256,192,51903,1,8,0:0:0:0:
256,192,52000,1,0,0:0:0:0:
256,192,52096,1,0,0:0:0:0:
256,192,52288,1,0,0:0:0:0:
256,192,52480,1,0,0:0:0:0:
256,192,52673,1,8,0:0:0:0:
256,192,53057,1,8,0:0:0:0:
256,192,53250,1,0,0:0:0:0:
256,192,53634,1,0,0:0:0:0:
256,192,53827,1,8,0:0:0:0:
256,192,54211,1,8,0:0:0:0:
256,192,54403,1,0,0:0:0:0:
256,192,54596,1,8,0:0:0:0:
256,192,54980,1,0,0:0:0:0:
256,192,55365,1,0,0:0:0:0:
256,192,55750,1,0,0:0:0:0:
256,192,56134,1,12,0:0:0:0:
256,192,56326,1,0,0:0:0:0:
256,192,56711,1,0,0:0:0:0:
256,192,56903,1,8,0:0:0:0:
256,192,57288,1,8,0:0:0:0:
256,192,57480,1,8,0:0:0:0:
256,192,57673,1,0,0:0:0:0:
256,192,58057,1,0,0:0:0:0:
256,192,58250,1,0,0:0:0:0:
256,192,58442,1,8,0:0:0:0:
256,192,58826,1,0,0:0:0:0:
256,192,59019,1,0,0:0:0:0:
256,192,59115,1,0,0:0:0:0:
256,192,59211,1,8,0:0:0:0:
256,192,59403,1,0,0:0:0:0:
256,192,59596,1,8,0:0:0:0:
256,192,59980,1,8,0:0:0:0:
256,192,60365,1,0,0:0:0:0:
256,192,60557,1,0,0:0:0:0:
256,192,60653,1,0,0:0:0:0:
256,192,60750,1,8,0:0:0:0:
256,192,60942,1,0,0:0:0:0:
256,192,61134,1,8,0:0:0:0:
256,192,61519,1,0,0:0:0:0:
256,192,61711,1,0,0:0:0:0:
256,192,61903,1,8,0:0:0:0:
256,192,62096,1,8,0:0:0:0:
256,192,62192,1,8,0:0:0:0:
256,192,62288,1,0,0:0:0:0:
256,192,62480,1,0,0:0:0:0:
256,192,62576,1,0,0:0:0:0:
256,192,62673,1,0,0:0:0:0:
256,192,62865,1,12,0:0:0:0:
256,192,63250,1,8,0:0:0:0:
256,192,63346,1,8,0:0:0:0:
256,192,63442,1,8,0:0:0:0:
256,192,63634,1,4,0:0:0:0:
256,192,64019,1,8,0:0:0:0:
256,192,64211,1,8,0:0:0:0:
256,192,65365,1,4,0:0:0:0:
256,192,65557,1,0,0:0:0:0:
256,192,65750,1,8,0:0:0:0:
256,192,65942,1,8,0:0:0:0:
256,192,66038,1,8,0:0:0:0:
256,192,66134,1,0,0:0:0:0:
256,192,66326,1,0,0:0:0:0:
256,192,66519,1,8,0:0:0:0:
256,192,66711,1,0,0:0:0:0:
256,192,66807,1,0,0:0:0:0:
256,192,66903,1,8,0:0:0:0:
256,192,67000,1,8,0:0:0:0:
256,192,67096,1,0,0:0:0:0:
256,192,67288,1,12,0:0:0:0:
256,192,67673,1,0,0:0:0:0:
256,192,67865,1,0,0:0:0:0:
256,192,67961,1,0,0:0:0:0:
256,192,68057,1,8,0:0:0:0:
256,192,68250,1,0,0:0:0:0:
256,192,68442,1,8,0:0:0:0:
256,192,68634,1,8,0:0:0:0:
256,192,68730,1,8,0:0:0:0:
256,192,68826,1,0,0:0:0:0:
256,192,69019,1,0,0:0:0:0:
256,192,69115,1,0,0:0:0:0:
256,192,69211,1,8,0:0:0:0:
256,192,69403,1,0,0:0:0:0:
256,192,69596,1,8,0:0:0:0:
256,192,69788,1,8,0:0:0:0:
256,192,69884,1,8,0:0:0:0:
256,192,69980,1,0,0:0:0:0:
256,192,70173,1,0,0:0:0:0:
256,192,70365,1,0,0:0:0:0:
256,192,70557,1,8,0:0:0:0:
256,192,70750,1,0,0:0:0:0:
256,192,70846,1,0,0:0:0:0:
256,192,70942,1,8,0:0:0:0:
256,192,71038,1,8,0:0:0:0:
256,192,71134,1,0,0:0:0:0:
256,192,71326,1,0,0:0:0:0:
256,192,71519,1,12,0:0:0:0:
256,192,71903,1,0,0:0:0:0:
256,192,72096,1,8,0:0:0:0:
256,192,72192,1,8,0:0:0:0:
256,192,72288,1,8,0:0:0:0:
256,192,72480,1,0,0:0:0:0:
256,192,72673,1,0,0:0:0:0:
256,192,72865,1,8,0:0:0:0:
256,192,72961,1,8,0:0:0:0:
256,192,73057,1,0,0:0:0:0:
256,192,73250,1,0,0:0:0:0:
256,192,73442,1,8,0:0:0:0:
256,192,73538,1,8,0:0:0:0:
256,192,73634,1,0,0:0:0:0:
256,192,73826,1,8,0:0:0:0:
256,192,74019,1,8,0:0:0:0:
256,192,74115,1,0,0:0:0:0:
256,192,74211,1,8,0:0:0:0:
256,192,74403,1,0,0:0:0:0:
256,192,74596,1,12,0:0:0:0:
256,192,74788,1,0,0:0:0:0:
256,192,74884,1,0,0:0:0:0:
256,192,74980,1,0,0:0:0:0:
256,192,75173,1,8,0:0:0:0:
256,192,75557,1,8,0:0:0:0:
256,192,75653,1,8,0:0:0:0:
256,192,75750,1,8,0:0:0:0:
256,192,75942,1,4,0:0:0:0:
256,192,76326,1,0,0:0:0:0:
256,192,76519,1,0,0:0:0:0:
256,192,76711,1,0,0:0:0:0:
256,192,76807,1,0,0:0:0:0:
256,192,76903,1,8,0:0:0:0:
256,192,77096,1,0,0:0:0:0:
256,192,77192,1,0,0:0:0:0:
256,192,77288,1,8,0:0:0:0:
256,192,77480,1,8,0:0:0:0:
256,192,77673,1,4,0:0:0:0:
256,192,77865,1,0,0:0:0:0:
256,192,78057,1,8,0:0:0:0:
256,192,78250,1,8,0:0:0:0:
256,192,78346,1,8,0:0:0:0:
256,192,78442,1,0,0:0:0:0:
256,192,78634,1,0,0:0:0:0:
256,192,78826,1,0,0:0:0:0:
256,192,78923,1,0,0:0:0:0:
256,192,79019,1,8,0:0:0:0:
256,192,79403,1,0,0:0:0:0:
256,192,79500,1,0,0:0:0:0:
256,192,79596,1,8,0:0:0:0:
256,192,79788,1,8,0:0:0:0:
256,192,79884,1,8,0:0:0:0:
256,192,79980,1,0,0:0:0:0:
256,192,80173,1,0,0:0:0:0:
256,192,80365,1,8,0:0:0:0:
256,192,80461,1,8,0:0:0:0:
256,192,80557,1,8,0:0:0:0:
256,192,80750,1,4,0:0:0:0:
256,192,81134,1,0,0:0:0:0:
256,192,81326,1,0,0:0:0:0:
256,192,81423,1,0,0:0:0:0:
256,192,81519,1,8,0:0:0:0:
256,192,81711,1,0,0:0:0:0:
256,192,81807,1,0,0:0:0:0:
256,192,81903,1,8,0:0:0:0:
256,192,82000,1,8,0:0:0:0:
256,192,82096,1,0,0:0:0:0:
256,192,82480,1,0,0:0:0:0:
256,192,82576,1,0,0:0:0:0:
256,192,82673,1,8,0:0:0:0:
256,192,82769,1,8,0:0:0:0:
256,192,82865,1,8,0:0:0:0:
256,192,82961,1,8,0:0:0:0:
256,192,83057,1,0,0:0:0:0:
256,192,83153,1,0,0:0:0:0:
256,192,83250,1,0,0:0:0:0:
256,192,83346,1,0,0:0:0:0:
256,192,83442,1,8,0:0:0:0:
256,192,83634,1,0,0:0:0:0:
256,192,83826,1,12,0:0:0:0:
256,192,84211,1,0,0:0:0:0:
256,192,84403,1,8,0:0:0:0:
256,192,84500,1,8,0:0:0:0:
256,192,84596,1,0,0:0:0:0:
256,192,84788,1,0,0:0:0:0:
256,192,84980,1,0,0:0:0:0:
256,192,85173,1,12,0:0:0:0:
256,192,85557,1,8,0:0:0:0:
256,192,85750,1,0,0:0:0:0:
256,192,85942,1,0,0:0:0:0:
256,192,86134,1,8,0:0:0:0:
256,192,86230,1,8,0:0:0:0:
256,192,86326,1,0,0:0:0:0:
256,192,86423,1,0,0:0:0:0:
256,192,86519,1,8,0:0:0:0:
256,192,86711,1,0,0:0:0:0:
256,192,86807,1,0,0:0:0:0:
256,192,86903,1,8,0:0:0:0:
256,192,87096,1,8,0:0:0:0:
256,192,87288,1,8,0:0:0:0:
256,192,87480,1,0,0:0:0:0:
256,192,87576,1,0,0:0:0:0:
256,192,87673,1,8,0:0:0:0:
256,192,87865,1,0,0:0:0:0:
256,192,87961,1,0,0:0:0:0:
256,192,88057,1,0,0:0:0:0:
256,192,88250,1,12,0:0:0:0:
256,192,89980,1,0,0:0:0:0:
256,192,90365,1,0,0:0:0:0:
256,192,90557,1,8,0:0:0:0:
256,192,90942,1,0,0:0:0:0:
256,192,91326,1,8,0:1:0:0:
256,192,93057,1,0,0:0:0:0:
