osu file format v14

[General]
AudioFilename: audio.mp3
AudioLeadIn: 0
PreviewTime: 986
Countdown: 0
SampleSet: Soft
StackLeniency: 0.7
Mode: 0
LetterboxInBreaks: 0
WidescreenStoryboard: 1

[Editor]
Bookmarks: 13153,23819,34486,45152,61152,71819,82486,93152,103819,109152,119819,141152,151819,162486,173152,183819,194486,205152
DistanceSpacing: 1.6
BeatDivisor: 4
GridSize: 32
TimelineZoom: 1.6

[Metadata]
Title:Unbreakable
TitleUnicode:Unbreakable
Artist:Marie
ArtistUnicode:真理絵
Creator:Lasse
Version:Resolve
Source:
Tags:kalibe dastinia meis clauson yuiko the root of heads yuikonnu ゆいこんぬ primary
BeatmapID:1700344
BeatmapSetID:808148

[Difficulty]
HPDrainRate:6
CircleSize:4
OverallDifficulty:8.7
ApproachRate:9.2
SliderMultiplier:1.76
SliderTickRate:1

[Events]
//Background and Video events
0,0,"b.jpg",0,0
//Break Periods
2,151819,156486
//Storyboard Layer 0 (Background)
//Storyboard Layer 1 (Fail)
//Storyboard Layer 2 (Pass)
//Storyboard Layer 3 (Foreground)
//Storyboard Sound Samples

[TimingPoints]
1153,333.333333333333,4,2,1,30,1,0
1153,-200,4,2,1,30,0,0
11152,-222.222222222222,4,2,1,40,0,0
11236,-222.222222222222,4,2,1,5,0,0
12819,-66.6666666666667,4,2,1,70,0,0
13152,-100,4,2,1,70,0,0
23819,-125,4,2,1,70,0,0
24152,-125,4,2,1,60,0,0
31486,-200,4,2,1,60,0,0
31736,-200,4,2,99,5,0,0
31819,-125,4,2,1,60,0,0
42152,-200,4,2,1,60,0,0
42402,-200,4,2,99,5,0,0
42486,-125,4,2,1,60,0,0
43819,-125,4,2,1,65,0,0
44486,-125,4,2,1,60,0,0
45152,-125,4,2,1,55,0,0
50486,-83.3333333333333,4,2,1,80,0,1
50736,-83.3333333333333,4,2,1,50,0,1
50819,-83.3333333333333,4,2,1,80,0,1
51819,-83.3333333333333,4,2,2,80,0,1
53236,-83.3333333333333,4,2,1,80,0,1
55736,-83.3333333333333,4,2,1,80,0,0
55819,-83.3333333333333,4,2,1,80,0,1
56069,-83.3333333333333,4,2,1,50,0,1
56152,-83.3333333333333,4,2,1,80,0,1
57152,-83.3333333333333,4,2,2,80,0,1
58569,-83.3333333333333,4,2,1,80,0,1
61069,-83.3333333333333,4,2,1,80,0,0
61152,-83.3333333333333,4,2,1,80,0,1
61402,-83.3333333333333,4,2,1,50,0,1
61486,-83.3333333333333,4,2,1,80,0,1
62486,-83.3333333333333,4,2,2,80,0,1
63902,-83.3333333333333,4,2,1,80,0,1
66402,-83.3333333333333,4,2,1,80,0,0
66486,-83.3333333333333,4,2,1,80,0,1
66736,-83.3333333333333,4,2,1,50,0,1
66819,-83.3333333333333,4,2,1,80,0,1
67819,-83.3333333333333,4,2,2,80,0,1
69236,-83.3333333333333,4,2,1,80,0,1
71486,-200,4,2,1,80,0,1
71819,-100,4,2,1,70,0,0
82486,-125,4,2,1,70,0,0
82819,-125,4,2,1,60,0,0
90152,-200,4,2,1,60,0,0
90402,-200,4,2,99,5,0,0
90486,-125,4,2,1,60,0,0
100819,-200,4,2,1,60,0,0
101069,-200,4,2,99,5,0,0
101152,-125,4,2,1,60,0,0
102486,-125,4,2,1,65,0,0
103152,-125,4,2,1,60,0,0
103819,-125,4,2,1,55,0,0
108319,-125,4,2,1,60,0,0
109152,-76.9230769230769,4,2,1,80,0,1
109402,-83.3333333333333,4,2,1,50,0,1
109486,-76.9230769230769,4,2,1,80,0,1
110486,-76.9230769230769,4,2,2,80,0,1
111902,-76.9230769230769,4,2,1,80,0,1
114402,-76.9230769230769,4,2,1,80,0,0
114486,-76.9230769230769,4,2,1,80,0,1
114736,-83.3333333333333,4,2,1,50,0,1
114819,-76.9230769230769,4,2,1,80,0,1
115819,-76.9230769230769,4,2,2,80,0,1
117236,-76.9230769230769,4,2,1,80,0,1
119736,-76.9230769230769,4,2,1,80,0,0
119819,-76.9230769230769,4,2,1,80,0,1
120069,-83.3333333333333,4,2,1,50,0,1
120152,-76.9230769230769,4,2,1,80,0,1
121152,-76.9230769230769,4,2,2,80,0,1
122569,-76.9230769230769,4,2,1,80,0,1
125069,-76.9230769230769,4,2,1,80,0,0
125152,-76.9230769230769,4,2,1,80,0,1
125402,-83.3333333333333,4,2,1,50,0,1
125486,-76.9230769230769,4,2,1,80,0,1
126486,-76.9230769230769,4,2,2,80,0,1
127902,-76.9230769230769,4,2,1,80,0,1
130152,-200,4,2,1,80,0,1
130486,-125,4,2,1,60,0,0
149152,-142.857142857143,4,2,1,60,0,0
149236,-142.857142857143,4,2,1,5,0,0
151152,-142.857142857143,4,2,99,5,0,0
157152,-71.4285714285714,4,2,1,80,0,1
157402,-83.3333333333333,4,2,1,50,0,1
157486,-71.4285714285714,4,2,1,80,0,1
158486,-71.4285714285714,4,2,2,80,0,1
159902,-71.4285714285714,4,2,1,80,0,1
160069,-83.3333333333333,4,2,1,50,0,1
160152,-71.4285714285714,4,2,1,80,0,1
160319,-83.3333333333333,4,2,1,50,0,1
160402,-71.4285714285714,4,2,1,80,0,1
162402,-71.4285714285714,4,2,1,80,0,0
162486,-71.4285714285714,4,2,1,80,0,1
162736,-83.3333333333333,4,2,1,50,0,1
162819,-71.4285714285714,4,2,1,80,0,1
163819,-71.4285714285714,4,2,2,80,0,1
165236,-71.4285714285714,4,2,1,80,0,1
165402,-83.3333333333333,4,2,1,50,0,1
165486,-71.4285714285714,4,2,1,80,0,1
165652,-83.3333333333333,4,2,1,50,0,1
165736,-71.4285714285714,4,2,1,80,0,1
167819,-71.4285714285714,4,2,1,80,0,1
168069,-83.3333333333333,4,2,1,50,0,1
168152,-71.4285714285714,4,2,1,80,0,1
169152,-71.4285714285714,4,2,2,80,0,1
170569,-71.4285714285714,4,2,1,80,0,1
170736,-83.3333333333333,4,2,1,50,0,1
170819,-71.4285714285714,4,2,1,80,0,1
170986,-83.3333333333333,4,2,1,50,0,1
171069,-71.4285714285714,4,2,1,80,0,1
173152,-100,4,2,1,70,0,0
175819,-83.3333333333333,4,2,1,75,0,1
178402,-71.4285714285714,4,2,1,75,0,0
178486,-71.4285714285714,4,2,1,80,0,1
178736,-83.3333333333333,4,2,1,50,0,1
178819,-71.4285714285714,4,2,1,80,0,1
179486,-83.3333333333333,4,2,1,75,0,1
179819,-71.4285714285714,4,2,2,80,0,1
181236,-71.4285714285714,4,2,1,80,0,1
181319,-71.4285714285714,4,2,1,50,0,1
181402,-71.4285714285714,4,2,1,80,0,1
183736,-71.4285714285714,4,2,1,80,0,0
183819,-71.4285714285714,4,2,1,80,0,1
184069,-83.3333333333333,4,2,1,50,0,1
184152,-71.4285714285714,4,2,1,80,0,1
185152,-71.4285714285714,4,2,2,80,0,1
186569,-71.4285714285714,4,2,1,80,0,1
186652,-83.3333333333333,4,2,1,50,0,1
186736,-71.4285714285714,4,2,1,80,0,1
189069,-71.4285714285714,4,2,1,80,0,0
189152,-71.4285714285714,4,2,1,80,0,1
189402,-83.3333333333333,4,2,1,50,0,1
189486,-71.4285714285714,4,2,1,80,0,1
190486,-71.4285714285714,4,2,2,80,0,1
191902,-71.4285714285714,4,2,1,80,0,1
191986,-83.3333333333333,4,2,1,50,0,1
192069,-71.4285714285714,4,2,1,80,0,1
194486,-100,4,2,1,70,0,0
202486,-100,4,2,1,80,0,1
204486,-100,4,2,1,75,0,0
204652,-100,4,2,1,70,0,0
204819,-100,4,2,1,65,0,0
205152,-100,4,2,1,75,0,0

[Colours]
Combo1 : 255,160,160
Combo2 : 165,200,240
Combo3 : 255,185,150
Combo4 : 255,230,140

[HitObjects]
0,83,1153,6,0,P|73:41|179:59,1,176,2|0,0:2|0:2,0:0:0:0:
260,193,2486,2,0,L|252:289,1,88,2|0,0:2|0:2,0:0:0:0:
305,349,3152,2,0,P|357:355|404:333,1,88,2|0,0:2|0:2,0:0:0:0:
448,277,3819,2,0,L|437:95,1,176,2|0,0:2|0:2,0:0:0:0:
276,63,4819,2,0,P|320:61|362:48,2,88,2|0|0,0:2|0:2|0:2,0:0:0:0:
192,35,5819,2,0,P|150:21|106:19,1,88,2|0,0:2|0:2,0:0:0:0:
4,84,6486,6,0,L|18:263,1,176,2|0,0:2|0:2,0:0:0:0:
166,354,7819,2,0,P|208:359|255:343,1,88,2|0,0:2|0:2,0:0:0:0:
302,274,8486,2,0,L|309:172,1,88,2|0,0:2|0:2,0:0:0:0:
361,116,9152,2,0,P|444:113|471:196,1,176,2|0,0:2|0:2,0:0:0:0:
411,249,10152,2,0,L|425:337,2,88,2|0|0,0:2|0:2|0:2,0:0:0:0:
280,175,11152,6,0,B|230:154|153:161|186:204|69:249|-12:181|22:74|157:78|123:213,1,395.999987915039,2|8,0:2|0:1,0:0:0:0:
124,211,13152,6,0,P|112:124|110:26,2,176,6|8|0,3:2|0:2|3:2,0:0:0:0:
259,289,13986,1,0,3:2:0:0:
207,161,14152,1,8,0:2:0:0:
191,348,14319,1,8,0:2:0:0:
124,298,14486,6,0,P|76:290|36:290,1,88,2|0,3:2|3:2,0:0:0:0:
326,348,14819,2,0,P|369:353|414:356,1,88,10|0,0:2|0:2,0:0:0:0:
268,190,15152,1,0,3:2:0:0:
213,355,15319,1,0,3:2:0:0:
288,198,15486,1,8,0:2:0:0:
191,348,15652,1,8,0:2:0:0:
163,266,15819,6,0,P|157:193|77:106,2,176,2|8|0,3:2|0:2|3:2,0:0:0:0:
40,172,16652,1,0,3:2:0:0:
191,58,16819,1,8,0:2:0:0:
322,173,16986,1,8,0:2:0:0:
387,127,17152,6,0,P|389:69|398:27,1,88,2|0,3:2|3:2,0:0:0:0:
273,238,17486,2,0,P|271:296|262:338,1,88,10|0,0:2|0:2,0:0:0:0:
191,58,17819,1,0,3:2:0:0:
308,91,17986,1,0,3:2:0:0:
273,238,18152,1,8,0:2:0:0:
156,205,18319,1,8,0:2:0:0:
134,199,18402,1,8,0:2:0:0:
112,195,18486,6,0,P|128:131|55:43,2,176,6|8|0,3:2|0:2|3:2,0:0:0:0:
4,286,19319,1,0,3:2:0:0:
116,369,19486,1,8,0:2:0:0:
226,281,19652,1,8,0:2:0:0:
306,332,19819,6,0,P|355:328|412:334,1,88,2|0,3:2|3:2,0:0:0:0:
199,193,20152,2,0,P|150:197|93:191,1,88,10|0,0:2|0:2,0:0:0:0:
330,49,20486,1,0,3:2:0:0:
358,178,20652,1,0,3:2:0:0:
270,126,20819,1,8,0:2:0:0:
413,98,20986,1,8,0:2:0:0:
460,171,21152,6,0,P|451:98|531:16,2,176,2|8|0,3:2|0:2|3:2,0:0:0:0:
314,290,21986,1,0,3:2:0:0:
270,126,22152,1,8,0:2:0:0:
387,229,22319,1,8,0:2:0:0:
304,208,22486,6,0,P|257:202|216:201,1,88,2|0,3:2|3:2,0:0:0:0:
372,352,22819,2,0,P|419:358|459:358,1,88,10|0,0:0|0:0,0:0:0:0:
431,110,23152,5,8,0:1:0:0:
418,122,23236,1,8,0:1:0:0:
408,134,23319,1,8,0:1:0:0:
399,149,23402,1,8,0:1:0:0:
394,164,23486,1,8,0:1:0:0:
389,179,23569,1,8,0:1:0:0:
386,196,23652,1,8,0:1:0:0:
385,212,23736,1,8,0:1:0:0:
387,229,23819,1,4,3:2:0:0:
132,296,24152,6,0,P|97:297|68:277,1,70.4,10|0,0:2|3:2,0:0:0:0:
165,224,24486,1,2,3:2:0:0:
169,365,24652,2,0,L|165:215,1,140.8,8|0,0:2|3:2,0:0:0:0:
0,98,25152,6,0,P|65:121|130:98,1,140.8,2|8,3:2|0:2,0:0:0:0:
262,165,25652,1,2,0:2:0:0:
262,165,25819,2,0,P|199:153|186:136,1,70.4,0|0,3:2|3:2,0:0:0:0:
315,44,26152,2,0,P|345:27|453:31,1,140.8,10|0,0:2|3:2,0:0:0:0:
413,315,26819,6,0,L|416:222,1,70.4,10|0,0:2|3:2,0:0:0:0:
346,183,27152,1,2,3:2:0:0:
234,228,27319,2,0,P|294:237|347:177,1,140.8,8|0,0:2|3:2,0:0:0:0:
203,150,27819,6,0,L|186:289,1,140.8,2|8,3:2|0:2,0:0:0:0:
47,353,28319,1,2,0:2:0:0:
47,353,28486,2,0,P|77:336|112:338,1,70.4,2|0,3:2|0:2,0:0:0:0:
65,164,28819,2,0,P|30:166|0:149,1,70.4,10|0,0:2|0:2,0:0:0:0:
149,12,29152,5,2,0:2:0:0:
149,12,29319,1,0,3:2:0:0:
181,123,29486,1,8,0:2:0:0:
181,123,29652,1,0,3:2:0:0:
295,0,29819,5,2,0:2:0:0:
277,140,29986,1,8,0:2:0:0:
295,0,30152,1,0,3:2:0:0:
277,140,30319,1,0,3:2:0:0:
383,49,30486,6,0,P|432:56|473:73,1,70.4,2|0,3:2|3:2,0:0:0:0:
299,206,30819,2,0,P|285:173|276:139,1,70.4,10|0,0:2|0:2,0:0:0:0:
477,200,31152,2,0,P|455:229|430:253,1,70.4,2|0,3:2|3:2,0:0:0:0:
306,289,31486,6,0,L|225:272,1,66,10|0,0:2|0:2,0:0:0:0:
204,278,31819,6,0,B|273:256|266:306|341:288,1,140.8,2|8,3:2|0:2,0:0:0:0:
395,150,32319,1,2,3:2:0:0:
426,330,32486,1,0,3:2:0:0:
477,200,32652,1,8,0:2:0:0:
340,288,32819,5,2,3:2:0:0:
264,305,32986,1,0,3:2:0:0:
211,247,33152,1,0,3:2:0:0:
234,172,33319,1,0,3:2:0:0:
363,213,33486,5,10,0:2:0:0:
211,247,33652,1,0,3:2:0:0:
311,155,33819,1,0,3:2:0:0:
264,305,33986,1,2,3:2:0:0:
413,30,34486,5,6,3:2:0:0:
413,30,34652,1,2,3:2:0:0:
479,137,34819,6,0,L|465:224,1,70.4,10|0,0:2|3:2,0:0:0:0:
384,268,35152,1,2,3:2:0:0:
260,238,35319,2,0,P|328:227|383:267,1,140.8,8|0,0:2|3:2,0:0:0:0:
188,340,35819,6,0,L|173:188,1,140.8,2|8,3:2|0:2,0:0:0:0:
105,111,36319,1,2,0:2:0:0:
105,111,36486,2,0,P|42:99|29:82,1,70.4,0|0,3:2|3:2,0:0:0:0:
226,64,36819,2,0,P|256:42|364:51,1,140.8,10|2,0:2|3:2,0:0:0:0:
473,235,37486,6,0,L|459:329,1,70.4,10|0,0:2|3:2,0:0:0:0:
334,188,37819,1,0,3:2:0:0:
344,328,37986,2,0,L|334:188,1,140.8,10|0,0:2|3:2,0:0:0:0:
512,42,38486,6,0,P|459:84|368:67,1,140.8,2|8,3:2|0:2,0:0:0:0:
240,39,38986,1,2,0:2:0:0:
240,39,39152,2,0,P|270:22|305:24,1,70.4,2|0,3:2|0:2,0:0:0:0:
237,187,39486,2,0,P|202:189|172:172,1,70.4,10|0,0:2|0:2,0:0:0:0:
59,33,39819,5,2,3:2:0:0:
59,33,39986,1,0,3:2:0:0:
177,95,40152,1,8,0:2:0:0:
177,95,40319,1,0,3:2:0:0:
43,119,40486,5,2,3:2:0:0:
175,13,40652,1,8,0:2:0:0:
43,119,40819,1,0,3:2:0:0:
175,13,40986,1,0,3:2:0:0:
188,191,41152,6,0,P|235:204|279:205,1,70.4,2|0,3:2|3:2,0:0:0:0:
175,13,41486,2,0,P|148:37|126:64,1,70.4,10|0,0:2|0:2,0:0:0:0:
335,91,41819,2,0,P|326:55|313:23,1,70.4,2|0,3:2|3:2,0:0:0:0:
127,64,42152,6,0,L|122:133,1,66,10|0,0:2|0:2,0:0:0:0:
188,191,42486,6,0,P|219:247|179:337,1,140.8,2|8,3:2|0:2,0:0:0:0:
37,370,42986,1,2,3:2:0:0:
37,370,43152,2,0,L|24:295,1,70.4,0|8,3:2|0:2,0:0:0:0:
188,191,43486,2,0,L|201:266,1,70.4,2|0,3:2|3:2,0:0:0:0:
26,105,43819,5,2,3:2:0:0:
212,79,43986,1,8,0:2:0:0:
68,180,44152,1,8,0:2:0:0:
151,19,44319,1,0,3:2:0:0:
188,191,44486,5,10,0:2:0:0:
291,59,44652,1,8,0:3:0:0:
418,44,44819,1,4,0:3:0:0:
512,98,44986,1,8,0:3:0:0:
459,280,45152,5,6,3:2:0:0:
459,280,45319,1,0,3:2:0:0:
459,280,45486,1,0,3:2:0:0:
459,280,45652,1,0,3:2:0:0:
358,163,45819,5,10,0:2:0:0:
236,338,46152,5,2,0:2:0:0:
0,305,46486,5,2,3:2:0:0:
39,214,46652,1,0,3:2:0:0:
98,293,46819,1,0,3:2:0:0:
189,137,47152,5,8,0:2:0:0:
236,224,47319,1,8,0:3:0:0:
312,110,47486,1,4,0:3:0:0:
330,247,47652,1,8,0:3:0:0:
434,173,47819,5,2,3:2:0:0:
434,173,47986,1,0,3:2:0:0:
434,173,48152,1,0,3:2:0:0:
434,173,48319,1,0,3:2:0:0:
277,20,48486,5,10,0:2:0:0:
69,140,48819,5,2,0:2:0:0:
166,126,48986,1,0,3:2:0:0:
106,49,49152,1,2,0:2:0:0:
129,217,49319,1,0,3:2:0:0:
203,35,49486,1,2,3:2:0:0:
122,85,50486,6,0,P|198:63|277:70,1,158.399995166016,6|0,3:2|0:2,0:0:0:0:
340,118,50819,2,0,L|364:248,1,105.599996777344,8|0,0:2|0:2,0:0:0:0:
146,357,51152,5,2,3:2:0:0:
167,209,51319,1,0,3:3:0:0:
255,297,51486,1,8,0:2:0:0:
59,271,51652,1,8,0:2:0:0:
235,130,51819,6,0,P|279:121|348:118,1,105.599996777344,2|0,3:2|3:2,0:0:0:0:
163,285,52152,2,0,P|110:281|58:270,1,105.599996777344,10|0,0:2|0:2,0:0:0:0:
170,32,52486,5,2,3:2:0:0:
235,130,52652,1,0,3:2:0:0:
327,18,52819,1,10,0:2:0:0:
310,204,52986,1,8,0:2:0:0:
512,101,53152,6,0,P|464:66|345:131,2,211.199993554688,2|8|0,3:2|0:2|3:2,0:0:0:0:
400,297,53986,1,0,3:2:0:0:
345,130,54152,2,0,L|326:18,1,105.599996777344,10|0,0:2|0:2,0:0:0:0:
191,257,54486,6,0,P|243:257|290:234,1,105.599996777344,2|0,3:2|3:2,0:0:0:0:
155,33,54819,2,0,P|102:32|55:55,1,105.599996777344,10|0,0:2|0:2,0:0:0:0:
74,309,55152,5,2,3:2:0:0:
136,147,55319,1,0,3:2:0:0:
21,203,55486,1,8,0:2:0:0:
191,257,55652,1,8,0:2:0:0:
215,245,55736,1,8,0:2:0:0:
238,233,55819,6,0,B|333:214|299:277|416:251,1,158.399995166016,6|0,3:2|0:2,0:0:0:0:
464,287,56152,2,0,L|474:158,1,105.599996777344,8|0,0:2|0:2,0:0:0:0:
382,14,56486,5,2,3:2:0:0:
335,146,56652,1,0,3:3:0:0:
405,0,56819,1,8,0:2:0:0:
311,158,56986,1,8,0:2:0:0:
122,32,57152,6,0,P|172:17|225:15,1,105.599996777344,2|0,3:2|3:2,0:0:0:0:
223,252,57486,2,0,P|173:266|120:268,1,105.599996777344,10|0,0:2|0:2,0:0:0:0:
59,117,57819,5,2,3:2:0:0:
215,145,57986,1,0,3:2:0:0:
11,212,58152,1,10,0:2:0:0:
224,252,58319,1,8,0:2:0:0:
154,59,58486,6,0,P|133:162|119:267,2,211.199993554688,2|8|0,3:2|0:2|3:2,0:0:0:0:
309,304,59319,1,0,3:2:0:0:
352,155,59486,2,0,P|336:99|311:52,1,105.599996777344,10|0,0:2|0:2,0:0:0:0:
28,352,59819,5,14,0:1:0:0:
309,304,59986,1,0,3:0:0:0:
24,213,60152,5,14,0:1:0:0:
298,327,60319,1,0,3:0:0:0:
124,105,60486,5,14,0:1:0:0:
285,349,60652,1,0,3:0:0:0:
265,76,60819,5,8,0:1:0:0:
227,104,60902,1,8,0:1:0:0:
210,148,60986,1,8,0:1:0:0:
217,195,61069,1,8,0:1:0:0:
243,234,61152,6,0,P|154:258|100:218,1,158.399995166016,6|0,3:2|0:2,0:0:0:0:
59,158,61486,2,0,L|79:24,1,105.599996777344,8|0,0:2|0:2,0:0:0:0:
349,20,61819,5,2,3:2:0:0:
237,154,61986,1,0,3:3:0:0:
249,31,62152,1,8,0:2:0:0:
336,204,62319,1,8,0:2:0:0:
471,105,62486,6,0,L|482:-3,1,105.599996777344,2|0,3:2|3:2,0:0:0:0:
336,204,62819,2,0,L|325:312,1,105.599996777344,10|0,0:2|0:2,0:0:0:0:
70,282,63152,5,2,3:2:0:0:
166,153,63319,1,0,3:2:0:0:
84,304,63486,1,10,0:2:0:0:
153,129,63652,1,8,0:2:0:0:
254,329,63819,6,0,L|472:353,2,211.199993554688,2|8|0,3:2|0:2|3:2,0:0:0:0:
49,347,64652,1,0,3:2:0:0:
153,129,64819,2,0,L|168:249,1,105.599996777344,10|0,0:2|0:2,0:0:0:0:
14,76,65152,5,2,3:2:0:0:
206,56,65319,1,0,3:2:0:0:
35,163,65486,1,10,0:2:0:0:
140,7,65652,1,8,0:2:0:0:
166,233,65819,5,2,3:2:0:0:
378,174,65986,1,0,3:2:0:0:
161,137,66152,1,8,0:2:0:0:
347,270,66319,1,8,0:2:0:0:
372,263,66402,1,8,0:2:0:0:
397,256,66486,6,0,P|386:191|453:97,1,158.399995166016,6|0,3:2|0:2,0:0:0:0:
502,78,66819,2,0,L|511:213,1,105.599996777344,8|0,0:2|0:2,0:0:0:0:
378,369,67152,5,2,3:2:0:0:
512,281,67319,1,0,3:3:0:0:
310,239,67486,1,8,0:2:0:0:
509,183,67652,1,8,0:2:0:0:
312,88,67819,6,0,P|266:79|195:71,1,105.599996777344,2|0,3:2|3:2,0:0:0:0:
165,343,68152,2,0,P|217:336|269:326,1,105.599996777344,10|0,0:2|0:2,0:0:0:0:
106,131,68486,5,2,3:2:0:0:
197,223,68652,1,0,3:2:0:0:
207,71,68819,1,10,0:2:0:0:
97,261,68986,1,8,0:2:0:0:
152,18,69152,6,0,P|161:135|168:251,2,211.199993554688,2|8|0,3:2|0:2|3:2,0:0:0:0:
10,209,69986,1,0,3:2:0:0:
141,339,70152,2,0,P|191:337|241:312,1,105.599996777344,10|0,0:2|0:2,0:0:0:0:
349,36,70486,5,14,0:1:0:0:
166,228,70652,1,0,3:0:0:0:
224,13,70819,5,14,0:1:0:0:
319,268,70986,1,0,3:0:0:0:
365,15,71152,5,14,0:1:0:0:
185,210,71319,1,0,3:0:0:0:
24,30,71486,5,14,0:1:0:0:
24,30,71819,6,0,P|111:27|169:114,2,176,6|8|0,3:2|0:2|3:2,0:0:0:0:
27,180,72652,1,0,3:2:0:0:
165,90,72819,1,8,0:2:0:0:
163,257,72986,1,8,0:2:0:0:
243,201,73152,6,0,P|285:189|329:186,1,88,2|0,3:2|3:2,0:0:0:0:
463,357,73486,2,0,P|420:368|376:371,1,88,10|0,0:2|0:2,0:0:0:0:
163,257,73819,1,0,3:2:0:0:
349,294,73986,1,0,3:2:0:0:
166,278,74152,1,8,0:2:0:0:
349,271,74319,1,8,0:2:0:0:
263,331,74486,6,0,P|259:245|261:114,2,176,2|8|0,3:2|0:2|3:2,0:0:0:0:
423,192,75319,1,0,3:2:0:0:
275,74,75486,1,8,0:2:0:0:
116,169,75652,1,8,0:2:0:0:
62,106,75819,6,0,P|56:55|41:10,1,88,2|0,3:2|3:2,0:0:0:0:
15,281,76152,2,0,P|21:332|36:377,1,88,10|0,0:2|0:2,0:0:0:0:
236,145,76486,1,0,3:2:0:0:
116,169,76652,1,0,3:2:0:0:
187,326,76819,1,8,0:2:0:0:
306,302,76986,1,8,0:2:0:0:
329,297,77069,1,8,0:2:0:0:
351,295,77152,6,0,P|343:231|430:168,2,176,6|8|0,3:2|0:2|3:2,0:0:0:0:
512,296,77986,1,0,3:2:0:0:
424,168,78152,1,8,0:2:0:0:
260,189,78319,1,8,0:2:0:0:
205,119,78486,6,0,P|201:84|209:17,1,88,2|0,3:2|3:2,0:0:0:0:
332,242,78819,2,0,P|336:277|328:344,1,88,10|0,0:2|0:2,0:0:0:0:
140,244,79152,1,0,3:2:0:0:
260,189,79319,1,0,3:2:0:0:
227,286,79486,1,8,0:2:0:0:
170,152,79652,1,8,0:2:0:0:
79,173,79819,6,0,P|71:105|-14:31,2,176,2|8|0,3:2|0:2|3:2,0:0:0:0:
0,324,80652,1,0,3:2:0:0:
143,256,80819,1,8,0:2:0:0:
267,354,80986,1,8,0:2:0:0:
321,286,81152,6,0,P|321:243|329:199,1,88,2|0,3:2|3:2,0:0:0:0:
171,85,81486,2,0,P|171:128|163:172,1,88,10|0,0:0|0:0,0:0:0:0:
27,326,81819,5,8,2:1:0:0:
16,311,81902,1,8,2:1:0:0:
9,297,81986,1,8,2:1:0:0:
3,281,82069,1,8,2:1:0:0:
2,265,82152,1,8,2:1:0:0:
0,249,82236,1,8,2:1:0:0:
0,232,82319,1,8,2:1:0:0:
3,216,82402,1,8,2:1:0:0:
8,200,82486,1,4,3:2:0:0:
259,302,82819,6,0,P|294:303|323:283,1,70.4,10|0,0:2|3:2,0:0:0:0:
226,230,83152,1,2,3:2:0:0:
222,370,83319,2,0,L|226:220,1,140.8,8|0,0:2|3:2,0:0:0:0:
379,139,83819,6,0,P|430:149|509:82,1,140.8,2|8,3:2|0:2,0:0:0:0:
328,23,84319,1,2,0:2:0:0:
328,23,84486,2,0,P|317:66|300:97,1,70.4,0|0,3:2|3:2,0:0:0:0:
109,72,84819,2,0,P|162:28|230:35,1,140.8,10|0,0:2|3:2,0:0:0:0:
319,235,85486,6,0,L|316:328,1,70.4,10|0,0:2|3:2,0:0:0:0:
386,367,85819,1,2,3:2:0:0:
498,322,85986,2,0,P|438:313|385:373,1,140.8,8|0,0:2|3:2,0:0:0:0:
237,322,86486,6,0,L|227:172,1,140.8,2|8,3:2|0:2,0:0:0:0:
297,92,86986,1,2,0:2:0:0:
297,92,87152,2,0,P|327:109|362:107,1,70.4,2|0,3:2|0:2,0:0:0:0:
198,22,87486,2,0,P|167:4|133:7,1,70.4,10|0,0:2|0:2,0:0:0:0:
18,152,87819,5,2,0:2:0:0:
18,152,87986,1,0,3:2:0:0:
41,28,88152,1,8,0:2:0:0:
41,28,88319,1,0,3:2:0:0:
145,160,88486,5,2,0:2:0:0:
137,11,88652,1,8,0:2:0:0:
145,160,88819,1,0,3:2:0:0:
137,11,88986,1,0,3:2:0:0:
257,151,89152,6,0,P|286:153|332:140,1,70.4,2|0,3:2|3:2,0:0:0:0:
408,1,89486,2,0,P|389:30|380:64,1,70.4,10|0,0:2|0:2,0:0:0:0:
462,206,89819,2,0,P|445:174|420:150,1,70.4,2|0,3:2|3:2,0:0:0:0:
257,151,90152,6,0,L|185:140,1,66,10|0,0:2|0:2,0:0:0:0:
156,146,90486,6,0,B|224:121|218:171|293:151,1,140.8,2|8,3:2|0:2,0:0:0:0:
380,64,90986,1,2,3:2:0:0:
346,237,91152,1,0,3:2:0:0:
420,150,91319,1,8,0:2:0:0:
468,300,91486,5,2,3:2:0:0:
424,232,91652,1,0,3:2:0:0:
346,237,91819,1,0,3:2:0:0:
309,306,91986,1,0,3:2:0:0:
189,241,92152,5,10,0:2:0:0:
305,171,92319,1,0,3:2:0:0:
230,308,92486,1,0,3:2:0:0:
227,172,92652,5,10,2:2:0:0:
227,172,92736,1,8,2:0:0:0:
227,172,92819,1,0,3:0:0:0:
150,314,92986,5,10,2:2:0:0:
150,314,93069,1,8,2:0:0:0:
150,314,93152,2,0,P|111:313|72:325,1,70.4,6|2,3:2|3:2,0:0:0:0:
0,201,93486,6,0,L|14:114,1,70.4,10|0,0:2|3:2,0:0:0:0:
90,46,93819,1,2,3:2:0:0:
213,75,93986,2,0,P|145:86|90:46,1,140.8,8|0,0:2|3:2,0:0:0:0:
259,168,94486,6,0,P|326:179|382:138,1,140.8,2|8,3:2|0:2,0:0:0:0:
470,24,94986,1,2,0:2:0:0:
470,24,95152,2,0,P|456:57|459:102,1,70.4,0|0,3:2|3:2,0:0:0:0:
506,214,95486,2,0,P|499:145|456:91,1,140.8,10|2,0:2|3:2,0:0:0:0:
160,133,96152,6,0,L|82:128,1,70.4,10|0,0:2|3:2,0:0:0:0:
207,200,96486,1,0,3:2:0:0:
217,70,96652,2,0,P|191:127|218:214,1,140.8,10|0,0:2|3:2,0:0:0:0:
410,261,97152,6,0,P|436:204|409:117,1,140.8,2|8,3:2|0:2,0:0:0:0:
313,39,97652,1,2,0:2:0:0:
313,39,97819,2,0,P|311:75|294:116,1,70.4,2|0,3:2|0:2,0:0:0:0:
127,115,98152,2,0,P|115:81|113:46,1,70.4,10|0,0:2|0:2,0:0:0:0:
285,208,98486,5,2,3:2:0:0:
285,208,98652,1,0,3:2:0:0:
213,73,98819,1,8,0:2:0:0:
213,73,98986,1,0,3:2:0:0:
158,205,99152,5,2,3:2:0:0:
303,111,99319,1,8,0:2:0:0:
158,205,99486,1,0,3:2:0:0:
303,111,99652,1,0,3:2:0:0:
378,262,99819,6,0,P|373:297|361:337,1,70.4,2|0,3:2|3:2,0:0:0:0:
303,111,100152,2,0,P|335:96|376:88,1,70.4,10|0,0:2|0:2,0:0:0:0:
210,251,100486,2,0,P|181:230|153:198,1,70.4,2|0,3:2|3:2,0:0:0:0:
203,20,100819,6,0,L|215:96,1,66,10|0,0:2|0:2,0:0:0:0:
227,159,101152,6,0,P|165:119|95:149,1,140.8,2|8,3:2|0:2,0:0:0:0:
17,251,101652,1,2,3:2:0:0:
17,251,101819,2,0,L|21:332,1,70.4,0|8,3:2|0:2,0:0:0:0:
105,138,102152,2,0,L|108:67,1,70.4,2|0,3:2|3:2,0:0:0:0:
373,49,102486,5,2,3:2:0:0:
201,147,102652,1,8,0:2:0:0:
280,14,102819,1,8,0:2:0:0:
274,213,102986,1,0,3:2:0:0:
431,136,103152,5,10,0:2:0:0:
279,94,103319,1,8,0:3:0:0:
158,166,103486,1,4,0:3:0:0:
142,281,103652,1,8,0:3:0:0:
0,226,103819,5,6,3:2:0:0:
0,226,103986,1,0,3:2:0:0:
0,226,104152,1,0,3:2:0:0:
0,226,104319,1,0,3:2:0:0:
62,373,104486,5,10,0:2:0:0:
39,117,104819,5,2,0:2:0:0:
272,250,105152,5,2,3:2:0:0:
233,159,105319,1,0,3:2:0:0:
174,238,105486,1,0,3:2:0:0:
471,67,105819,5,8,0:2:0:0:
385,20,105986,1,8,0:3:0:0:
383,156,106152,1,4,0:3:0:0:
293,51,106319,1,8,0:3:0:0:
246,170,106486,5,2,3:2:0:0:
246,170,106652,1,0,3:2:0:0:
246,170,106819,1,0,3:2:0:0:
246,170,106986,1,0,3:2:0:0:
89,13,107152,5,10,0:2:0:0:
128,305,107486,5,2,0:2:0:0:
103,209,107652,1,0,3:2:0:0:
33,277,107819,1,2,0:2:0:0:
198,237,107986,1,0,3:2:0:0:
9,183,108152,1,2,3:2:0:0:
78,113,108319,5,8,0:3:0:0:
78,113,108402,1,8,0:3:0:0:
78,113,108486,1,4,0:3:0:0:
128,304,108652,1,4,0:3:0:0:
9,354,109152,6,0,P|6:255|8:159,1,171.599992144776,6|0,3:2|0:2,0:0:0:0:
78,113,109486,2,0,P|129:100|227:69,1,114.399994763184,8|0,0:2|0:2,0:0:0:0:
401,20,109819,5,2,3:2:0:0:
372,173,109986,1,0,3:3:0:0:
267,15,110152,1,8,0:2:0:0:
237,188,110319,1,8,0:2:0:0:
220,191,110402,1,8,0:0:0:0:
202,191,110486,6,0,P|181:130|189:77,1,114.399994763184,2|0,3:2|3:2,0:0:0:0:
471,231,110819,2,0,P|491:178|485:121,1,114.399994763184,10|0,0:2|0:2,0:0:0:0:
267,15,111152,5,2,3:2:0:0:
372,173,111319,1,0,3:2:0:0:
202,191,111486,1,10,0:2:0:0:
332,332,111652,1,8,0:2:0:0:
157,352,111819,6,0,P|163:265|159:105,1,228.799989526368,2|8,3:2|0:2,0:0:0:0:
77,266,112319,1,8,0:0:0:0:
262,187,112486,1,0,3:0:0:0:
66,134,112652,1,0,3:2:0:0:
262,187,112819,2,0,P|327:177|385:172,1,114.399994763184,10|0,0:2|0:2,0:0:0:0:
66,134,113152,6,0,P|47:81|43:10,1,114.399994763184,2|0,3:2|3:2,0:0:0:0:
262,187,113486,2,0,P|293:141|316:74,1,114.399994763184,10|0,0:2|0:2,0:0:0:0:
45,280,113819,5,2,3:2:0:0:
168,112,113986,1,0,3:2:0:0:
220,311,114152,1,8,0:2:0:0:
247,319,114236,1,8,0:0:0:0:
275,322,114319,1,8,0:2:0:0:
303,319,114402,1,8,0:2:0:0:
330,310,114486,6,0,B|423:290|398:357|500:328,1,171.599992144776,6|0,3:2|0:2,0:0:0:0:
512,220,114819,2,0,L|494:106,1,114.399994763184,8|0,0:2|0:2,0:0:0:0:
299,16,115152,5,2,3:2:0:0:
366,212,115319,1,0,3:3:0:0:
402,29,115486,1,8,0:2:0:0:
270,207,115652,1,8,0:2:0:0:
249,217,115736,1,8,0:0:0:0:
228,227,115819,6,0,P|168:234|96:204,1,114.399994763184,2|0,3:2|3:2,0:0:0:0:
187,7,116152,2,0,P|243:0|297:15,1,114.399994763184,10|0,0:2|0:2,0:0:0:0:
11,135,116486,5,2,3:2:0:0:
224,117,116652,1,0,3:2:0:0:
11,112,116819,1,10,0:2:0:0:
228,139,116986,1,8,0:2:0:0:
103,0,117152,6,0,P|115:97|122:237,1,228.799989526368,2|8,3:2|0:2,0:0:0:0:
0,324,117652,1,8,0:0:0:0:
11,135,117819,1,0,3:0:0:0:
170,320,117986,1,0,3:2:0:0:
228,139,118152,2,0,P|286:126|368:137,1,114.399994763184,10|0,0:2|0:2,0:0:0:0:
512,355,118486,5,14,0:1:0:0:
440,89,118652,1,0,3:0:0:0:
393,361,118819,5,14,0:1:0:0:
397,76,118986,1,0,3:0:0:0:
274,346,119152,5,14,0:1:0:0:
364,45,119319,1,0,3:0:0:0:
512,355,119486,5,8,0:1:0:0:
508,312,119569,1,8,0:1:0:0:
485,277,119652,1,8,0:1:0:0:
447,257,119736,1,8,0:1:0:0:
405,258,119819,6,0,P|336:272|246:188,1,171.599992144776,6|0,3:2|0:2,0:0:0:0:
217,132,120152,2,0,L|237:-2,1,114.399994763184,8|0,0:2|0:2,0:0:0:0:
168,281,120486,5,2,3:2:0:0:
303,143,120652,1,0,3:3:0:0:
128,197,120819,1,8,0:2:0:0:
328,235,120986,1,8,0:2:0:0:
349,228,121069,1,8,0:0:0:0:
370,220,121152,6,0,P|391:175|394:95,1,114.399994763184,2|0,3:2|3:2,0:0:0:0:
128,197,121486,2,0,P|111:150|114:70,1,114.399994763184,10|0,0:2|0:2,0:0:0:0:
397,31,121819,5,2,3:2:0:0:
212,131,121986,1,0,3:2:0:0:
370,220,122152,1,10,0:2:0:0:
288,22,122319,1,8,0:2:0:0:
237,239,122486,6,0,P|135:271|70:185,1,228.799989526368,2|8,3:2|0:2,0:0:0:0:
177,38,122986,1,8,0:0:0:0:
295,182,123152,1,0,3:0:0:0:
398,28,123319,1,0,3:2:0:0:
491,218,123486,2,0,L|484:338,1,114.399994763184,10|0,0:2|0:2,0:0:0:0:
226,253,123819,5,2,3:2:0:0:
428,150,123986,1,0,3:2:0:0:
285,340,124152,1,10,0:2:0:0:
335,124,124319,1,8,0:2:0:0:
391,365,124486,5,2,3:2:0:0:
234,143,124652,1,0,3:2:0:0:
152,362,124819,1,8,0:2:0:0:
124,370,124902,1,8,0:2:0:0:
95,371,124986,1,8,0:2:0:0:
66,366,125069,1,8,0:2:0:0:
39,355,125152,6,0,P|17:285|61:192,1,171.599992144776,6|0,3:2|0:2,0:0:0:0:
149,173,125486,2,0,L|261:150,1,114.399994763184,8|0,0:2|0:2,0:0:0:0:
72,48,125819,5,2,3:2:0:0:
122,265,125986,1,0,3:3:0:0:
72,48,126152,1,8,0:2:0:0:
218,236,126319,1,8,0:2:0:0:
240,237,126402,1,8,0:0:0:0:
263,236,126486,6,0,P|318:224|384:220,1,114.399994763184,2|0,3:2|3:2,0:0:0:0:
184,31,126819,2,0,P|129:43|63:47,1,114.399994763184,10|0,0:2|0:2,0:0:0:0:
123,294,127152,5,2,3:2:0:0:
246,129,127319,1,0,3:2:0:0:
63,194,127486,1,10,0:2:0:0:
263,236,127652,1,8,0:2:0:0:
126,65,127819,6,0,P|122:174|122:292,1,228.799989526368,2|8,3:2|0:2,0:0:0:0:
230,381,128319,1,8,0:0:0:0:
327,239,128486,1,0,3:0:0:0:
122,293,128652,1,0,3:2:0:0:
352,349,128819,2,0,L|465:332,1,114.399994763184,10|0,0:2|0:2,0:0:0:0:
347,32,129152,5,14,0:1:0:0:
219,280,129319,1,0,3:0:0:0:
230,13,129486,5,14,0:1:0:0:
338,261,129652,1,0,3:0:0:0:
362,14,129819,5,14,0:1:0:0:
210,258,129986,1,0,3:0:0:0:
119,22,130152,5,14,0:1:0:0:
31,368,130486,5,4,1:2:0:0:
31,368,130652,1,0,1:2:0:0:
31,368,130819,1,0,1:2:0:0:
31,368,130986,1,0,1:2:0:0:
31,368,131152,2,0,L|29:129,1,211.2,8|8,0:2|0:2,0:0:0:0:
29,156,131986,5,8,0:3:0:0:
134,338,132152,1,8,0:3:0:0:
134,338,132486,5,8,0:2:0:0:
151,251,132652,1,8,0:3:0:0:
238,268,132819,1,4,2:3:0:0:
221,355,132986,1,4,2:3:0:0:
166,266,133152,5,0,1:2:0:0:
166,266,133319,1,0,1:2:0:0:
166,266,133486,1,0,1:2:0:0:
166,266,133652,1,0,1:2:0:0:
166,266,133819,2,0,L|165:100,1,140.8,8|0,0:2|0:2,0:0:0:0:
165,125,134652,5,8,0:3:0:0:
376,31,134819,1,8,0:3:0:0:
376,31,135152,5,8,0:2:0:0:
363,118,135319,1,8,0:3:0:0:
288,19,135486,1,4,2:3:0:0:
275,106,135652,1,4,2:3:0:0:
181,43,135819,5,0,1:2:0:0:
181,43,135986,1,0,1:2:0:0:
181,43,136152,1,0,1:2:0:0:
181,43,136319,1,0,1:2:0:0:
181,43,136486,2,0,L|167:272,1,211.2,8|8,0:2|0:2,0:0:0:0:
168,253,137319,5,8,0:3:0:0:
372,376,137486,1,8,0:3:0:0:
372,376,137819,5,8,0:2:0:0:
425,305,137986,1,8,0:3:0:0:
354,251,138152,1,4,2:3:0:0:
301,322,138319,1,4,2:3:0:0:
440,320,138486,5,0,1:2:0:0:
440,320,138652,1,0,1:2:0:0:
440,320,138819,1,0,1:2:0:0:
440,320,138986,1,0,1:2:0:0:
440,320,139152,2,0,L|448:155,1,140.8,8|0,0:2|0:2,0:0:0:0:
446,179,139986,5,8,0:3:0:0:
348,52,140152,1,8,0:3:0:0:
287,194,140319,5,8,0:2:0:0:
287,194,140402,1,8,0:2:0:0:
287,194,140486,1,8,0:2:0:0:
231,97,140652,1,8,0:3:0:0:
95,66,140819,1,4,0:3:0:0:
0,209,140986,1,8,0:3:0:0:
153,352,141152,5,4,1:2:0:0:
153,352,141319,1,0,1:2:0:0:
153,352,141486,1,0,1:2:0:0:
153,352,141652,1,0,1:2:0:0:
153,352,141819,2,0,L|373:342,1,211.2,8|8,0:2|0:2,0:0:0:0:
363,342,142652,5,8,0:3:0:0:
512,149,142819,1,8,0:3:0:0:
512,149,143152,5,8,0:2:0:0:
495,236,143319,1,8,0:3:0:0:
408,219,143486,1,4,2:3:0:0:
425,132,143652,1,4,2:3:0:0:
510,251,143819,5,0,1:2:0:0:
510,251,143986,1,0,1:2:0:0:
510,251,144152,1,0,1:2:0:0:
510,251,144319,1,0,1:2:0:0:
510,251,144486,2,0,L|344:241,1,140.8,8|0,0:2|0:2,0:0:0:0:
369,242,145319,5,8,0:3:0:0:
171,78,145486,1,8,0:3:0:0:
171,78,145819,5,8,0:2:0:0:
158,165,145986,1,8,0:3:0:0:
83,66,146152,1,4,2:3:0:0:
70,153,146319,1,4,2:3:0:0:
278,100,146486,5,0,1:2:0:0:
278,100,146652,1,0,1:2:0:0:
278,100,146819,1,0,1:2:0:0:
278,100,146986,1,0,1:2:0:0:
278,100,147152,2,0,L|502:80,1,211.2,8|8,0:2|0:2,0:0:0:0:
488,81,147986,5,8,0:3:0:0:
425,278,148152,1,8,0:3:0:0:
425,278,148486,5,8,0:2:0:0:
345,199,148652,1,8,0:3:0:0:
346,358,148819,1,4,2:3:0:0:
0,172,149152,6,0,B|37:122|97:137|97:137|173:146|246:64|188:-76|36:-22|48:85|87:134|87:134|201:181|164:278|110:284|65:258|69:214,1,739.199977441407,4|0,1:2|0:2,0:0:0:0:
0,163,157152,6,0,B|110:150|64:213|184:198,1,184.799994360352,6|0,3:2|0:2,0:0:0:0:
260,142,157486,2,0,L|271:5,1,123.199996240234,8|0,0:2|0:2,0:0:0:0:
412,271,157819,5,2,3:2:0:0:
175,200,157986,1,0,3:2:0:0:
409,155,158152,1,8,0:2:0:0:
255,301,158319,1,8,0:2:0:0:
233,313,158402,1,8,0:2:0:0:
209,321,158486,6,0,P|149:327|82:291,1,123.199996240234,2|0,3:2|3:2,0:0:0:0:
70,45,158819,2,0,P|125:19|185:25,1,123.199996240234,10|0,0:2|0:2,0:0:0:0:
315,238,159152,5,2,3:2:0:0:
144,138,159319,1,0,3:2:0:0:
306,261,159486,1,10,0:2:0:0:
157,117,159652,1,8,0:2:0:0:
298,284,159819,6,0,P|389:316|464:228,1,184.799994360352,2|0,3:2|0:2,0:0:0:0:
490,183,160152,2,0,L|471:45,1,123.199996240234,8|0,0:2|0:2,0:0:0:0:
473,60,160402,1,8,2:2:0:0:
473,60,160486,1,0,3:2:0:0:
287,179,160652,1,0,3:2:0:0:
124,19,160819,2,0,L|98:140,1,123.199996240234,10|0,0:2|0:2,0:0:0:0:
7,359,161152,5,14,0:1:0:0:
307,305,161319,1,0,3:2:0:0:
0,214,161486,5,14,0:1:0:0:
318,264,161652,1,0,3:2:0:0:
21,93,161819,5,14,0:1:0:0:
339,227,161986,1,0,3:2:0:0:
225,3,162152,5,8,0:1:0:0:
184,33,162236,1,8,0:1:0:0:
165,80,162319,1,8,0:1:0:0:
173,131,162402,1,8,0:1:0:0:
201,173,162486,6,0,L|402:167,1,184.799994360352,6|0,3:2|0:2,0:0:0:0:
463,125,162819,2,0,P|477:83|447:2,1,123.199996240234,8|0,0:2|0:2,0:0:0:0:
318,264,163152,5,2,3:2:0:0:
366,72,163319,1,0,3:2:0:0:
440,266,163486,1,8,0:2:0:0:
257,119,163652,1,8,0:2:0:0:
234,110,163736,1,8,0:2:0:0:
210,103,163819,6,0,P|159:93|57:88,1,123.199996240234,2|0,3:2|3:2,0:0:0:0:
0,355,164152,2,0,P|60:366|121:370,1,123.199996240234,10|0,0:2|0:2,0:0:0:0:
315,202,164486,5,2,3:2:0:0:
80,259,164652,1,0,3:2:0:0:
320,225,164819,1,10,0:2:0:0:
84,234,164986,1,8,0:2:0:0:
323,249,165152,6,0,P|396:229|352:108,1,184.799994360352,2|0,3:2|0:2,0:0:0:0:
323,76,165486,2,0,L|182:51,1,123.199996240234,8|0,0:2|0:2,0:0:0:0:
201,54,165736,1,8,0:2:0:0:
201,54,165819,1,0,3:2:0:0:
0,156,165986,1,0,3:2:0:0:
200,261,166152,2,0,L|344:246,1,123.199996240234,10|0,0:2|0:2,0:0:0:0:
501,81,166486,5,2,3:2:0:0:
483,316,166652,1,0,3:2:0:0:
362,94,166819,1,10,0:2:0:0:
337,349,166986,1,8,0:2:0:0:
218,147,167152,5,8,0:3:0:0:
199,150,167236,1,8,0:3:0:0:
181,154,167319,1,8,0:3:0:0:
163,158,167402,1,8,0:3:0:0:
147,198,167486,5,8,0:1:0:0:
120,188,167569,1,8,0:1:0:0:
95,179,167652,1,8,0:1:0:0:
69,170,167736,1,8,0:1:0:0:
30,192,167819,6,0,P|9:98|71:34,1,184.799994360352,6|0,3:2|0:2,0:0:0:0:
165,49,168152,2,0,L|292:29,1,123.199996240234,8|0,0:2|0:2,0:0:0:0:
512,131,168486,5,2,3:2:0:0:
400,3,168652,1,0,3:2:0:0:
392,202,168819,1,8,0:2:0:0:
286,29,168986,1,8,0:2:0:0:
261,32,169069,1,8,0:2:0:0:
236,36,169152,6,0,L|105:22,1,123.199996240234,2|0,3:2|3:2,0:0:0:0:
312,284,169486,2,0,L|443:298,1,123.199996240234,10|0,0:2|0:2,0:0:0:0:
214,113,169819,5,2,3:2:0:0:
149,357,169986,1,0,3:2:0:0:
67,182,170152,1,10,0:2:0:0:
312,284,170319,1,8,0:2:0:0:
43,174,170486,6,0,P|15:94|99:21,1,184.799994360352,2|0,3:2|0:2,0:0:0:0:
165,44,170819,2,0,L|323:23,1,123.199996240234,8|0,0:2|0:2,0:0:0:0:
287,27,171069,1,8,0:2:0:0:
287,27,171152,1,0,3:2:0:0:
507,130,171319,1,0,3:2:0:0:
275,221,171486,2,0,L|136:199,1,123.199996240234,10|0,0:2|0:2,0:0:0:0:
0,323,171819,5,14,0:1:0:0:
165,44,171986,1,0,3:2:0:0:
140,343,172152,5,14,0:1:0:0:
17,45,172319,1,0,3:2:0:0:
231,295,172486,6,0,L|331:306,2,82.133330826823,10|8|8,0:2|0:2|0:2,1:3:0:0:
145,247,172819,5,8,0:3:0:0:
120,204,172930,1,8,0:3:0:0:
127,155,173041,1,8,0:3:0:0:
165,123,173152,6,0,L|280:116,1,88,6|8,1:2|0:2,0:0:0:0:
326,17,173486,1,0,1:2:0:0:
326,17,173652,1,0,1:2:0:0:
355,143,173819,2,0,P|334:228|340:315,1,176,10|0,0:2|1:2,0:0:0:0:
512,359,174319,5,8,0:2:0:0:
512,359,174402,1,8,0:2:0:0:
512,359,174486,2,0,P|480:338|431:338,1,88,2|8,1:2|0:2,0:0:0:0:
283,376,174819,2,0,P|317:358|341:316,1,88,2|0,1:2|0:2,0:0:0:0:
382,169,175152,2,0,P|379:207|404:249,1,88,10|0,0:2|1:2,0:0:0:0:
511,59,175486,5,12,0:1:0:0:
511,59,175819,6,0,L|274:39,2,211.199993554688,6|8|0,3:2|0:2|3:2,0:0:0:0:
511,59,176652,1,0,3:2:0:0:
336,162,176819,2,0,L|218:130,1,105.599996777344,8|0,0:2|0:2,0:0:0:0:
30,30,177152,5,8,0:3:0:0:
33,43,177236,1,8,0:3:0:0:
37,57,177319,1,8,0:3:0:0:
42,70,177402,1,8,0:3:0:0:
58,84,177486,5,8,2:1:0:0:
57,112,177569,1,8,2:1:0:0:
51,140,177652,1,8,2:1:0:0:
45,168,177736,1,8,2:1:0:0:
9,193,177819,5,8,0:3:0:0:
12,206,177902,1,8,0:3:0:0:
16,220,177986,1,8,0:3:0:0:
21,233,178069,1,8,0:3:0:0:
37,247,178152,5,8,0:1:0:0:
36,275,178236,1,8,0:1:0:0:
30,301,178319,1,8,0:1:0:0:
24,331,178402,1,8,0:1:0:0:
40,355,178486,6,0,L|226:344,1,184.799994360352,6|0,3:2|0:2,0:0:0:0:
300,294,178819,2,0,P|318:250|299:168,1,123.199996240234,8|0,0:2|0:2,0:0:0:0:
91,44,179152,5,2,3:2:0:0:
177,231,179319,1,0,3:2:0:0:
234,2,179486,1,8,0:2:0:0:
315,193,179652,1,8,0:2:0:0:
339,193,179736,1,8,0:2:0:0:
363,191,179819,6,0,P|386:141|363:55,1,123.199996240234,2|0,3:2|3:2,0:0:0:0:
65,204,180152,2,0,P|29:161|29:72,1,123.199996240234,10|0,0:2|0:2,0:0:0:0:
234,2,180486,5,2,3:2:0:0:
177,231,180652,1,0,3:2:0:0:
152,78,180819,1,10,0:2:0:0:
299,273,180986,1,8,0:2:0:0:
365,59,181152,6,0,P|421:31|493:41,1,123.199996240234,2|0,3:2|0:2,0:0:0:0:
479,35,181402,1,0,3:2:0:0:
479,35,181486,1,8,0:2:0:0:
364,202,181652,1,8,0:2:0:0:
235,41,181819,1,0,3:2:0:0:
173,229,181986,1,0,3:2:0:0:
6,132,182152,2,0,L|24:-3,1,123.199996240234,10|0,0:2|0:2,0:0:0:0:
308,124,182486,5,14,0:1:0:0:
11,288,182652,1,0,3:2:0:0:
332,278,182819,5,14,0:1:0:0:
6,132,182986,1,0,3:2:0:0:
274,35,183152,5,8,0:3:0:0:
297,29,183236,1,8,0:3:0:0:
321,24,183319,1,8,0:3:0:0:
344,19,183402,1,8,0:3:0:0:
368,16,183486,5,8,0:1:0:0:
422,29,183569,1,8,0:1:0:0:
441,82,183652,1,8,0:1:0:0:
418,133,183736,1,8,0:1:0:0:
363,152,183819,6,0,P|303:218|326:304,1,184.799994360352,6|0,3:2|0:2,0:0:0:0:
416,340,184152,2,0,L|438:205,1,123.199996240234,8|0,0:2|0:2,0:0:0:0:
297,29,184486,5,2,3:2:0:0:
219,264,184652,1,0,3:2:0:0:
131,25,184819,1,8,0:2:0:0:
82,278,184986,1,8,0:2:0:0:
58,286,185069,1,8,0:2:0:0:
35,294,185152,6,0,P|7:237|26:156,1,123.199996240234,2|0,3:2|3:2,0:0:0:0:
304,334,185486,2,0,P|332:277|313:196,1,123.199996240234,10|0,0:2|0:2,0:0:0:0:
131,25,185819,5,2,3:2:0:0:
219,264,185986,1,0,3:2:0:0:
155,21,186152,1,10,0:2:0:0:
198,276,186319,1,8,0:2:0:0:
380,53,186486,6,0,P|340:34|249:27,1,123.199996240234,2|0,3:2|0:2,0:0:0:0:
262,25,186736,1,0,3:2:0:0:
262,25,186819,1,8,0:2:0:0:
96,209,186986,1,8,0:2:0:0:
155,21,187152,1,0,3:2:0:0:
219,264,187319,1,0,3:2:0:0:
380,53,187486,1,10,0:2:0:0:
180,151,187652,1,8,0:2:0:0:
406,256,187819,5,8,0:3:0:0:
392,250,187902,1,8,0:3:0:0:
378,245,187986,1,8,0:3:0:0:
364,240,188069,1,8,0:3:0:0:
351,222,188152,5,8,0:1:0:0:
321,223,188236,1,8,0:1:0:0:
291,227,188319,1,8,0:1:0:0:
261,232,188402,1,8,0:1:0:0:
233,269,188486,5,8,0:3:0:0:
219,264,188569,1,8,0:3:0:0:
205,259,188652,1,8,0:3:0:0:
191,253,188736,1,8,0:3:0:0:
177,236,188819,5,8,0:1:0:0:
148,235,188902,1,8,0:1:0:0:
119,240,188986,1,8,0:1:0:0:
89,244,189069,1,8,0:1:0:0:
62,281,189152,6,0,P|25:211|69:100,1,184.799994360352,6|0,3:2|0:2,0:0:0:0:
133,62,189486,2,0,L|281:46,1,123.199996240234,8|0,0:2|0:2,0:0:0:0:
512,48,189819,5,2,3:2:0:0:
289,205,189986,1,0,3:2:0:0:
368,0,190152,1,8,0:2:0:0:
473,192,190319,1,8,0:2:0:0:
486,219,190402,1,8,0:2:0:0:
499,246,190486,6,0,L|486:380,1,123.199996240234,2|0,3:2|3:2,0:0:0:0:
275,184,190819,2,0,L|263:49,1,123.199996240234,10|0,0:2|0:2,0:0:0:0:
56,338,191152,5,2,3:2:0:0:
140,83,191319,1,0,3:2:0:0:
231,321,191486,1,10,0:2:0:0:
15,173,191652,1,8,0:2:0:0:
299,196,191819,6,0,L|447:170,1,123.199996240234,2|0,3:2|0:2,0:0:0:0:
420,174,192069,1,0,3:2:0:0:
420,174,192152,1,8,0:2:0:0:
256,34,192319,1,8,0:2:0:0:
140,271,192486,1,0,3:2:0:0:
112,75,192652,1,0,3:2:0:0:
304,223,192819,1,10,0:2:0:0:
112,75,192986,1,8,0:2:0:0:
204,342,193152,5,14,0:1:0:0:
256,34,193319,1,0,3:2:0:0:
307,358,193486,5,14,0:1:0:0:
301,30,193652,1,0,3:2:0:0:
411,360,193819,5,14,0:1:0:0:
349,23,193986,1,0,3:2:0:0:
512,341,194152,5,14,0:1:0:0:
394,18,194319,1,0,3:2:0:0:
239,262,194486,6,0,L|57:251,2,176,6|8|0,3:2|0:2|3:2,0:0:0:0:
342,160,195319,1,0,3:2:0:0:
272,65,195486,1,8,0:2:0:0:
169,167,195652,1,8,0:2:0:0:
112,107,195819,6,0,P|106:62|117:3,1,88,2|0,3:2|3:2,0:0:0:0:
342,160,196152,2,0,P|348:205|337:264,1,88,10|0,0:2|0:2,0:0:0:0:
122,326,196486,1,0,3:2:0:0:
190,169,196652,1,0,3:2:0:0:
142,334,196819,1,8,0:2:0:0:
169,167,196986,1,8,0:2:0:0:
159,252,197152,6,0,P|248:247|369:254,2,176,2|8|0,3:2|0:2|3:2,0:0:0:0:
11,155,197986,1,0,3:2:0:0:
150,47,198152,1,8,0:2:0:0:
304,131,198319,1,8,0:2:0:0:
382,74,198486,6,0,P|421:61|484:65,1,88,2|0,3:2|3:2,0:0:0:0:
499,315,198819,2,0,P|457:328|413:327,1,88,10|0,0:2|0:2,0:0:0:0:
304,131,199152,1,0,3:2:0:0:
421,164,199319,1,0,3:2:0:0:
413,327,199486,1,8,0:2:0:0:
296,294,199652,1,8,0:2:0:0:
274,288,199736,1,8,0:2:0:0:
252,284,199819,6,0,B|159:271|171:327|70:312,2,176,6|8|0,3:2|0:2|3:2,0:0:0:0:
413,327,200652,1,0,3:2:0:0:
300,201,200819,1,8,0:2:0:0:
445,178,200986,1,8,0:2:0:0:
367,123,201152,6,0,L|350:20,1,88,2|0,3:2|3:2,0:0:0:0:
218,234,201486,2,0,L|203:320,1,88,10|0,0:2|0:2,0:0:0:0:
64,127,201819,1,0,3:2:0:0:
222,78,201986,1,0,3:2:0:0:
69,148,202152,1,8,0:2:0:0:
212,58,202319,1,8,0:2:0:0:
203,320,202486,5,14,0:1:0:0:
344,48,202652,1,0,3:0:0:0:
335,329,202819,5,14,0:1:0:0:
212,58,202986,1,0,3:0:0:0:
194,340,203152,5,14,0:1:0:0:
355,28,203319,1,0,3:0:0:0:
344,348,203486,5,14,0:1:0:0:
202,38,203652,1,0,3:0:0:0:
182,27,203736,1,0,3:0:0:0:
162,16,203819,5,14,0:1:0:0:
44,333,203986,1,0,3:0:0:0:
38,25,204152,5,14,0:1:0:0:
183,316,204319,1,0,3:0:0:0:
203,323,204402,1,0,3:0:0:0:
223,330,204486,5,8,0:0:0:0:
352,213,204652,5,8,0:3:0:0:
510,247,204819,5,4,0:3:0:0:
45,28,205152,5,6,1:2:0:0:
