osu file format v14

[General]
AudioFilename: audio.mp3
AudioLeadIn: 0
PreviewTime: 986
Countdown: 0
SampleSet: Soft
StackLeniency: 0.7
Mode: 0
LetterboxInBreaks: 0
WidescreenStoryboard: 1

[Editor]
Bookmarks: 13153,23819,34486,45152,61152,71819,82486,93152,103819,109152,119819,141152,151819,162486,173152,183819,194486,205152
DistanceSpacing: 0.5
BeatDivisor: 3
GridSize: 32
TimelineZoom: 1.6

[Metadata]
Title:Unbreakable
TitleUnicode:Unbreakable
Artist:Marie
ArtistUnicode:真理絵
Creator:Lasse
Version:Kalibe's Expert
Source:
Tags:kalibe dastinia meis clauson yuiko the root of heads yuikonnu ゆいこんぬ primary
BeatmapID:1700990
BeatmapSetID:808148

[Difficulty]
HPDrainRate:5
CircleSize:4
OverallDifficulty:8
ApproachRate:9
SliderMultiplier:1.72
SliderTickRate:1

[Events]
//Background and Video events
0,0,"b.jpg",0,0
//Break Periods
2,151819,156552
//Storyboard Layer 0 (Background)
//Storyboard Layer 1 (Fail)
//Storyboard Layer 2 (Pass)
//Storyboard Layer 3 (Foreground)
//Storyboard Sound Samples

[TimingPoints]
1153,333.333333333333,4,2,1,30,1,0
1153,-200,4,2,1,30,0,0
11152,-400,4,2,1,40,0,0
11236,-222.222222222222,4,2,1,5,0,0
12819,-66.6666666666667,4,2,1,70,0,0
13152,-100,4,2,1,70,0,0
23819,-125,4,2,1,70,0,0
24152,-125,4,2,1,60,0,0
31486,-200,4,2,1,60,0,0
31736,-200,4,2,99,5,0,0
31819,-125,4,2,1,60,0,0
42152,-200,4,2,1,60,0,0
42402,-200,4,2,99,5,0,0
42486,-125,4,2,1,60,0,0
43819,-125,4,2,1,65,0,0
44486,-125,4,2,1,60,0,0
45152,-125,4,2,1,55,0,0
49486,-250,4,2,1,55,0,0
49819,-250,4,2,1,10,0,0
50486,-83.3333333333333,4,2,1,80,0,1
50736,-83.3333333333333,4,2,1,50,0,1
50819,-100,4,2,1,80,0,1
51819,-100,4,2,2,80,0,1
53236,-100,4,2,1,80,0,1
55736,-83.3333333333333,4,2,1,80,0,0
55819,-83.3333333333333,4,2,1,80,0,1
56069,-83.3333333333333,4,2,1,50,0,1
56152,-100,4,2,1,80,0,1
57152,-100,4,2,2,80,0,1
58569,-100,4,2,1,80,0,1
61069,-83.3333333333333,4,2,1,80,0,0
61152,-83.3333333333333,4,2,1,80,0,1
61402,-83.3333333333333,4,2,1,50,0,1
61486,-100,4,2,1,80,0,1
62486,-100,4,2,2,80,0,1
63902,-100,4,2,1,80,0,1
66402,-83.3333333333333,4,2,1,80,0,0
66486,-83.3333333333333,4,2,1,80,0,1
66736,-83.3333333333333,4,2,1,50,0,1
66819,-100,4,2,1,80,0,1
67819,-100,4,2,2,80,0,1
69236,-100,4,2,1,80,0,1
71486,-200,4,2,1,80,0,1
71819,-100,4,2,1,70,0,0
82486,-125,4,2,1,70,0,0
82819,-125,4,2,1,60,0,0
90152,-200,4,2,1,60,0,0
90402,-200,4,2,99,5,0,0
90486,-125,4,2,1,60,0,0
101069,-200,4,2,99,5,0,0
101152,-125,4,2,1,60,0,0
102486,-125,4,2,1,65,0,0
103152,-125,4,2,1,60,0,0
103819,-125,4,2,1,55,0,0
108319,-125,4,2,1,60,0,0
109152,-76.9230769230769,4,2,1,80,0,1
109402,-76.9230769230769,4,2,1,50,0,1
109486,-95.2380952380952,4,2,1,80,0,1
110486,-95.2380952380952,4,2,2,80,0,1
111902,-95.2380952380952,4,2,1,80,0,1
114402,-76.9230769230769,4,2,1,80,0,0
114486,-76.9230769230769,4,2,1,80,0,1
114736,-76.9230769230769,4,2,1,50,0,1
114819,-100,4,2,1,80,0,1
115819,-100,4,2,2,80,0,1
117236,-100,4,2,1,80,0,1
119736,-76.9230769230769,4,2,1,80,0,0
119819,-76.9230769230769,4,2,1,80,0,1
120069,-76.9230769230769,4,2,1,50,0,1
120152,-100,4,2,1,80,0,1
121152,-100,4,2,2,80,0,1
122569,-100,4,2,1,80,0,1
125069,-76.9230769230769,4,2,1,80,0,0
125152,-76.9230769230769,4,2,1,80,0,1
125402,-76.9230769230769,4,2,1,50,0,1
125486,-100,4,2,1,80,0,1
126486,-100,4,2,2,80,0,1
127902,-100,4,2,1,80,0,1
130152,-200,4,2,1,80,0,1
130486,-125,4,2,1,60,0,0
131152,-200,4,2,1,60,0,0
131486,-125,4,2,1,60,0,0
134152,-200,4,2,1,60,0,0
134486,-125,4,2,1,60,0,0
136486,-200,4,2,1,60,0,0
136986,-125,4,2,1,60,0,0
139152,-250,4,2,1,60,0,0
141819,-200,4,2,1,60,0,0
144486,-250,4,2,1,60,0,0
144986,-200,4,2,1,60,0,0
149152,-142.857142857143,4,2,1,60,0,0
149236,-142.857142857143,4,2,1,5,0,0
151152,-142.857142857143,4,2,99,5,0,0
157152,-71.4285714285714,4,2,1,80,0,1
157402,-71.4285714285714,4,2,1,50,0,1
157486,-90.9090909090909,4,2,1,80,0,1
158486,-90.9090909090909,4,2,2,80,0,1
159902,-90.9090909090909,4,2,1,80,0,1
162486,-71.4285714285714,4,2,1,80,0,1
162736,-71.4285714285714,4,2,1,50,0,1
162819,-90.9090909090909,4,2,1,80,0,1
163819,-90.9090909090909,4,2,2,80,0,1
165236,-90.9090909090909,4,2,1,80,0,1
167486,-76.9230769230769,4,2,1,80,0,1
167819,-71.4285714285714,4,2,1,80,0,1
168069,-71.4285714285714,4,2,1,50,0,1
168152,-90.9090909090909,4,2,1,80,0,1
169152,-90.9090909090909,4,2,2,80,0,1
170569,-90.9090909090909,4,2,1,80,0,1
173152,-100,4,2,1,70,0,0
175486,-142.857142857143,4,2,1,70,0,0
175819,-71.4285714285714,4,2,1,75,0,1
176069,-71.4285714285714,4,2,1,50,0,1
176152,-90.9090909090909,4,2,1,75,0,1
177652,-76.9230769230769,4,2,1,75,0,1
178402,-71.4285714285714,4,2,1,75,0,0
178486,-71.4285714285714,4,2,1,80,0,1
178736,-71.4285714285714,4,2,1,50,0,1
178819,-90.9090909090909,4,2,1,80,0,1
179819,-90.9090909090909,4,2,2,80,0,1
181236,-90.9090909090909,4,2,1,80,0,1
183736,-90.9090909090909,4,2,1,80,0,0
183819,-71.4285714285714,4,2,1,80,0,1
184069,-71.4285714285714,4,2,1,50,0,1
184152,-90.9090909090909,4,2,1,80,0,1
185152,-90.9090909090909,4,2,2,80,0,1
186569,-90.9090909090909,4,2,1,80,0,1
189069,-71.4285714285714,4,2,1,80,0,0
189152,-71.4285714285714,4,2,1,80,0,1
189402,-71.4285714285714,4,2,1,50,0,1
189486,-71.4285714285714,4,2,1,80,0,1
189652,-90.9090909090909,4,2,1,80,0,1
190486,-90.9090909090909,4,2,2,80,0,1
191902,-90.9090909090909,4,2,1,80,0,1
194152,-200,4,2,1,80,0,1
194486,-100,4,2,1,70,0,0
202486,-100,4,2,1,80,0,1
204486,-100,4,2,1,75,0,0
204652,-100,4,2,1,70,0,0
204819,-133.333333333333,4,2,1,65,0,0
204986,-133.333333333333,4,2,1,65,0,0
205152,-100,4,2,1,75,0,0

[Colours]
Combo1 : 255,160,160
Combo2 : 165,200,240
Combo3 : 255,185,150
Combo4 : 255,230,140

[HitObjects]
362,50,1153,6,0,B|468:59|416:113|523:122,2,172,2|0|2,0:2|0:2|0:2,0:0:0:0:
302,1,2819,1,0,0:2:0:0:
228,26,3152,2,0,P|224:59|214:115,1,86,2|0,0:2|0:2,0:0:0:0:
367,343,3819,6,0,P|426:357|506:278,1,172,2|0,0:2|0:2,0:0:0:0:
464,221,4819,1,2,0:2:0:0:
391,251,5152,1,0,0:2:0:0:
306,210,5486,1,0,0:2:0:0:
202,285,5819,2,0,P|173:291|143:299,1,43,2|0,0:2|0:0,0:0:0:0:
91,333,6152,2,0,P|62:327|32:319,1,43,0|0,0:2|0:0,0:0:0:0:
155,139,6486,6,0,P|201:128|277:218,2,172,2|0|2,0:2|0:2|0:2,0:0:0:0:
93,186,8152,1,0,0:2:0:0:
30,140,8486,2,0,P|40:85|42:42,1,86,2|0,0:2|0:2,0:0:0:0:
233,309,9152,6,0,B|321:321|307:259|402:272,1,172,2|0,0:2|0:2,0:0:0:0:
452,217,10152,1,2,0:2:0:0:
407,152,10486,1,0,0:2:0:0:
474,84,10819,1,0,0:2:0:0:
432,22,11152,6,0,B|405:27|372:10|372:10|336:43|336:43|295:20|295:20|268:39|234:43,1,215,2|8,0:2|0:1,0:0:0:0:
6,79,13152,6,0,B|103:73|77:127|171:123,1,172,6|8,3:2|0:2,0:0:0:0:
222,254,13652,1,0,0:0:0:0:
110,329,13819,2,0,P|118:278|120:229,1,86,0|0,3:2|3:2,0:0:0:0:
324,87,14152,1,8,0:2:0:0:
421,126,14319,1,8,0:2:0:0:
421,126,14402,1,8,0:0:0:0:
421,126,14486,6,0,P|377:184|268:181,2,172,2|10|0,3:2|0:2|3:2,0:0:0:0:
512,227,15319,1,0,3:2:0:0:
375,381,15486,2,0,P|387:315|389:278,1,86,8|8,0:2|0:2,0:0:0:0:
266,163,15819,5,2,3:2:0:0:
198,202,15986,1,0,0:0:0:0:
256,255,16152,1,8,0:2:0:0:
327,221,16319,1,0,0:0:0:0:
190,169,16486,5,0,3:2:0:0:
165,240,16652,1,0,3:2:0:0:
344,186,16819,1,8,0:2:0:0:
318,112,16986,1,8,0:2:0:0:
251,291,17152,6,0,P|289:297|345:315,1,86,2|0,3:2|3:2,0:0:0:0:
163,198,17486,2,0,P|112:208|22:224,1,129,10|0,0:2|0:0,0:0:0:0:
21,210,17819,1,0,3:2:0:0:
83,123,17986,1,0,3:2:0:0:
151,289,18152,1,8,0:2:0:0:
339,194,18319,1,8,0:2:0:0:
339,194,18402,1,8,0:2:0:0:
339,194,18486,6,0,B|294:204|254:173|254:173|267:217|237:256,2,172,6|8|0,3:2|0:2|3:2,0:0:0:0:
451,128,19319,1,0,3:2:0:0:
332,11,19486,2,0,P|329:54|318:99,1,86,8|8,0:2|0:2,0:0:0:0:
476,314,19819,2,0,P|466:272|463:229,1,86,2|0,3:2|3:2,0:0:0:0:
240,152,20152,1,10,0:2:0:0:
362,223,20319,1,0,0:2:0:0:
237,281,20486,2,0,P|276:288|328:313,1,86,0|0,3:2|3:2,0:0:0:0:
160,90,20819,2,0,P|199:83|245:55,1,86,8|8,0:2|0:2,0:0:0:0:
0,142,21152,6,0,B|104:146|61:204|161:206,1,172,2|8,3:2|0:2,0:0:0:0:
241,147,21652,1,0,0:0:0:0:
316,259,21819,1,0,3:2:0:0:
425,84,21986,1,0,3:2:0:0:
500,171,22152,2,0,L|382:191,1,86,8|8,0:2|0:2,0:0:0:0:
149,330,22486,5,2,3:2:0:0:
262,187,22652,1,0,3:2:0:0:
398,323,22819,2,0,P|353:298|309:293,1,86,10|0,0:0|0:0,0:0:0:0:
112,216,23152,2,0,P|130:212|169:198,1,43,8|8,0:1|0:1,0:0:0:0:
262,105,23319,5,8,0:1:0:0:
271,97,23402,1,8,0:1:0:0:
279,87,23486,2,0,L|260:20,1,43,8|8,0:1|0:1,0:0:0:0:
122,37,23652,5,8,0:1:0:0:
111,54,23736,1,8,0:1:0:0:
110,73,23819,2,0,P|133:76|184:85,1,68.8,4|0,3:2|0:0,0:0:0:0:
344,171,24152,2,0,P|377:164|411:160,1,68.8,10|0,0:2|3:2,0:0:0:0:
122,285,24486,1,2,3:2:0:0:
246,229,24652,6,0,B|166:245|194:272|120:286,1,137.6,8|0,0:2|3:2,0:0:0:0:
242,313,25152,2,0,P|265:316|297:353,1,68.8,2|0,3:2|0:0,0:0:0:0:
460,275,25486,1,8,0:2:0:0:
389,194,25652,2,0,P|384:235|377:272,1,68.8,2|0,0:2|3:2,3:0:0:0:
379,262,25986,1,0,3:2:0:0:
300,125,26152,2,0,B|374:117|354:79|436:69,1,137.6,10|0,0:2|3:2,0:0:0:0:
275,223,26652,5,0,0:0:0:0:
200,140,26819,2,0,P|212:87|216:53,1,68.8,10|0,0:2|3:2,0:0:0:0:
24,223,27152,1,2,3:2:0:0:
71,136,27319,6,0,P|108:165|118:252,1,137.6,8|0,0:2|3:2,0:0:0:0:
171,330,27819,2,0,P|137:337|104:347,1,68.8,2|0,3:2|0:0,0:0:0:0:
264,241,28152,1,8,0:2:0:0:
300,309,28319,2,0,P|289:341|282:375,1,68.8,2|2,0:2|3:2,0:0:0:0:
198,303,28652,1,0,0:2:0:0:
346,231,28819,1,10,0:2:0:0:
258,161,28986,1,0,0:2:0:0:
460,214,29152,5,2,0:2:0:0:
460,214,29319,1,0,3:2:0:0:
488,118,29486,2,0,B|425:111|412:145|342:140,1,137.6,8|2,0:2|0:2,0:0:0:0:
224,13,29986,2,0,P|247:28|292:39,1,68.8,8|0,0:2|3:2,0:0:0:0:
175,105,30319,1,0,3:2:0:0:
262,243,30486,6,0,P|254:198|252:173,1,68.8,2|0,3:2|3:2,0:0:0:0:
99,56,30819,2,0,P|95:90|89:123,1,68.8,10|0,0:2|0:2,0:0:0:0:
161,192,31152,1,2,3:2:0:0:
14,251,31319,1,0,3:2:0:0:
74,384,31486,6,0,L|88:305,1,64.5,10|0,0:2|0:2,0:0:0:0:
72,309,31819,2,0,B|147:317|123:351|198:363,1,137.6,2|8,3:2|0:2,0:0:0:0:
268,245,32319,2,0,P|236:264|202:266,1,68.8,2|0,3:2|3:2,0:0:0:0:
370,384,32652,1,8,0:2:0:0:
423,237,32819,6,0,P|426:271|434:305,1,68.8,2|0,3:2|3:2,0:0:0:0:
206,175,33152,2,0,P|195:207|177:248,1,68.8,0|0,3:2|3:2,0:0:0:0:
392,151,33486,1,10,0:2:0:0:
272,108,33652,1,0,3:2:0:0:
283,298,33819,5,0,3:2:0:0:
303,223,33986,2,0,P|295:256|287:289,1,68.8,2|0,3:2|0:0,0:0:0:0:
499,21,34486,6,0,B|416:19|441:58|359:56,1,137.6,6|10,3:2|0:2,0:0:0:0:
262,11,34986,2,0,P|273:63|276:88,1,68.8,0|2,3:2|3:2,0:0:0:0:
474,150,35319,1,8,0:2:0:0:
463,227,35486,2,0,P|474:174|477:150,1,68.8,0|0,0:0|3:2,0:0:0:0:
375,177,35819,6,0,L|302:190,1,68.8,2|0,3:2|0:0,0:0:0:0:
160,332,36152,1,8,0:2:0:0:
292,284,36319,2,0,B|215:277|242:245|161:236,1,137.6,2|0,0:2|3:2,0:0:0:0:
60,148,36819,2,0,P|57:199|46:256,1,103.2,10|0,0:2|0:0,0:0:0:0:
47,250,37152,1,2,3:2:0:0:
156,139,37319,5,0,0:0:0:0:
79,17,37486,2,0,P|104:44|134:53,1,68.8,10|0,0:2|3:2,0:0:0:0:
259,98,37819,1,0,3:2:0:0:
199,218,37986,2,0,P|224:191|254:182,1,68.8,10|0,0:2|0:0,0:0:0:0:
381,133,38319,5,0,3:2:0:0:
494,190,38486,2,0,B|431:183|425:222|361:219,1,137.6,2|8,3:2|0:2,0:0:0:0:
460,111,38986,2,0,P|416:105|391:100,1,68.8,2|2,0:2|3:2,0:0:0:0:
459,300,39319,2,0,P|415:306|390:311,1,68.8,0|10,0:2|0:2,0:0:0:0:
239,222,39652,5,0,0:2:0:0:
239,222,39736,1,0,0:0:0:0:
239,222,39819,2,0,L|227:296,1,68.8,2|0,3:2|3:2,0:0:0:0:
44,208,40152,1,8,0:2:0:0:
133,301,40319,2,0,B|123:249|123:249|137:221|137:221|124:156,1,137.6,0|8,3:2|0:2,0:0:0:0:
17,194,40819,6,0,P|25:158|31:106,1,68.8,0|0,3:2|3:2,0:0:0:0:
228,192,41152,2,0,P|220:156|214:104,1,68.8,2|0,3:2|3:2,0:0:0:0:
129,33,41486,2,0,B|106:95|141:107|125:174,1,137.6,10|2,0:2|3:2,0:0:0:0:
284,50,41986,1,0,3:2:0:0:
366,97,42152,6,0,L|439:107,1,64.5,10|0,0:2|0:2,0:0:0:0:
446,84,42486,2,0,B|499:105|499:105|483:200,1,137.6,2|8,3:2|0:2,0:0:0:0:
380,351,42986,2,0,P|375:293|369:263,1,68.8,2|0,3:2|3:2,0:0:0:0:
243,158,43319,1,8,0:2:0:0:
378,191,43486,2,0,B|300:198|328:232|245:250,1,137.6,2|2,3:2|3:2,0:0:0:0:
77,360,43986,5,8,0:2:0:0:
148,194,44152,1,8,0:2:0:0:
148,194,44319,1,0,3:2:0:0:
41,253,44486,5,10,0:2:0:0:
179,303,44652,1,8,0:3:0:0:
54,270,44819,1,4,0:3:0:0:
156,313,44986,1,8,0:3:0:0:
125,116,45152,5,6,3:2:0:0:
125,116,45319,2,0,B|160:152|160:152|131:247,1,137.6,0|0,3:2|3:2,0:0:0:0:
245,171,45819,2,0,L|389:153,1,137.6,10|2,0:2|0:2,0:0:0:0:
381,153,46319,1,0,0:0:0:0:
267,61,46486,6,0,P|290:65|340:73,1,68.8,2|0,3:2|3:2,0:0:0:0:
269,261,46819,2,0,P|292:257|342:249,1,68.8,0|0,3:2|0:0,0:0:0:0:
160,152,47152,1,8,0:2:0:0:
238,138,47319,1,8,0:3:0:0:
103,271,47486,1,4,0:3:0:0:
181,285,47653,1,8,0:3:0:0:
49,366,47819,6,0,P|100:354|126:351,1,68.8,2|0,3:2|3:2,0:0:0:0:
80,170,48152,2,0,P|131:182|157:185,1,68.8,0|0,3:2|3:2,0:0:0:0:
300,348,48486,6,0,B|222:336|258:301|157:278,1,137.6,10|0,0:2|3:2,0:0:0:0:
309,216,48986,2,0,B|387:204|351:169|452:146,1,137.6,0|0,3:2|3:2,0:0:0:0:
323,67,49486,2,0,L|310:-10,1,68.8,2|0,3:2|0:0,0:0:0:0:
312,0,50486,6,0,B|222:-11|244:47|144:29,1,154.799995275879,6|0,3:2|0:2,0:0:0:0:
146,50,50819,1,8,0:2:0:0:
282,135,50986,2,0,L|294:69,2,43,0|2|2,0:2|0:0|3:2,0:0:0:0:
220,250,51319,1,0,3:3:0:0:
72,135,51486,2,0,L|167:152,1,86,8|8,0:2|0:2,0:0:0:0:
0,258,51819,6,0,L|143:234,1,129,2|0,3:2|0:0,0:0:0:0:
127,236,52152,2,0,P|102:296|96:327,1,86,10|0,0:2|0:2,0:0:0:0:
197,151,52486,2,0,P|208:192|226:231,1,86,2|0,3:2|3:2,0:0:0:0:
68,65,52819,2,0,P|56:106|38:145,1,86,10|8,0:2|0:2,0:0:0:0:
174,344,53152,6,0,P|233:354|316:278,1,172,2|8,3:2|0:2,0:0:0:0:
438,215,53652,1,0,0:0:0:0:
487,298,53819,2,0,P|467:301|380:319,1,86,0|0,3:2|3:2,0:0:0:0:
208,164,54152,2,0,P|299:180|347:189,1,129,10|0,0:2|0:0,0:0:0:0:
353,172,54486,5,2,3:2:0:0:
225,263,54652,1,0,3:2:0:0:
321,384,54819,2,0,P|318:337|311:286,1,86,10|0,0:2|0:2,0:0:0:0:
462,104,55152,2,0,P|459:151|452:202,1,86,2|0,3:2|3:2,0:0:0:0:
237,85,55486,1,8,0:2:0:0:
396,22,55652,1,8,0:2:0:0:
396,22,55736,1,8,0:2:0:0:
396,22,55819,6,0,B|308:23|335:66|248:70,1,154.799995275879,6|0,3:2|0:2,0:0:0:0:
252,69,56152,1,8,0:2:0:0:
150,12,56319,2,0,L|141:73,2,43,0|2|2,0:2|0:0|3:2,0:0:0:0:
124,197,56652,1,0,3:3:0:0:
10,68,56819,2,0,L|29:164,1,86,8|8,0:2|0:2,0:0:0:0:
109,320,57152,6,0,P|151:259|126:203,1,129,2|0,3:2|0:0,0:0:0:0:
134,211,57486,2,0,P|69:237|24:244,1,86,10|0,0:2|0:2,0:0:0:0:
239,291,57819,2,0,P|250:249|268:210,1,86,2|0,3:2|3:2,0:0:0:0:
109,320,58152,2,0,P|141:347|169:380,1,86,10|8,0:2|0:2,0:0:0:0:
398,325,58486,6,0,P|346:250|259:268,1,172,2|8,3:2|0:2,0:0:0:0:
430,160,58986,1,0,0:0:0:0:
350,56,59152,2,0,P|348:104|335:142,1,86,0|0,3:2|3:2,0:0:0:0:
504,328,59486,1,10,0:2:0:0:
504,328,59569,2,0,P|493:264|497:227,1,86,2|0,0:0|0:0,0:0:0:0:
508,219,59819,5,14,0:1:0:0:
440,125,59986,1,0,3:0:0:0:
273,256,60152,5,14,0:1:0:0:
312,148,60319,1,0,3:0:0:0:
398,325,60486,5,14,0:1:0:0:
367,222,60652,1,0,3:0:0:0:
142,364,60819,5,8,0:1:0:0:
149,344,60902,1,8,0:1:0:0:
155,323,60986,1,8,0:1:0:0:
163,298,61069,1,8,0:1:0:0:
173,274,61152,6,0,B|122:267|85:249|85:249|68:290|38:304,1,154.799995275879,6|0,3:2|0:2,0:0:0:0:
27,311,61486,1,8,0:2:0:0:
149,144,61652,2,0,L|159:209,2,43,0|2|2,0:2|0:0|3:2,0:0:0:0:
38,95,61986,1,0,3:3:0:0:
215,35,62152,2,0,P|163:27|112:17,1,86,8|8,0:2|0:2,0:0:0:0:
251,217,62486,6,0,P|293:160|267:98,1,129,2|0,3:2|0:0,0:0:0:0:
277,108,62819,2,0,P|326:98|370:76,1,86,10|0,0:2|0:2,0:0:0:0:
511,4,63152,2,0,P|493:43|486:85,1,86,2|0,3:2|3:2,0:0:0:0:
471,257,63486,2,0,P|442:224|407:200,1,86,10|8,0:2|0:2,0:0:0:0:
196,325,63819,6,0,P|242:366|354:346,1,172,2|8,3:2|0:2,0:0:0:0:
452,275,64319,1,0,0:0:0:0:
312,191,64486,2,0,P|303:232|287:275,1,86,0|0,3:2|3:2,0:0:0:0:
420,126,64819,1,10,0:2:0:0:
266,69,64986,1,0,0:2:0:0:
447,29,65152,6,0,L|353:48,1,86,2|0,3:2|3:2,0:0:0:0:
153,142,65486,2,0,L|237:159,1,86,10|8,0:2|0:2,0:0:0:0:
512,230,65819,2,0,B|425:222|451:293|349:295,1,172,2|8,3:2|0:2,0:0:0:0:
212,384,66319,1,8,0:2:0:0:
212,384,66402,1,8,0:2:0:0:
212,384,66486,6,0,P|182:330|266:278,1,154.799995275879,6|0,3:2|0:2,0:0:0:0:
240,272,66819,1,8,0:2:0:0:
130,171,66986,2,0,L|142:237,2,43,0|2|2,0:2|0:0|3:2,0:0:0:0:
217,75,67319,1,0,3:3:0:0:
334,212,67486,2,0,B|353:170|353:170|336:129,1,86,8|8,0:2|0:2,0:0:0:0:
90,30,67819,6,0,P|52:50|54:135,1,129,2|0,3:2|0:0,0:0:0:0:
48,128,68152,2,0,P|85:134|143:147,1,86,10|0,0:2|0:2,0:0:0:0:
99,333,68486,2,0,P|140:323|183:316,1,86,2|0,3:2|3:2,0:0:0:0:
17,211,68819,2,0,P|9:253|0:295,1,86,10|8,0:2|0:2,0:0:0:0:
232,192,69152,6,0,P|220:117|213:41,1,129,2|0,3:2|0:0,0:0:0:0:
214,64,69486,1,8,0:2:0:0:
364,190,69652,1,0,0:0:0:0:
420,73,69819,2,0,P|356:92|322:98,1,86,0|0,3:2|3:2,0:0:0:0:
424,307,70152,2,0,P|360:288|326:282,1,86,8|0,0:2|3:2,0:0:0:0:
173,299,70486,5,14,0:1:0:0:
103,335,70652,1,0,3:0:0:0:
217,228,70819,5,14,0:1:0:0:
342,285,70986,1,0,3:0:0:0:
337,95,71152,5,14,0:1:0:0:
166,165,71319,1,0,3:0:0:0:
406,187,71486,6,0,P|448:179|511:172,1,86,14|6,0:1|3:2,0:0:0:0:
256,192,71902,12,8,74152,0:0:0:0:
61,227,74486,6,0,B|108:238|154:208|154:208|161:257|199:276,1,172,2|8,3:2|0:2,0:0:0:0:
326,147,74986,1,0,0:0:0:0:
243,58,75152,2,0,P|240:99|227:154,1,86,0|0,3:2|3:2,0:0:0:0:
391,319,75486,1,8,0:2:0:0:
418,223,75652,1,2,0:2:0:0:
418,223,75736,1,8,0:0:0:0:
418,223,75819,6,0,L|330:241,1,86,2|0,3:2|3:2,0:0:0:0:
78,355,76152,2,0,L|162:372,1,86,10|0,0:2|0:2,0:0:0:0:
260,312,76486,1,0,3:2:0:0:
162,184,76652,1,0,3:2:0:0:
59,260,76819,1,8,0:2:0:0:
255,216,76986,1,8,0:2:0:0:
255,216,77069,1,8,0:2:0:0:
255,216,77152,6,0,P|246:159|245:117,1,86,6|0,3:2|0:0,0:0:0:0:
0,207,77486,2,0,B|104:210|52:267|154:272,1,172,8|0,0:2|3:2,0:0:0:0:
248,347,77986,1,0,3:2:0:0:
377,211,78152,2,0,P|380:280|395:326,1,86,8|8,0:2|0:2,0:0:0:0:
272,207,78486,5,2,3:2:0:0:
402,121,78652,1,0,3:2:0:0:
222,32,78819,2,0,P|270:45|314:53,1,86,10|0,0:2|0:2,0:0:0:0:
465,235,79152,5,0,3:2:0:0:
320,140,79319,1,0,3:2:0:0:
461,41,79486,1,8,0:2:0:0:
353,261,79652,5,0,3:2:0:0:
365,243,79736,1,4,3:0:0:0:
364,221,79819,1,2,3:2:0:0:
282,64,79986,1,0,0:0:0:0:
159,137,80152,2,0,L|69:154,1,86,8|0,0:2|0:0,0:0:0:0:
74,152,80402,1,2,0:0:0:0:
74,152,80486,1,0,3:2:0:0:
166,50,80652,1,0,3:2:0:0:
256,194,80819,2,0,P|242:253|237:295,1,86,8|0,0:2|0:2,0:0:0:0:
162,384,81152,5,2,3:2:0:0:
131,283,81319,1,0,3:2:0:0:
339,257,81486,1,10,0:0:0:0:
298,365,81652,1,0,0:0:0:0:
190,218,81819,5,8,2:1:0:0:
190,218,81902,1,8,2:1:0:0:
190,218,81986,2,0,L|254:231,1,43,8|8,2:1|2:1,0:0:0:0:
411,158,82152,5,8,2:1:0:0:
416,137,82236,1,8,2:1:0:0:
406,117,82319,1,8,2:1:0:0:
414,97,82402,1,8,2:1:0:0:
425,75,82486,6,0,B|359:72|357:109|286:104,1,137.6,4|10,3:2|0:2,0:0:0:0:
213,44,82986,2,0,P|168:35|154:0,1,68.8,0|2,3:2|3:2,0:0:0:0:
54,178,83319,1,8,0:2:0:0:
135,121,83486,2,0,L|150:198,1,68.8,0|0,0:0|3:2,0:0:0:0:
34,334,83819,6,0,P|96:283|169:288,1,137.6,2|8,3:2|0:2,0:0:0:0:
340,193,84319,2,0,P|290:146|223:140,1,137.6,2|0,0:2|3:2,0:0:0:0:
67,62,84819,2,0,B|144:54|123:22|205:13,1,137.6,10|0,0:2|3:2,0:0:0:0:
269,56,85319,5,0,0:0:0:0:
391,113,85486,2,0,P|375:64|394:40,1,68.8,10|0,0:2|3:2,0:0:0:0:
309,284,85819,1,2,3:2:0:0:
451,243,85986,2,0,B|381:240|397:283|314:278,1,137.6,8|0,0:2|3:2,0:0:0:0:
500,356,86486,6,0,P|461:326|433:329,1,68.8,2|0,3:2|0:0,0:0:0:0:
248,204,86819,1,8,0:2:0:0:
325,178,86986,6,0,P|286:208|258:205,1,68.8,2|2,0:2|3:2,0:0:0:0:
111,343,87319,1,0,0:2:0:0:
240,313,87486,6,0,B|166:303|197:271|106:257,1,137.6,10|2,0:2|0:2,0:0:0:0:
20,180,87986,1,0,3:2:0:0:
132,70,88152,1,8,0:2:0:0:
142,149,88319,2,0,P|131:93|131:62,1,68.8,0|2,3:2|0:2,0:0:0:0:
285,180,88652,2,0,P|326:122|396:128,1,137.6,8|0,0:2|3:2,0:0:0:0:
301,83,89152,6,0,P|254:65|231:48,1,68.8,2|0,3:2|3:2,0:0:0:0:
419,156,89486,2,0,P|448:138|481:127,1,68.8,10|0,0:2|0:2,0:0:0:0:
301,226,89819,2,0,P|290:258|272:288,1,68.8,2|0,3:2|3:2,0:0:0:0:
512,319,90152,6,0,L|434:333,1,64.5,10|0,0:2|0:2,0:0:0:0:
425,358,90486,2,0,B|374:336|374:336|398:248,1,137.6,2|8,3:2|0:2,0:0:0:0:
330,85,90986,2,0,P|338:136|341:171,1,68.8,2|0,3:2|3:2,0:0:0:0:
158,287,91319,1,8,0:2:0:0:
256,367,91486,2,0,P|245:322|258:288,1,68.8,2|0,3:2|3:2,0:0:0:0:
185,206,91819,6,0,P|138:194|115:185,1,68.8,0|0,3:2|3:2,0:0:0:0:
312,64,92152,1,10,0:2:0:0:
180,120,92319,1,0,3:2:0:0:
306,193,92486,1,0,3:2:0:0:
238,1,92652,5,10,2:2:0:0:
223,20,92736,1,8,2:0:0:0:
226,43,92819,1,0,3:0:0:0:
395,256,92985,5,10,2:2:0:0:
410,237,93069,1,8,2:0:0:0:
407,214,93152,1,6,3:2:0:0:
430,115,93319,6,0,P|378:129|344:134,1,68.8,2|10,3:2|0:2,0:0:0:0:
494,211,93652,1,0,3:2:0:0:
316,298,93819,1,2,3:2:0:0:
440,333,93986,6,0,P|394:298|298:308,1,137.6,8|0,0:2|3:2,0:0:0:0:
234,207,94486,2,0,P|226:266|217:303,1,68.8,2|0,3:2|0:0,0:0:0:0:
345,101,94819,1,8,0:2:0:0:
244,50,94986,2,0,P|155:73|92:84,1,137.6,2|0,0:2|3:2,0:0:0:0:
1,239,95486,2,0,P|39:171|14:142,1,103.2,10|0,0:2|0:0,0:0:0:0:
51,173,95819,6,0,L|125:189,1,68.8,2|0,3:2|0:0,0:0:0:0:
15,370,96152,2,0,L|89:354,1,68.8,10|0,0:2|3:2,0:0:0:0:
163,288,96486,1,0,3:2:0:0:
35,252,96652,2,0,B|90:259|90:259|117:281|117:281|175:290,1,137.6,10|0,0:2|3:2,0:0:0:0:
251,345,97152,6,0,P|270:311|263:279,1,68.8,2|0,3:2|0:0,0:0:0:0:
397,165,97486,1,8,0:2:0:0:
393,249,97652,6,0,P|374:215|381:183,1,68.8,2|2,0:2|3:2,0:0:0:0:
254,72,97986,1,0,0:2:0:0:
402,58,98152,6,0,B|318:54|345:98|255:87,1,137.6,10|2,0:2|3:2,0:0:0:0:
151,159,98652,2,0,L|166:71,1,68.8,0|8,3:2|0:2,0:0:0:0:
286,255,98986,2,0,L|274:174,1,68.8,0|2,3:2|3:2,0:0:0:0:
115,367,99319,1,8,0:2:0:0:
107,254,99486,6,0,P|126:264|189:280,1,68.8,0|0,3:2|3:2,0:0:0:0:
259,372,99819,2,0,P|278:362|341:346,1,68.8,2|0,3:2|3:2,0:0:0:0:
470,229,100152,1,10,0:2:0:0:
418,175,100319,1,0,0:2:0:0:
358,222,100486,1,2,3:2:0:0:
408,278,100652,1,0,3:2:0:0:
500,112,100819,5,10,0:2:0:0:
500,112,100902,2,0,L|490:32,1,68.8,2|0,0:0|0:2,0:0:0:0:
473,27,101152,6,0,L|393:40,1,68.8,2|0,3:2|0:0,0:0:0:0:
199,184,101486,1,8,0:2:0:0:
311,59,101652,1,2,3:2:0:0:
407,128,101819,1,0,3:2:0:0:
203,91,101986,5,8,0:2:0:0:
90,144,102152,1,2,3:2:0:0:
90,144,102319,1,0,3:2:0:0:
193,71,102486,5,2,3:2:0:0:
311,219,102652,1,8,0:2:0:0:
311,219,102819,1,8,0:2:0:0:
177,89,102986,5,0,3:2:0:0:
83,286,103152,1,10,0:2:0:0:
83,286,103319,1,8,0:3:0:0:
83,286,103486,1,4,0:3:0:0:
171,350,103652,5,2,0:0:0:0:
171,350,103736,1,2,0:0:0:0:
171,350,103819,1,4,0:0:0:0:
241,153,103986,1,0,3:2:0:0:
180,208,104152,1,0,3:2:0:0:
231,272,104319,1,0,3:2:0:0:
434,274,104486,6,0,B|361:260|388:231|307:218,1,137.6,10|2,0:2|0:2,0:0:0:0:
310,218,105152,2,0,P|345:193|380:192,1,68.8,2|0,3:2|3:2,0:0:0:0:
232,31,105486,2,0,P|251:58|282:73,1,68.8,0|0,3:2|0:0,0:0:0:0:
116,213,105819,5,8,0:2:0:0:
243,155,105986,1,8,0:3:0:0:
125,124,106152,5,4,0:3:0:0:
228,245,106319,1,8,0:3:0:0:
228,245,106402,1,0,3:0:0:0:
228,245,106486,6,0,P|214:298|207:317,1,68.8,2|0,3:2|3:2,0:0:0:0:
363,204,106819,2,0,P|373:236|381:270,1,68.8,0|0,3:2|3:2,0:0:0:0:
216,144,107152,2,0,P|213:93|287:54,1,137.6,10|2,0:2|0:2,0:0:0:0:
370,12,107652,6,0,P|415:23|448:27,1,68.8,0|2,3:2|0:2,0:0:0:0:
466,216,107986,1,0,3:2:0:0:
497,145,108152,1,2,3:2:0:0:
359,97,108319,5,8,0:3:0:0:
359,97,108402,1,8,0:3:0:0:
359,97,108486,1,4,0:3:0:0:
405,291,108652,1,4,0:3:0:0:
9,19,109152,6,0,B|86:34|86:34|60:137,1,167.699992323304,6|0,3:2|0:2,0:0:0:0:
35,141,109486,1,8,0:2:0:0:
153,277,109652,2,0,L|141:189,1,45.1499986221314,0|2,0:2|0:0,0:0:0:0:
134,209,109819,2,0,L|258:228,1,90.2999972442628,2|0,3:2|3:3,0:0:0:0:
60,272,110152,1,8,0:2:0:0:
249,204,110319,1,8,0:2:0:0:
243,66,110486,6,0,P|215:80|197:146,1,90.2999972442628,2|0,3:2|3:2,0:0:0:0:
94,370,110819,2,0,P|105:327|142:303,1,90.2999972442628,10|0,0:2|0:2,0:0:0:0:
6,162,111152,2,0,P|54:184|102:201,1,90.2999972442628,2|0,3:2|3:2,0:0:0:0:
323,310,111486,2,0,P|275:332|227:349,1,90.2999972442628,10|8,0:2|0:2,0:0:0:0:
380,153,111819,6,0,P|436:154|501:262,2,180.599994488526,2|8|0,3:2|0:2|3:0,0:0:0:0:
276,29,112652,1,0,3:2:0:0:
276,29,112736,1,0,3:0:0:0:
276,29,112819,2,0,L|381:55,1,90.2999972442628,10|0,0:2|0:2,0:0:0:0:
252,253,113152,5,2,3:2:0:0:
201,198,113319,1,0,3:2:0:0:
254,10,113486,5,10,0:2:0:0:
202,68,113652,1,0,0:2:0:0:
75,171,113819,5,2,3:2:0:0:
147,137,113986,1,0,3:2:0:0:
30,85,114152,6,0,L|93:95,1,45.1499986221314,8|8,0:2|0:0,0:0:0:0:
173,231,114319,1,8,0:2:0:0:
173,231,114402,1,8,0:2:0:0:
173,231,114486,6,0,B|74:259|74:259|50:238|54:193,1,167.699992323304,6|0,3:2|0:2,0:0:0:0:
147,137,114819,2,0,L|254:154,1,86,8|0,0:2|0:2,0:0:0:0:
393,357,115152,1,2,3:2:0:0:
328,220,115319,1,0,3:3:0:0:
242,310,115486,1,8,0:2:0:0:
433,235,115652,1,8,0:2:0:0:
440,214,115736,1,8,0:0:0:0:
428,195,115819,6,0,L|546:218,1,86,2|0,3:2|3:2,0:0:0:0:
327,35,116152,2,0,L|178:62,1,129,10|0,0:2|0:0,0:0:0:0:
187,40,116486,1,2,3:2:0:0:
366,117,116652,1,0,3:2:0:0:
198,243,116819,2,0,B|183:203|183:203|204:162,1,86,10|8,0:2|0:2,0:0:0:0:
458,15,117152,6,0,P|503:81|469:136,1,129,2|0,3:2|0:0,0:0:0:0:
487,120,117486,2,0,P|444:125|381:145,1,86,8|8,0:2|0:0,0:0:0:0:
261,327,117819,2,0,P|303:332|367:352,1,86,0|0,3:0|3:2,0:0:0:0:
463,208,118152,5,10,0:2:0:0:
330,253,118319,1,0,0:2:0:0:
438,380,118486,5,14,0:1:0:0:
426,304,118652,1,0,3:0:0:0:
321,143,118819,5,14,0:1:0:0:
300,228,118986,1,0,3:0:0:0:
151,379,119152,5,14,0:1:0:0:
117,231,119319,1,0,3:0:0:0:
117,231,119402,1,4,3:0:0:0:
117,231,119486,2,0,L|125:182,1,43,8|8,0:1|0:1,0:0:0:0:
167,374,119652,2,0,L|183:321,1,43,8|8,0:1|0:1,0:0:0:0:
251,274,119819,6,0,B|170:267|186:324|80:314,1,167.699992323304,6|0,3:2|0:2,0:0:0:0:
68,337,120152,1,8,0:2:0:0:
211,150,120319,1,0,0:2:0:0:
222,167,120402,1,2,0:0:0:0:
218,188,120486,1,2,3:2:0:0:
74,130,120652,1,0,3:3:0:0:
279,34,120819,2,0,P|349:23|377:17,1,86,8|8,0:2|0:2,0:0:0:0:
511,200,121152,6,0,B|469:201|438:170|438:170|416:219|372:239,1,172,2|10,3:2|0:2,0:0:0:0:
433,133,121652,1,0,0:2:0:0:
458,384,121819,6,0,P|465:314|475:277,1,86,2|0,3:2|3:2,0:0:0:0:
250,64,122152,2,0,P|258:106|260:149,1,86,10|8,0:2|0:2,0:0:0:0:
177,363,122486,6,0,P|228:315|339:322,2,172,2|8|0,3:2|0:2|3:0,0:0:0:0:
18,271,123319,1,0,3:2:0:0:
18,271,123402,1,0,3:0:0:0:
18,271,123486,2,0,L|106:287,1,86,10|0,0:2|0:2,0:0:0:0:
268,173,123819,5,2,3:2:0:0:
219,236,123986,1,0,3:2:0:0:
340,109,124152,5,10,0:2:0:0:
367,180,124319,1,8,0:2:0:0:
352,14,124486,5,2,3:2:0:0:
426,45,124652,1,0,3:2:0:0:
232,79,124819,6,0,L|183:90,1,43,8|8,0:2|0:2,0:0:0:0:
107,53,124986,1,8,0:2:0:0:
107,53,125069,1,8,0:2:0:0:
107,53,125152,6,0,B|41:40|41:40|35:86|21:144,1,167.699992323304,6|0,3:2|0:2,0:0:0:0:
42,166,125486,1,8,0:2:0:0:
132,331,125652,2,0,L|125:263,1,43,0|2,0:2|0:0,0:0:0:0:
117,261,125819,2,0,L|21:289,1,86,2|0,3:2|3:3,0:0:0:0:
230,188,126152,1,8,0:2:0:0:
115,128,126319,1,8,0:2:0:0:
218,364,126486,6,0,P|232:290|239:271,1,86,2|0,3:2|3:2,0:0:0:0:
395,39,126819,2,0,P|409:113|416:132,1,86,10|0,0:2|0:2,0:0:0:0:
481,265,127152,2,0,P|407:279|388:286,1,86,2|0,3:2|3:2,0:0:0:0:
195,86,127486,2,0,P|254:102|278:103,1,86,10|8,0:2|0:2,0:0:0:0:
499,139,127819,6,0,B|421:127|415:195|326:181,2,172,2|8|0,3:2|0:2|3:0,0:0:0:0:
361,261,128652,1,0,3:2:0:0:
512,368,128819,2,0,P|471:354|412:350,1,86,10|0,0:2|0:2,0:0:0:0:
227,204,129152,5,14,0:1:0:0:
203,281,129319,1,0,3:0:0:0:
118,154,129486,5,14,0:1:0:0:
203,281,129652,1,0,3:0:0:0:
289,98,129819,5,14,0:1:0:0:
203,281,129986,1,0,3:0:0:0:
204,85,130152,6,0,P|198:30|195:-5,1,86,14|4,0:1|1:2,0:0:0:0:
71,23,130652,5,0,1:2:0:0:
38,91,130819,1,0,1:2:0:0:
110,124,130986,1,0,1:2:0:0:
287,35,131152,6,0,L|380:47,1,86,8|0,0:2|0:0,0:0:0:0:
454,243,131652,1,8,0:2:0:0:
482,171,131819,1,0,0:0:0:0:
342,129,131986,5,8,0:3:0:0:
342,129,132152,1,8,0:3:0:0:
364,225,132319,1,0,0:0:0:0:
237,314,132486,5,8,0:2:0:0:
271,192,132652,1,8,0:3:0:0:
344,356,132819,5,4,2:3:0:0:
344,356,132986,1,4,2:3:0:0:
339,328,133152,1,0,1:2:0:0:
339,328,133319,1,0,1:2:0:0:
317,349,133486,1,0,1:2:0:0:
317,349,133652,1,0,1:2:0:0:
430,330,133819,6,0,P|473:322|516:318,1,68.8,8|0,0:2|0:0,0:0:0:0:
279,211,134152,6,0,P|318:217|380:227,1,86,2|0,0:1|0:0,0:0:0:0:
148,352,134652,5,8,0:3:0:0:
96,211,134819,1,8,0:3:0:0:
36,263,134986,1,0,0:0:0:0:
197,287,135152,5,8,0:2:0:0:
254,128,135319,1,8,0:3:0:0:
141,81,135486,5,4,2:3:0:0:
175,187,135652,1,4,2:3:0:0:
321,44,135819,5,0,1:2:0:0:
300,32,135986,1,0,1:2:0:0:
284,51,136152,1,0,1:2:0:0:
309,65,136319,1,0,1:2:0:0:
126,45,136486,6,0,P|70:54|26:62,1,86,8|0,0:2|0:0,0:0:0:0:
242,197,136986,6,0,P|190:188|160:185,1,68.8,8|0,0:2|0:0,0:0:0:0:
397,64,137319,5,8,0:3:0:0:
227,113,137486,1,8,0:3:0:0:
227,113,137652,1,0,0:0:0:0:
440,177,137819,5,8,0:2:0:0:
314,144,137986,1,8,0:3:0:0:
209,289,138152,5,4,2:3:0:0:
311,261,138319,1,4,2:3:0:0:
158,186,138486,5,0,1:2:0:0:
137,176,138652,1,0,1:2:0:0:
119,219,138819,1,0,1:2:0:0:
147,209,138986,1,0,1:2:0:0:
333,284,139152,6,0,L|438:298,1,103.2,8|0,0:2|0:0,0:0:0:0:
256,365,139819,5,0,0:0:0:0:
452,305,139986,1,8,0:3:0:0:
375,209,140152,5,8,0:3:0:0:
274,169,140319,1,8,0:2:0:0:
274,169,140402,1,8,0:2:0:0:
274,169,140486,1,8,0:2:0:0:
243,85,140652,5,8,0:3:0:0:
415,31,140819,1,4,0:3:0:0:
422,54,140986,1,8,0:3:0:0:
381,190,141152,5,4,1:2:0:0:
443,138,141319,1,0,1:2:0:0:
373,165,141486,1,0,1:2:0:0:
452,166,141652,1,0,1:2:0:0:
252,73,141819,6,0,L|158:59,1,86,8|0,0:2|0:0,0:0:0:0:
33,209,142319,1,8,0:2:0:0:
47,135,142486,1,0,0:0:0:0:
189,195,142652,5,8,0:3:0:0:
153,307,142819,1,8,0:3:0:0:
220,343,142986,1,0,0:0:0:0:
278,185,143152,5,8,0:2:0:0:
108,237,143319,1,8,0:3:0:0:
199,164,143486,5,4,2:3:0:0:
297,212,143652,1,4,2:3:0:0:
446,116,143819,5,0,1:2:0:0:
376,92,143986,1,0,1:2:0:0:
355,115,144152,1,0,1:2:0:0:
425,146,144319,1,0,1:2:0:0:
372,382,144486,6,0,P|363:296|360:269,1,103.2,8|0,0:2|0:0,0:0:0:0:
442,233,145152,5,0,0:0:0:0:
259,323,145319,1,8,0:3:0:0:
282,233,145486,5,8,0:3:0:0:
447,320,145652,1,0,0:0:0:0:
361,279,145819,5,8,0:2:0:0:
336,384,145986,1,8,0:3:0:0:
205,252,146152,5,4,2:3:0:0:
220,330,146319,1,4,2:3:0:0:
72,384,146486,5,0,1:2:0:0:
133,333,146652,1,0,1:2:0:0:
72,284,146819,1,0,1:2:0:0:
5,329,146986,1,0,1:2:0:0:
178,227,147152,6,0,P|167:155|165:129,1,86,8|0,0:2|0:0,0:0:0:0:
19,45,147652,1,8,0:2:0:0:
93,64,147819,1,0,0:0:0:0:
88,221,147986,5,8,0:3:0:0:
253,141,148152,1,8,0:3:0:0:
253,141,148319,1,0,0:0:0:0:
140,134,148486,5,8,0:2:0:0:
282,276,148652,1,8,0:3:0:0:
416,130,148819,6,0,P|423:87|431:45,1,86,4|4,2:3|1:2,0:0:0:0:
256,192,149236,12,0,151152,0:0:0:0:
413,17,157152,6,0,B|496:38|496:38|475:135,1,180.599994488526,6|0,3:2|0:2,0:0:0:0:
475,130,157486,1,8,0:2:0:0:
349,329,157652,1,0,0:2:0:0:
339,307,157736,1,2,0:0:0:0:
345,284,157819,1,2,3:2:0:0:
456,228,157986,1,0,3:2:0:0:
278,70,158152,2,0,P|317:85|375:98,1,94.600002886963,8|8,0:2|0:2,0:0:0:0:
254,311,158486,2,0,P|293:296|351:283,1,94.600002886963,2|0,3:2|3:2,0:0:0:0:
129,154,158819,6,0,B|213:158|188:189|263:197,1,141.900004330444,10|0,0:2|0:0,0:0:0:0:
276,179,159152,2,0,P|228:199|178:218,1,94.600002886963,2|0,3:2|3:2,0:0:0:0:
366,16,159486,2,0,P|383:60|401:103,1,94.600002886963,10|8,0:2|0:2,0:0:0:0:
340,384,159819,6,0,P|315:310|384:263,1,141.900004330444,2|0,3:2|0:2,0:0:0:0:
377,257,160152,2,0,L|478:282,1,94.600002886963,8|0,0:2|0:2,0:0:0:0:
287,165,160486,1,0,3:2:0:0:
493,52,160652,1,0,3:2:0:0:
413,146,160819,5,10,0:2:0:0:
347,30,160986,1,0,0:2:0:0:
188,214,161152,5,14,0:1:0:0:
232,66,161319,1,0,3:2:0:0:
426,116,161486,5,14,0:1:0:0:
284,187,161652,1,0,3:2:0:0:
93,186,161819,5,14,0:1:0:0:
277,331,161986,2,0,L|291:275,1,47.3000014434815,0|0,3:2|3:0,0:0:0:0:
204,175,162152,1,8,0:1:0:0:
192,203,162236,1,8,0:1:0:0:
194,236,162319,1,8,0:1:0:0:
183,267,162402,1,8,0:1:0:0:
170,309,162486,6,0,B|225:306|287:266|287:266|322:293|295:339,1,180.599994488526,6|0,3:2|0:2,0:0:0:0:
386,356,162819,2,0,L|495:369,1,94.600002886963,8|0,0:2|0:2,0:0:0:0:
342,85,163152,1,2,3:2:0:0:
219,199,163319,1,0,3:2:0:0:
410,276,163486,2,0,P|439:217|417:175,1,94.600002886963,8|8,0:2|0:2,0:0:0:0:
212,85,163819,6,0,B|153:83|137:123|67:121,1,141.900004330444,2|0,3:2|0:0,0:0:0:0:
76,121,164152,2,0,P|88:64|90:16,1,94.600002886963,10|0,0:2|0:2,0:0:0:0:
183,267,164486,2,0,P|126:255|78:253,1,94.600002886963,2|0,3:2|3:2,0:0:0:0:
339,74,164819,2,0,P|327:131|325:179,1,94.600002886963,10|8,0:2|0:2,0:0:0:0:
324,167,165069,1,8,0:0:0:0:
324,167,165152,6,0,P|389:178|468:82,1,189.200005773926,2|8,3:2|0:2,0:0:0:0:
402,0,165652,1,0,0:2:0:0:
242,200,165819,1,0,3:2:0:0:
370,94,165986,1,0,3:2:0:0:
115,21,166152,1,10,0:2:0:0:
115,21,166236,2,0,P|157:33|219:47,1,94.600002886963,2|0,0:0|0:0,0:0:0:0:
237,38,166486,5,2,3:2:0:0:
151,141,166652,1,0,3:2:0:0:
309,249,166819,5,10,0:2:0:0:
234,119,166986,1,8,0:2:0:0:
120,344,167152,5,8,0:3:0:0:
209,194,167319,1,8,0:3:0:0:
59,232,167486,6,0,P|78:244|115:252,1,55.8999974411012,8|8,0:1|0:1,0:0:0:0:
206,340,167652,2,0,P|225:327|261:320,1,55.8999974411012,8|8,0:1|0:1,0:0:0:0:
343,260,167819,6,0,P|434:276|413:382,1,180.599994488526,6|0,3:2|0:2,0:0:0:0:
361,274,168152,2,0,L|385:160,1,94.600002886963,8|0,0:2|0:2,0:0:0:0:
337,58,168486,5,2,3:2:0:0:
467,152,168652,1,0,3:2:0:0:
438,77,168819,1,8,0:2:0:0:
295,165,168986,1,8,0:2:0:0:
512,30,169152,6,0,P|468:45|415:58,1,94.600002886963,2|0,3:2|3:2,0:0:0:0:
204,139,169486,2,0,P|252:154|305:167,1,94.600002886963,10|0,0:2|0:2,0:0:0:0:
451,269,169819,2,0,P|476:226|454:170,1,94.600002886963,2|0,3:2|3:2,0:0:0:0:
279,54,170152,1,10,0:2:0:0:
198,283,170319,2,0,P|212:260|222:224,1,47.3000014434815,8|8,0:2|0:0,0:0:0:0:
295,145,170486,6,0,B|198:123|212:196|93:164,2,189.200005773926,2|8|0,3:2|0:2|3:2,0:0:0:0:
117,256,171319,1,0,3:2:0:0:
273,384,171486,2,0,B|295:341|295:341|285:289,1,94.600002886963,10|0,0:2|0:2,0:0:0:0:
200,121,171819,5,14,0:1:0:0:
339,176,171986,1,0,3:2:0:0:
180,205,172152,5,14,0:1:0:0:
327,85,172319,1,0,3:2:0:0:
113,94,172486,5,8,0:0:0:0:
113,94,172597,2,0,B|133:98|133:98|152:94|152:94|175:101,1,63.0666685913087,10|8,0:2|0:2,0:0:0:0:
370,196,172819,5,8,0:3:0:0:
370,196,172930,2,0,B|350:199|350:199|331:195|331:195|308:202,1,63.0666685913087,8|8,0:3|0:3,0:0:0:0:
197,220,173152,5,6,1:2:0:0:
114,367,173319,1,8,0:2:0:0:
103,289,173486,2,0,P|144:298|187:305,1,86,0|0,1:2|1:2,0:0:0:0:
399,103,173819,2,0,B|316:99|341:167|234:160,1,172,10|0,0:2|1:2,0:0:0:0:
93,73,174319,5,8,0:2:0:0:
84,53,174402,1,8,0:2:0:0:
89,32,174486,1,2,1:2:0:0:
261,80,174652,1,8,0:2:0:0:
261,80,174819,1,2,1:2:0:0:
140,366,175152,5,10,0:2:0:0:
94,189,175319,1,0,1:2:0:0:
140,366,175486,6,0,B|161:261,1,90.2999972442628,12|0,0:1|0:0,0:0:0:0:
237,240,175819,6,0,B|150:238|161:294|49:280,1,180.599994488526,6|0,3:2|0:0,0:0:0:0:
54,262,176152,1,8,0:2:0:0:
237,377,176319,1,0,0:0:0:0:
250,357,176402,1,2,0:0:0:0:
246,333,176486,1,0,3:2:0:0:
158,278,176652,1,0,3:2:0:0:
351,189,176819,1,8,0:2:0:0:
139,93,176986,1,0,0:2:0:0:
282,48,177152,5,8,0:3:0:0:
87,193,177319,1,8,0:3:0:0:
106,178,177402,1,8,0:3:0:0:
129,175,177486,1,8,0:1:0:0:
74,34,177652,6,0,P|98:53|139:66,1,55.8999974411012,8|8,0:1|0:1,0:0:0:0:
273,160,177819,1,8,0:3:0:0:
273,160,177902,1,8,0:3:0:0:
273,160,177986,2,0,P|312:143|360:151,1,55.8999974411012,8|8,0:3|0:3,0:0:0:0:
499,52,178152,1,8,0:1:0:0:
310,44,178319,6,0,L|376:57,1,55.8999974411012,8|8,0:1|0:1,0:0:0:0:
512,157,178486,2,0,B|463:150|430:134|430:134|423:182|405:227,1,180.599994488526,6|0,3:2|0:2,0:0:0:0:
405,225,178819,1,8,0:2:0:0:
248,380,178986,1,0,0:2:0:0:
237,358,179069,1,2,0:0:0:0:
246,336,179152,1,2,3:2:0:0:
119,277,179319,1,0,3:2:0:0:
329,157,179486,2,0,P|259:195|177:202,1,141.900004330444,8|8,0:2|0:2,0:0:0:0:
179,192,179819,5,2,3:2:0:0:
333,350,179986,2,0,L|350:271,1,47.3000014434815,0|0,3:2|3:0,0:0:0:0:
326,278,180152,2,0,B|436:281|398:343|500:352,1,189.200005773926,10|2,0:2|3:2,0:0:0:0:
386,209,180652,1,0,3:2:0:0:
246,336,180819,1,10,0:2:0:0:
512,163,180986,5,8,0:2:0:0:
512,163,181069,1,8,0:0:0:0:
512,163,181152,2,0,L|371:188,1,141.900004330444,2|0,3:2|3:2,0:0:0:0:
294,124,181486,2,0,P|336:85|378:89,1,94.600002886963,8|8,0:2|0:2,0:0:0:0:
247,31,181819,5,0,3:2:0:0:
433,144,181986,1,0,3:2:0:0:
204,262,182152,2,0,B|130:256|155:221|70:211,1,141.900004330444,10|0,0:2|0:0,0:0:0:0:
5,256,182486,5,14,0:1:0:0:
122,87,182652,1,0,3:2:0:0:
123,335,182819,5,14,0:1:0:0:
30,138,182986,1,0,3:2:0:0:
204,262,183152,5,8,0:3:0:0:
248,279,183236,1,8,0:3:0:0:
294,269,183319,1,8,0:3:0:0:
327,236,183402,1,8,0:3:0:0:
362,204,183486,1,8,0:1:0:0:
405,186,183569,1,8,0:1:0:0:
451,192,183652,1,8,0:1:0:0:
487,222,183736,1,8,0:1:0:0:
468,245,183819,6,0,B|453:181|453:181|478:141|478:141|458:61,1,180.599994488526,6|0,3:2|0:2,0:0:0:0:
461,75,184152,1,8,0:2:0:0:
322,321,184319,2,0,L|339:234,2,47.3000014434815,0|2|2,0:2|0:0|3:2,0:0:0:0:
230,115,184652,2,0,B|268:123|268:123|282:138|282:138|331:150,1,94.600002886963,0|8,3:2|0:2,0:0:0:0:
44,294,184986,1,8,0:2:0:0:
44,294,185069,1,8,0:2:0:0:
44,294,185152,6,0,P|86:245|218:248,1,189.200005773926,2|10,3:2|0:2,0:0:0:0:
31,144,185652,1,0,0:2:0:0:
132,16,185819,2,0,P|135:59|145:120,1,94.600002886963,2|0,3:2|3:2,0:0:0:0:
255,378,186152,2,0,P|258:335|298:293,1,94.600002886963,10|8,0:2|0:2,0:0:0:0:
290,296,186402,1,8,0:0:0:0:
290,296,186486,6,0,L|167:312,1,94.600002886963,2|0,3:2|0:2,0:0:0:0:
379,106,186819,1,8,0:2:0:0:
502,192,186986,1,2,0:2:0:0:
512,170,187069,1,2,0:0:0:0:
508,146,187152,1,0,3:2:0:0:
323,216,187319,1,0,3:2:0:0:
423,377,187486,2,0,B|430:337|430:337|423:319|423:319|435:274,1,94.600002886963,10|8,0:2|0:2,0:0:0:0:
283,41,187819,5,8,0:3:0:0:
412,90,187986,1,8,0:3:0:0:
386,19,188152,5,8,0:1:0:0:
224,116,188319,1,8,0:1:0:0:
268,189,188486,5,8,0:3:0:0:
299,0,188652,1,8,0:3:0:0:
187,35,188819,5,8,0:1:0:0:
379,195,188986,1,8,0:1:0:0:
379,195,189069,1,8,0:1:0:0:
379,195,189152,6,0,B|422:202|461:166|461:166|461:222|511:254,1,180.599994488526,6|0,3:2|0:2,0:0:0:0:
386,112,189486,2,0,L|302:126,1,60.1999981628419,8|2,0:2|0:0,0:0:0:0:
188,257,189652,1,4,3:0:0:0:
188,257,189736,1,8,3:0:0:0:
188,257,189819,1,2,3:2:0:0:
291,208,189986,2,0,B|237:197|256:182|200:171,1,94.600002886963,0|8,3:2|0:2,0:0:0:0:
204,171,190319,1,8,0:2:0:0:
34,74,190486,6,0,L|197:48,1,141.900004330444,2|0,3:2|0:0,0:0:0:0:
176,25,190819,2,0,P|217:42|276:51,1,94.600002886963,10|0,0:2|0:2,0:0:0:0:
60,245,191152,2,0,P|77:204|86:145,1,94.600002886963,2|0,3:2|3:2,0:0:0:0:
267,374,191486,2,0,P|226:357|167:348,1,94.600002886963,10|8,0:2|0:2,0:0:0:0:
145,354,191736,1,8,0:0:0:0:
145,354,191819,6,0,P|191:296|324:307,1,189.200005773926,2|8,3:2|0:2,0:0:0:0:
437,200,192319,1,8,0:2:0:0:
332,142,192486,2,0,L|213:122,1,94.600002886963,0|0,3:2|3:2,0:0:0:0:
401,74,192819,5,10,0:2:0:0:
212,152,192986,1,8,0:2:0:0:
254,43,193152,5,14,0:1:0:0:
332,142,193319,1,0,3:2:0:0:
342,0,193486,5,14,0:1:0:0:
211,44,193652,1,0,3:2:0:0:
461,147,193819,5,14,0:1:0:0:
376,6,193986,1,0,3:2:0:0:
285,239,194152,6,0,P|277:286|266:333,1,86,14|6,0:1|3:2,0:0:0:0:
256,192,194569,12,8,196819,0:0:0:0:
478,357,197152,6,0,B|387:345|432:297|320:284,1,172,2|8,3:2|0:2,0:0:0:0:
487,155,197652,2,0,L|477:102,2,43,0|2|0,0:0|0:0|3:0,0:0:0:0:
396,210,197986,2,0,P|350:198|284:188,1,86,0|8,3:2|0:2,0:0:0:0:
146,38,198319,1,8,0:2:0:0:
276,103,198486,5,2,3:2:0:0:
328,44,198652,1,0,3:2:0:0:
244,81,198819,1,10,0:2:0:0:
327,169,198986,1,0,0:2:0:0:
184,259,199152,1,0,3:2:0:0:
159,156,199319,6,0,P|182:167|227:181,2,43,0|8|8,3:2|3:0|0:2,0:0:0:0:
22,342,199652,1,8,0:2:0:0:
22,342,199736,1,8,0:2:0:0:
22,342,199819,2,0,P|85:352|168:288,1,172,6|8,3:2|0:2,0:0:0:0:
136,148,200319,1,2,0:0:0:0:
0,254,200486,6,0,P|42:238|85:228,1,86,0|0,3:2|3:2,0:0:0:0:
230,133,200819,1,8,0:2:0:0:
75,33,200986,1,8,0:2:0:0:
37,124,201152,6,0,P|95:129|172:42,1,172,2|10,3:2|0:2,0:0:0:0:
267,0,201652,1,0,0:2:0:0:
391,76,201819,2,0,P|448:63|483:60,1,86,0|0,3:2|3:2,0:0:0:0:
258,240,202152,2,0,P|238:209|259:153,1,86,8|8,0:2|0:2,0:0:0:0:
468,30,202486,5,14,0:1:0:0:
362,94,202652,1,0,3:0:0:0:
507,191,202819,5,14,0:1:0:0:
339,108,202986,1,0,3:0:0:0:
387,313,203152,5,14,0:1:0:0:
312,100,203319,1,0,3:0:0:0:
213,352,203486,5,14,0:1:0:0:
390,187,203652,1,0,3:0:0:0:
401,205,203736,1,0,3:0:0:0:
395,225,203819,5,14,0:1:0:0:
334,77,203986,1,0,3:0:0:0:
109,256,204152,5,14,0:1:0:0:
226,82,204319,1,0,3:0:0:0:
226,82,204402,1,0,3:0:0:0:
226,82,204486,1,8,0:0:0:0:
304,275,204652,5,8,0:3:0:0:
235,182,204819,2,0,L|165:169,1,64.5000024604798,8|0,3:0|0:0,0:0:0:0:
0,221,205152,5,6,1:2:0:0:
