osu file format v14

[General]
AudioFilename: audio.mp3
AudioLeadIn: 0
PreviewTime: 986
Countdown: 0
SampleSet: Soft
StackLeniency: 0.7
Mode: 0
LetterboxInBreaks: 0
WidescreenStoryboard: 1

[Editor]
DistanceSpacing: 0.5
BeatDivisor: 4
GridSize: 32
TimelineZoom: 1.6

[Metadata]
Title:Unbreakable
TitleUnicode:Unbreakable
Artist:Marie
ArtistUnicode:真理絵
Creator:Lasse
Version:Insane
Source:
Tags:kalibe dastinia meis clauson yuiko the root of heads yuikonnu ゆいこんぬ primary
BeatmapID:1695942
BeatmapSetID:808148

[Difficulty]
HPDrainRate:5
CircleSize:4
OverallDifficulty:7.8
ApproachRate:8.7
SliderMultiplier:1.6
SliderTickRate:1

[Events]
//Background and Video events
0,0,"b.jpg",0,0
//Break Periods
2,151819,156507
//Storyboard Layer 0 (Background)
//Storyboard Layer 1 (Fail)
//Storyboard Layer 2 (Pass)
//Storyboard Layer 3 (Foreground)
//Storyboard Sound Samples

[TimingPoints]
1153,333.333333333333,4,2,1,30,1,0
1153,-200,4,2,1,30,0,0
11152,-222.222222222222,4,2,1,40,0,0
11236,-222.222222222222,4,2,1,5,0,0
12819,-66.6666666666667,4,2,1,70,0,0
13152,-100,4,2,1,70,0,0
23819,-125,4,2,1,70,0,0
24152,-125,4,2,1,60,0,0
31486,-200,4,2,1,60,0,0
31736,-200,4,2,99,5,0,0
31819,-125,4,2,1,60,0,0
42152,-200,4,2,1,60,0,0
42402,-200,4,2,99,5,0,0
42486,-125,4,2,1,60,0,0
43819,-125,4,2,1,65,0,0
44486,-125,4,2,1,60,0,0
45152,-125,4,2,1,55,0,0
50486,-90.9090909090909,4,2,1,80,0,1
50736,-83.3333333333333,4,2,1,50,0,1
50819,-90.9090909090909,4,2,1,80,0,1
51819,-90.9090909090909,4,2,2,80,0,1
53236,-90.9090909090909,4,2,1,80,0,1
55736,-90.9090909090909,4,2,1,80,0,0
55819,-90.9090909090909,4,2,1,80,0,1
56069,-83.3333333333333,4,2,1,50,0,1
56152,-90.9090909090909,4,2,1,80,0,1
57152,-90.9090909090909,4,2,2,80,0,1
58569,-90.9090909090909,4,2,1,80,0,1
61069,-90.9090909090909,4,2,1,80,0,0
61152,-90.9090909090909,4,2,1,80,0,1
61402,-83.3333333333333,4,2,1,50,0,1
61486,-90.9090909090909,4,2,1,80,0,1
62486,-90.9090909090909,4,2,2,80,0,1
63902,-90.9090909090909,4,2,1,80,0,1
66402,-90.9090909090909,4,2,1,80,0,0
66486,-90.9090909090909,4,2,1,80,0,1
66736,-83.3333333333333,4,2,1,50,0,1
66819,-90.9090909090909,4,2,1,80,0,1
67819,-90.9090909090909,4,2,2,80,0,1
69236,-90.9090909090909,4,2,1,80,0,1
71486,-200,4,2,1,80,0,1
71819,-100,4,2,1,70,0,0
82486,-125,4,2,1,70,0,0
82819,-125,4,2,1,60,0,0
90152,-200,4,2,1,60,0,0
90402,-200,4,2,99,5,0,0
90486,-125,4,2,1,60,0,0
100819,-200,4,2,1,60,0,0
101069,-200,4,2,99,5,0,0
101152,-125,4,2,1,60,0,0
102486,-125,4,2,1,65,0,0
103152,-125,4,2,1,60,0,0
103819,-125,4,2,1,55,0,0
108319,-125,4,2,1,60,0,0
109152,-83.3333333333333,4,2,1,80,0,1
109402,-83.3333333333333,4,2,1,50,0,1
109486,-83.3333333333333,4,2,1,80,0,1
110486,-83.3333333333333,4,2,2,80,0,1
111902,-83.3333333333333,4,2,1,80,0,1
114402,-83.3333333333333,4,2,1,80,0,0
114486,-83.3333333333333,4,2,1,80,0,1
114736,-83.3333333333333,4,2,1,50,0,1
114819,-83.3333333333333,4,2,1,80,0,1
115819,-83.3333333333333,4,2,2,80,0,1
117235,-83.3333333333333,4,2,1,80,0,1
119736,-83.3333333333333,4,2,1,80,0,0
119819,-83.3333333333333,4,2,1,80,0,1
120069,-83.3333333333333,4,2,1,50,0,1
120152,-83.3333333333333,4,2,1,80,0,1
121152,-83.3333333333333,4,2,2,80,0,1
122568,-83.3333333333333,4,2,1,80,0,1
125069,-83.3333333333333,4,2,1,80,0,0
125152,-83.3333333333333,4,2,1,80,0,1
125402,-83.3333333333333,4,2,1,50,0,1
125486,-83.3333333333333,4,2,1,80,0,1
126486,-83.3333333333333,4,2,2,80,0,1
127902,-83.3333333333333,4,2,1,80,0,1
130152,-200,4,2,1,80,0,1
130486,-125,4,2,1,60,0,0
149152,-138.888888888889,4,2,1,60,0,0
149236,-142.857142857143,4,2,1,5,0,0
151152,-142.857142857143,4,2,99,5,0,0
157152,-76.9230769230769,4,2,1,80,0,1
157402,-83.3333333333333,4,2,1,50,0,1
157486,-76.9230769230769,4,2,1,80,0,1
158486,-76.9230769230769,4,2,2,80,0,1
159902,-76.9230769230769,4,2,1,80,0,1
162402,-76.9230769230769,4,2,1,80,0,0
162486,-76.9230769230769,4,2,1,80,0,1
162736,-83.3333333333333,4,2,1,50,0,1
162819,-76.9230769230769,4,2,1,80,0,1
163819,-76.9230769230769,4,2,2,80,0,1
165235,-76.9230769230769,4,2,1,80,0,1
167819,-76.9230769230769,4,2,1,80,0,1
168069,-83.3333333333333,4,2,1,50,0,1
168152,-76.9230769230769,4,2,1,80,0,1
169152,-76.9230769230769,4,2,2,80,0,1
170568,-76.9230769230769,4,2,1,80,0,1
173152,-100,4,2,1,70,0,0
175819,-86.9565217391304,4,2,1,75,0,1
178402,-86.9565217391304,4,2,1,75,0,0
178486,-76.9230769230769,4,2,1,80,0,1
178736,-83.3333333333333,4,2,1,50,0,1
178819,-76.9230769230769,4,2,1,80,0,1
179819,-76.9230769230769,4,2,2,80,0,1
181236,-76.9230769230769,4,2,1,80,0,1
183736,-76.9230769230769,4,2,1,80,0,0
183819,-76.9230769230769,4,2,1,80,0,1
184069,-83.3333333333333,4,2,1,50,0,1
184152,-76.9230769230769,4,2,1,80,0,1
185152,-76.9230769230769,4,2,2,80,0,1
186569,-76.9230769230769,4,2,1,80,0,1
189069,-76.9230769230769,4,2,1,80,0,0
189152,-76.9230769230769,4,2,1,80,0,1
189402,-83.3333333333333,4,2,1,50,0,1
189486,-76.9230769230769,4,2,1,80,0,1
190486,-76.9230769230769,4,2,2,80,0,1
191903,-76.9230769230769,4,2,1,80,0,1
194486,-100,4,2,1,70,0,0
202486,-76.9230769230769,4,2,1,80,0,1
204486,-76.9230769230769,4,2,1,75,0,0
204652,-100,4,2,1,70,0,0
204819,-100,4,2,1,65,0,0
205152,-100,4,2,1,75,0,0

[Colours]
Combo1 : 255,160,160
Combo2 : 165,200,240
Combo3 : 255,185,150
Combo4 : 255,230,140

[HitObjects]
0,121,1153,6,0,B|85:125|45:189|134:193,1,160,2|0,0:2|0:2,0:0:0:0:
134,193,2486,2,0,L|144:101,1,80,2|0,0:2|0:2,0:0:0:0:
198,55,3152,2,0,P|230:44|284:51,1,80,2|0,0:2|0:2,0:0:0:0:
342,92,3819,2,0,L|352:257,1,160,2|0,0:2|0:2,0:0:0:0:
403,312,4819,2,0,P|442:325|490:309,2,80,2|0|0,0:2|0:2|0:2,0:0:0:0:
352,252,5819,2,0,P|313:239|265:255,1,80,2|0,0:2|0:2,0:0:0:0:
235,343,6486,6,0,L|220:174,1,160,2|0,0:2|0:2,0:0:0:0:
221,183,7819,2,0,P|183:164|142:163,1,80,2|0,0:2|0:2,0:0:0:0:
77,205,8486,2,0,L|56:289,1,80,2|0,0:2|0:2,0:0:0:0:
116,336,9152,2,0,B|207:322|183:367|274:355,1,160,2|0,0:2|0:2,0:0:0:0:
319,291,10152,2,0,L|312:200,2,80,2|0|0,0:2|0:2|0:2,0:0:0:0:
386,359,11152,6,0,B|418:348|452:349|445:363|476:363|500:347|500:347|455:302|431:216|474:188|474:188|490:223|479:253,1,359.999989013672,2|8,0:2|0:1,0:0:0:0:
480,249,13152,6,0,B|446:250|423:240|423:240|392:255|392:255|366:234|327:241,2,160,6|8|0,3:2|0:2|3:2,0:0:0:0:
480,249,13986,1,0,3:2:0:0:
391,169,14152,1,8,0:2:0:0:
344,315,14319,1,8,0:2:0:0:
253,212,14486,6,0,L|248:124,1,80,2|0,3:2|3:2,0:0:0:0:
175,288,14819,2,0,L|165:374,1,80,10|0,0:2|0:2,0:0:0:0:
103,192,15152,1,0,3:2:0:0:
103,192,15319,1,0,3:2:0:0:
253,212,15486,1,8,0:2:0:0:
175,288,15652,1,8,0:2:0:0:
103,192,15819,6,0,B|82:163|103:116|103:116|103:56|45:46,2,160,2|8|0,3:2|0:2|3:2,0:0:0:0:
103,192,16652,1,0,3:2:0:0:
22,116,16819,1,8,0:2:0:0:
165,46,16986,1,8,0:2:0:0:
229,161,17152,6,0,P|267:172|306:165,1,80,2|0,3:2|3:2,0:0:0:0:
165,46,17486,2,0,P|126:34|87:41,1,80,10|0,0:2|0:2,0:0:0:0:
8,138,17819,1,0,3:2:0:0:
8,138,17986,1,0,3:2:0:0:
88,40,18152,1,8,0:2:0:0:
103,192,18319,1,8,0:2:0:0:
105,211,18402,1,8,0:2:0:0:
108,230,18486,6,0,B|152:240|172:272|172:272|204:237|251:238,2,160,6|8|0,3:2|0:2|3:2,0:0:0:0:
108,230,19319,1,0,3:2:0:0:
180,175,19486,1,8,0:2:0:0:
238,317,19652,1,8,0:2:0:0:
320,219,19819,6,0,L|331:123,1,80,2|0,3:2|3:2,0:0:0:0:
180,175,20152,2,0,L|173:92,1,80,10|0,0:2|0:2,0:0:0:0:
339,55,20486,1,0,3:2:0:0:
339,55,20652,1,0,3:2:0:0:
219,26,20819,1,8,0:2:0:0:
329,139,20986,1,8,0:2:0:0:
180,175,21152,6,0,B|127:177|127:177|75:149|75:149|27:155,2,160,2|8|0,3:2|0:2|3:2,0:0:0:0:
180,175,21986,1,0,3:2:0:0:
58,226,22152,1,8,0:2:0:0:
146,99,22319,1,8,0:2:0:0:
233,247,22486,6,0,P|277:258|319:249,1,80,2|0,3:2|3:2,0:0:0:0:
406,144,22819,2,0,P|362:133|320:142,1,80,10|0,0:0|0:0,0:0:0:0:
413,258,23152,5,8,0:1:0:0:
422,260,23236,1,8,0:1:0:0:
432,263,23319,1,8,0:1:0:0:
441,266,23402,1,8,0:1:0:0:
451,269,23486,2,0,P|474:255|492:228,3,40,8|8|8|8,0:1|0:1|0:1|0:1,0:0:0:0:
505,170,23819,5,4,3:2:0:0:
427,354,24152,6,0,L|359:344,1,64,10|0,0:2|3:2,0:0:0:0:
264,374,24486,1,2,3:2:0:0:
264,374,24652,2,0,L|259:238,1,128,8|0,0:2|3:2,0:0:0:0:
165,168,25152,6,0,P|100:191|55:155,1,128,2|8,3:2|0:2,0:0:0:0:
0,59,25652,1,2,0:2:0:0:
0,59,25819,2,0,P|26:70|74:66,1,64,0|0,3:2|3:2,0:0:0:0:
169,79,26152,2,0,P|117:45|60:69,1,128,10|0,0:2|3:2,0:0:0:0:
13,238,26819,6,0,L|16:327,1,64,10|0,0:2|3:2,0:0:0:0:
100,359,27152,1,2,3:2:0:0:
100,359,27319,2,0,P|145:311|206:314,1,128,8|0,0:2|3:2,0:0:0:0:
313,374,27819,6,0,L|318:245,1,128,2|8,3:2|0:2,0:0:0:0:
400,185,28319,1,2,0:2:0:0:
400,185,28486,2,0,P|432:194|462:187,1,64,2|0,3:2|0:2,0:0:0:0:
512,100,28819,2,0,L|493:31,1,64,10|0,0:2|0:2,0:0:0:0:
372,11,29152,6,0,L|365:86,1,64,2|0,0:2|3:2,0:0:0:0:
320,137,29486,2,0,L|313:212,1,64,8|0,0:2|3:2,0:0:0:0:
263,262,29819,5,2,0:2:0:0:
237,175,29986,1,8,0:2:0:0:
175,242,30152,1,0,3:2:0:0:
175,242,30319,1,0,3:2:0:0:
237,175,30486,6,0,L|223:43,1,128,2|10,3:2|0:2,0:0:0:0:
136,24,30986,1,0,0:2:0:0:
136,24,31152,2,0,L|121:95,1,64,2|0,3:2|3:2,0:0:0:0:
47,106,31486,6,0,L|54:176,1,60,10|0,0:2|0:2,0:0:0:0:
52,165,31819,6,0,B|117:159|94:214|184:198,1,128,2|8,3:2|0:2,0:0:0:0:
258,145,32319,1,2,3:2:0:0:
258,145,32486,2,0,L|261:81,1,64,0|8,3:2|0:2,0:0:0:0:
358,47,32819,2,0,L|366:115,1,64,2|0,3:2|3:2,0:0:0:0:
466,125,33152,2,0,L|470:62,1,64,0|0,3:2|3:2,0:0:0:0:
407,200,33486,5,10,0:2:0:0:
407,200,33652,1,0,3:2:0:0:
365,110,33819,1,0,3:2:0:0:
315,229,33986,1,2,3:2:0:0:
151,23,34486,5,6,3:2:0:0:
151,23,34652,1,2,3:2:0:0:
75,92,34819,6,0,L|69:174,1,64,10|0,0:2|3:2,0:0:0:0:
28,249,35152,1,2,3:2:0:0:
28,249,35319,2,0,B|98:242|80:283|151:278,1,128,8|0,0:2|3:2,0:0:0:0:
230,191,35819,6,0,L|241:54,1,128,2|8,3:2|0:2,0:0:0:0:
330,20,36319,1,2,0:2:0:0:
330,20,36486,2,0,P|336:64|355:107,1,64,0|0,3:2|3:2,0:0:0:0:
452,102,36819,2,0,P|411:68|340:83,1,128,10|2,0:2|3:2,0:0:0:0:
293,252,37486,6,0,L|287:333,1,64,10|0,0:2|3:2,0:0:0:0:
205,376,37819,1,0,3:2:0:0:
205,376,37986,2,0,P|146:342|78:352,1,128,10|0,0:2|3:2,0:0:0:0:
0,266,38486,6,0,L|19:126,1,128,2|8,3:2|0:2,0:0:0:0:
97,75,38986,1,2,0:2:0:0:
97,75,39152,2,0,P|131:77|159:66,1,64,2|0,3:2|0:2,0:0:0:0:
255,30,39486,2,0,P|286:27|316:38,1,64,10|0,0:2|0:2,0:0:0:0:
419,116,39819,6,0,L|408:192,1,64,2|0,3:2|3:2,0:0:0:0:
451,255,40152,2,0,L|440:331,1,64,8|0,0:2|3:2,0:0:0:0:
360,363,40486,5,2,3:2:0:0:
321,289,40652,1,8,0:2:0:0:
278,361,40819,1,0,3:2:0:0:
278,361,40986,1,0,3:2:0:0:
321,289,41152,6,0,B|326:243|326:243|311:209|311:209|316:146,1,128,2|10,3:2|0:2,0:0:0:0:
265,82,41652,1,0,0:2:0:0:
265,82,41819,2,0,P|226:78|193:62,1,64,2|0,3:2|3:2,0:0:0:0:
93,119,42152,6,0,P|132:123|156:134,1,60,10|0,0:2|0:2,0:0:0:0:
150,131,42486,6,0,B|155:178|155:178|140:209|140:209|146:267,1,128,2|8,3:2|0:2,0:0:0:0:
208,335,42986,1,2,3:2:0:0:
208,335,43152,2,0,P|252:324|292:329,1,64,0|8,3:2|0:2,0:0:0:0:
144,255,43486,2,0,P|100:244|60:249,1,64,2|0,3:2|3:2,0:0:0:0:
222,163,43819,5,2,3:2:0:0:
289,222,43986,1,8,0:2:0:0:
306,134,44152,1,8,0:2:0:0:
306,134,44319,1,0,3:2:0:0:
240,76,44486,5,10,0:2:0:0:
222,163,44652,1,8,0:3:0:0:
289,222,44819,1,4,0:3:0:0:
373,193,44986,1,8,0:3:0:0:
306,134,45152,6,0,L|51:114,1,256,6|10,3:2|0:2,0:0:0:0:
3,287,46152,5,2,0:2:0:0:
165,209,46486,5,2,3:2:0:0:
165,209,46652,1,0,3:2:0:0:
165,209,46819,1,0,3:2:0:0:
277,348,47152,5,8,0:2:0:0:
306,263,47319,1,8,0:3:0:0:
365,330,47486,1,4,0:3:0:0:
365,330,47652,1,8,0:3:0:0:
399,240,47819,6,0,L|402:111,2,128,2|0|10,3:2|3:2|0:2,0:0:0:0:
224,281,48819,6,0,L|142:273,1,64,2|0,0:2|3:2,0:0:0:0:
335,233,49152,2,0,L|417:241,1,64,2|0,0:2|3:2,0:0:0:0:
238,161,49486,1,2,3:2:0:0:
29,22,50486,6,0,L|42:179,1,132.00000402832,6|0,3:2|0:2,0:0:0:0:
47,174,50819,2,0,P|84:195|125:184,1,88.000002685547,8|0,0:2|0:2,0:0:0:0:
210,94,51152,1,2,3:2:0:0:
210,94,51319,1,0,3:3:0:0:
126,183,51486,1,8,0:2:0:0:
184,292,51652,1,8,0:2:0:0:
283,201,51819,6,0,P|323:185|366:191,1,88.000002685547,2|0,3:2|3:2,0:0:0:0:
464,319,52152,2,0,P|424:335|381:329,1,88.000002685547,10|0,0:2|0:2,0:0:0:0:
284,169,52486,2,0,P|324:152|367:158,1,88.000002685547,2|0,3:2|3:2,0:0:0:0:
465,286,52819,2,0,P|424:302|381:296,1,88.000002685547,10|0,0:2|0:2,0:0:0:0:
272,136,53152,6,0,B|331:163|331:163|302:302,2,176.000005371094,2|8|0,3:2|0:2|3:2,0:0:0:0:
196,181,53986,1,0,3:2:0:0:
308,271,54152,2,0,L|406:263,1,88.000002685547,10|0,0:2|0:2,0:0:0:0:
496,135,54486,6,0,B|452:139|452:139|404:103,1,88.000002685547,2|0,3:2|3:2,0:0:0:0:
250,38,54819,2,0,B|294:34|294:34|342:70,1,88.000002685547,10|0,0:2|0:2,0:0:0:0:
200,184,55152,1,2,3:2:0:0:
200,184,55319,1,0,3:2:0:0:
115,93,55486,1,8,0:2:0:0:
23,174,55652,1,8,0:2:0:0:
19,195,55736,1,8,0:2:0:0:
19,216,55819,6,0,B|34:255|34:255|23:300|23:300|36:345,1,132.00000402832,6|0,3:2|0:2,0:0:0:0:
47,360,56152,2,0,P|98:355|130:318,1,88.000002685547,8|0,0:2|0:2,0:0:0:0:
144,208,56486,1,2,3:2:0:0:
144,208,56652,1,0,3:3:0:0:
268,190,56819,1,8,0:2:0:0:
323,304,56986,1,8,0:2:0:0:
405,190,57152,6,0,L|412:95,1,88.000002685547,2|0,3:2|3:2,0:0:0:0:
481,287,57486,2,0,L|474:382,1,88.000002685547,10|0,0:2|0:2,0:0:0:0:
375,189,57819,2,0,L|382:94,1,88.000002685547,2|0,3:2|3:2,0:0:0:0:
451,286,58152,2,0,L|444:381,1,88.000002685547,10|0,0:2|0:2,0:0:0:0:
280,201,58486,6,0,B|343:194|343:194|386:215|386:215|450:205,2,176.000005371094,2|8|0,3:2|0:2|3:2,0:0:0:0:
229,271,59319,1,0,3:2:0:0:
120,205,59486,2,0,L|117:115,1,88.000002685547,10|0,0:2|0:2,0:0:0:0:
236,0,59819,5,14,0:1:0:0:
259,103,59986,1,0,3:0:0:0:
316,19,60152,5,14,0:1:0:0:
283,119,60319,1,0,3:0:0:0:
374,74,60486,5,14,0:1:0:0:
295,144,60652,1,0,3:0:0:0:
396,150,60819,5,8,0:1:0:0:
398,160,60902,1,8,0:1:0:0:
400,171,60986,1,8,0:1:0:0:
402,182,61069,1,8,0:1:0:0:
404,193,61152,6,0,L|397:349,1,132.00000402832,6|0,3:2|0:2,0:0:0:0:
387,344,61486,2,0,P|347:356|295:324,1,88.000002685547,8|0,0:2|0:2,0:0:0:0:
238,235,61819,1,2,3:2:0:0:
238,235,61986,1,0,3:3:0:0:
184,346,62152,1,8,0:2:0:0:
306,338,62319,1,8,0:2:0:0:
225,216,62486,6,0,P|214:171|232:126,1,88.000002685547,2|0,3:2|3:2,0:0:0:0:
399,113,62819,2,0,P|413:155|402:197,1,88.000002685547,10|0,0:2|0:2,0:0:0:0:
190,213,63152,2,0,P|179:168|197:123,1,88.000002685547,2|0,3:2|3:2,0:0:0:0:
364,108,63486,2,0,P|377:149|366:191,1,88.000002685547,10|0,0:2|0:2,0:0:0:0:
152,214,63819,6,0,P|251:221|277:323,2,176.000005371094,2|8|0,3:2|0:2|3:2,0:0:0:0:
94,288,64652,1,0,3:2:0:0:
0,199,64819,2,0,L|16:98,1,88.000002685547,10|0,0:2|0:2,0:0:0:0:
164,42,65152,6,0,P|202:61|246:61,1,88.000002685547,2|0,3:2|3:2,0:0:0:0:
422,35,65486,2,0,P|383:15|339:15,1,88.000002685547,10|0,0:2|0:2,0:0:0:0:
290,145,65819,1,2,3:2:0:0:
290,145,65986,1,0,3:2:0:0:
413,138,66152,1,8,0:2:0:0:
493,230,66319,1,8,0:2:0:0:
497,251,66402,1,8,0:2:0:0:
500,272,66486,6,0,B|490:366|490:366|442:319,1,132.00000402832,6|0,3:2|0:2,0:0:0:0:
444,327,66819,2,0,B|407:303|407:303|348:323,1,88.000002685547,8|0,0:2|0:2,0:0:0:0:
250,364,67152,1,2,3:2:0:0:
250,364,67319,1,0,3:3:0:0:
365,317,67486,1,8,0:2:0:0:
329,199,67652,1,8,0:2:0:0:
200,250,67819,6,0,B|163:260|163:260|113:248,1,88.000002685547,2|0,3:2|3:2,0:0:0:0:
218,107,68152,2,0,B|255:97|255:97|305:109,1,88.000002685547,10|0,0:2|0:2,0:0:0:0:
199,284,68486,2,0,B|162:294|162:294|112:282,1,88.000002685547,2|0,3:2|3:2,0:0:0:0:
217,141,68819,2,0,B|254:131|254:131|304:143,1,88.000002685547,10|0,0:2|0:2,0:0:0:0:
211,314,69152,6,0,B|155:335|155:335|35:310,2,176.000005371094,2|8|0,3:2|0:2|3:2,0:0:0:0:
286,258,69986,1,0,3:2:0:0:
392,349,70152,2,0,B|435:367|435:367|480:349,1,88.000002685547,10|0,0:2|0:2,0:0:0:0:
508,197,70486,5,14,0:1:0:0:
437,280,70652,1,0,3:0:0:0:
472,171,70819,5,14,0:1:0:0:
369,207,70986,1,0,3:0:0:0:
453,130,71152,5,14,0:1:0:0:
346,109,71319,1,0,3:0:0:0:
415,16,71486,5,14,0:1:0:0:
415,16,71819,6,0,B|419:42|414:72|414:72|428:99|428:99|417:135|429:176,2,160,6|8|0,3:2|0:2|3:2,0:0:0:0:
415,16,72652,1,0,3:2:0:0:
349,120,72819,1,8,0:2:0:0:
273,26,72986,1,8,0:2:0:0:
214,138,73152,6,0,B|209:167|209:167|198:188|198:188|194:225,1,80,2|0,3:2|3:2,0:0:0:0:
66,159,73486,2,0,B|63:132|63:132|52:111|52:111|47:82,1,80,10|0,0:2|0:2,0:0:0:0:
168,22,73819,1,0,3:2:0:0:
168,22,73986,1,0,3:2:0:0:
214,138,74152,1,8,0:2:0:0:
273,26,74319,1,8,0:2:0:0:
360,157,74486,6,0,B|392:154|405:146|405:146|436:157|436:157|475:131|523:155,2,160,2|8|0,3:2|0:2|3:2,0:0:0:0:
360,157,75319,1,0,3:2:0:0:
432,72,75486,1,8,0:2:0:0:
481,218,75652,1,8,0:2:0:0:
327,236,75819,6,0,L|241:218,1,80,2|0,3:2|3:2,0:0:0:0:
171,108,76152,2,0,L|257:90,1,80,10|0,0:2|0:2,0:0:0:0:
146,253,76486,1,0,3:2:0:0:
146,253,76652,1,0,3:2:0:0:
65,152,76819,1,8,0:2:0:0:
21,270,76986,1,8,0:2:0:0:
23,289,77069,1,8,0:2:0:0:
26,308,77152,6,0,B|54:355|54:355|172:347,2,160,6|8|0,3:2|0:2|3:2,0:0:0:0:
26,308,77986,1,0,3:2:0:0:
131,250,78152,1,8,0:2:0:0:
234,309,78319,1,8,0:2:0:0:
334,218,78486,6,0,L|336:122,1,80,2|0,3:2|3:2,0:0:0:0:
438,290,78819,2,0,L|436:386,1,80,10|0,0:2|0:2,0:0:0:0:
512,192,79152,1,0,3:2:0:0:
512,192,79319,1,0,3:2:0:0:
438,290,79486,1,8,0:2:0:0:
334,218,79652,1,8,0:2:0:0:
234,309,79819,6,0,B|58:299,2,160,2|8|0,3:2|0:2|3:2,0:0:0:0:
234,309,80652,1,0,3:2:0:0:
162,218,80819,1,8,0:2:0:0:
74,299,80986,1,8,0:2:0:0:
14,184,81152,6,0,P|12:149|26:104,1,80,2|0,3:2|3:2,0:0:0:0:
159,75,81486,2,0,P|188:101|207:136,1,80,10|0,0:0|0:0,0:0:0:0:
254,244,81819,5,8,2:1:0:0:
263,246,81902,1,8,2:1:0:0:
273,248,81986,1,8,2:1:0:0:
283,249,82069,1,8,2:1:0:0:
293,250,82152,2,0,L|336:237,3,40,8|8|8|8,2:1|2:1|2:1|2:1,0:0:0:0:
399,278,82486,5,4,3:2:0:0:
512,141,82819,6,0,L|451:125,1,64,10|0,0:2|3:2,0:0:0:0:
379,49,83152,1,2,3:2:0:0:
379,49,83319,2,0,B|409:82|409:82|374:185,1,128,8|0,0:2|3:2,0:0:0:0:
263,190,83819,6,0,L|245:54,1,128,2|8,3:2|0:2,0:0:0:0:
152,21,84319,1,2,0:2:0:0:
152,21,84486,2,0,L|138:94,1,64,0|0,3:2|3:2,0:0:0:0:
31,94,84819,2,0,P|83:60|140:84,1,128,10|0,0:2|3:2,0:0:0:0:
191,249,85486,6,0,L|203:337,1,64,10|0,0:2|3:2,0:0:0:0:
300,359,85819,1,2,3:2:0:0:
300,359,85986,2,0,L|314:218,1,128,8|0,0:2|3:2,0:0:0:0:
424,221,86486,6,0,P|383:250|304:222,1,128,2|8,3:2|0:2,0:0:0:0:
249,155,86986,1,2,0:2:0:0:
249,155,87152,2,0,P|256:119|251:88,1,64,2|0,3:2|0:2,0:0:0:0:
166,35,87486,2,0,L|96:22,1,64,10|0,0:2|0:2,0:0:0:0:
0,81,87819,6,0,L|3:156,1,64,2|0,0:2|3:2,0:0:0:0:
45,209,88152,2,0,L|48:284,1,64,8|0,0:2|3:2,0:0:0:0:
95,337,88486,5,2,0:2:0:0:
126,251,88652,1,8,0:2:0:0:
184,321,88819,1,0,3:2:0:0:
184,321,88986,1,0,3:2:0:0:
126,251,89152,6,0,L|141:123,1,128,2|10,3:2|0:2,0:0:0:0:
224,64,89652,1,0,0:2:0:0:
224,64,89819,2,0,P|254:67|293:55,1,64,2|0,3:2|3:2,0:0:0:0:
416,24,90152,6,0,P|397:16|347:19,1,60,10|0,0:2|0:2,0:0:0:0:
358,15,90486,6,0,B|330:54|330:54|369:150,1,128,2|8,3:2|0:2,0:0:0:0:
436,205,90986,1,2,3:2:0:0:
436,205,91152,2,0,L|425:271,1,64,0|8,3:2|0:2,0:0:0:0:
365,351,91486,2,0,P|331:364|292:348,1,64,2|0,3:2|3:2,0:0:0:0:
214,310,91819,2,0,P|185:297|154:303,1,64,0|0,3:2|3:2,0:0:0:0:
56,374,92152,5,10,0:2:0:0:
56,374,92319,1,0,3:2:0:0:
7,290,92486,1,0,3:2:0:0:
70,218,92652,2,0,L|63:175,2,32,10|8|0,2:2|2:0|3:0,0:0:0:0:
162,310,92986,5,10,2:2:0:0:
162,310,93069,1,8,2:0:0:0:
162,310,93152,2,0,P|201:311|239:297,1,64,6|2,3:2|3:2,0:0:0:0:
286,213,93486,6,0,L|291:130,1,64,10|0,0:2|3:2,0:0:0:0:
398,141,93819,1,2,3:2:0:0:
398,141,93986,2,0,B|342:178|342:178|288:148,1,128,8|0,0:2|3:2,0:0:0:0:
220,59,94486,6,0,B|170:20|170:20|107:37,1,128,2|8,3:2|0:2,0:0:0:0:
22,94,94986,1,2,0:2:0:0:
22,94,95152,2,0,L|24:161,1,64,0|0,3:2|3:2,0:0:0:0:
83,237,95486,2,0,B|133:198|133:198|195:215,1,128,10|2,0:2|3:2,0:0:0:0:
347,357,96152,6,0,P|379:365|421:342,1,64,10|0,0:2|3:2,0:0:0:0:
469,273,96486,1,0,3:2:0:0:
469,273,96652,2,0,L|454:143,1,128,10|0,0:2|3:2,0:0:0:0:
371,60,97152,6,0,B|306:45|305:82|245:68,1,128,2|8,3:2|0:2,0:0:0:0:
153,23,97652,1,2,0:2:0:0:
153,23,97819,2,0,L|164:106,1,64,2|0,3:2|0:2,0:0:0:0:
125,183,98152,2,0,L|158:252,1,64,10|0,0:2|0:2,0:0:0:0:
264,287,98486,6,0,L|337:264,1,64,2|0,3:2|3:2,0:0:0:0:
408,304,98819,2,0,L|481:281,1,64,8|0,0:2|3:2,0:0:0:0:
500,198,99152,5,2,3:2:0:0:
421,172,99319,1,8,0:2:0:0:
486,118,99486,1,0,3:2:0:0:
486,118,99652,1,0,3:2:0:0:
421,172,99819,6,0,B|269:159,1,128,2|10,3:2|0:2,0:0:0:0:
216,92,100319,1,0,0:2:0:0:
216,92,100486,2,0,L|202:0,1,64,2|0,3:2|3:2,0:0:0:0:
157,169,100819,6,0,L|150:232,1,60,10|0,0:2|0:2,0:0:0:0:
150,228,101152,6,0,P|79:250|39:197,1,128,2|8,3:2|0:2,0:0:0:0:
14,119,101652,1,2,3:2:0:0:
14,119,101819,2,0,L|24:55,1,64,0|8,3:2|0:2,0:0:0:0:
120,19,102152,2,0,L|192:44,1,64,2|0,3:2|3:2,0:0:0:0:
308,126,102486,5,2,3:2:0:0:
349,46,102652,1,8,0:2:0:0:
396,122,102819,1,8,0:2:0:0:
396,122,102986,1,0,3:2:0:0:
355,200,103152,5,10,0:2:0:0:
308,126,103319,1,8,0:3:0:0:
349,46,103486,1,4,0:3:0:0:
438,43,103652,1,8,0:3:0:0:
396,122,103819,6,0,L|133:102,1,256,6|10,3:2|0:2,0:0:0:0:
0,215,104819,5,2,0:2:0:0:
40,40,105152,5,2,3:2:0:0:
40,40,105319,1,0,3:2:0:0:
40,40,105486,1,0,3:2:0:0:
138,189,105819,5,8,0:2:0:0:
167,104,105986,1,8,0:3:0:0:
226,171,106152,1,4,0:3:0:0:
226,171,106319,1,8,0:3:0:0:
312,106,106486,6,0,B|352:98|352:98|391:108|391:108|437:102,2,128,2|0|10,3:2|3:2|0:2,0:0:0:0:
226,171,107486,6,0,L|144:155,1,64,2|0,0:2|3:2,0:0:0:0:
307,235,107819,2,0,L|361:171,1,64,2|0,0:2|3:2,0:0:0:0:
211,273,108152,2,0,L|238:352,1,64,2|8,3:2|0:3,0:0:0:0:
231,333,108402,1,8,0:3:0:0:
231,333,108486,1,4,0:3:0:0:
121,314,108652,1,4,0:3:0:0:
0,384,109152,6,0,L|8:237,1,143.999995605469,6|0,3:2|0:2,0:0:0:0:
14,217,109486,2,0,P|48:193|105:188,1,95.9999970703126,8|0,0:2|0:2,0:0:0:0:
229,226,109819,1,2,3:2:0:0:
229,226,109986,1,0,3:3:0:0:
198,94,110152,1,8,0:2:0:0:
101,187,110319,1,8,0:2:0:0:
248,245,110486,6,0,P|293:253|341:240,1,95.9999970703126,2|0,3:2|3:2,0:0:0:0:
383,79,110819,2,0,P|338:71|289:83,1,95.9999970703126,10|0,0:2|0:2,0:0:0:0:
257,275,111152,2,0,P|301:282|350:270,1,95.9999970703126,2|0,3:2|3:2,0:0:0:0:
391,108,111486,2,0,P|346:100|297:112,1,95.9999970703126,10|0,0:2|0:2,0:0:0:0:
266,306,111819,6,0,P|359:303|415:206,2,191.999994140625,2|8|0,3:2|0:2|3:0,0:0:0:0:
198,239,112652,1,0,3:2:0:0:
110,338,112819,2,0,L|97:240,1,95.9999970703126,10|0,0:2|0:2,0:0:0:0:
0,118,113152,6,0,P|48:121|87:81,1,95.9999970703126,2|0,3:2|3:2,0:0:0:0:
259,23,113486,2,0,P|211:20|172:60,1,95.9999970703126,10|0,0:2|0:2,0:0:0:0:
314,151,113819,1,2,3:2:0:0:
314,151,113986,1,0,3:2:0:0:
422,71,114152,1,8,0:2:0:0:
503,178,114319,1,8,0:2:0:0:
508,201,114402,1,8,0:2:0:0:
511,224,114486,6,0,B|500:259|500:259|503:326|503:326|483:365,1,143.999995605469,6|0,3:2|0:2,0:0:0:0:
464,374,114819,2,0,P|413:369|379:321,1,95.9999970703126,8|0,0:2|0:2,0:0:0:0:
319,218,115152,1,2,3:2:0:0:
319,218,115319,1,0,3:3:0:0:
281,347,115486,1,8,0:2:0:0:
223,225,115652,1,8,0:2:0:0:
142,349,115819,6,0,P|86:352|51:322,1,95.9999970703126,2|0,3:2|3:2,0:0:0:0:
50,169,116152,2,0,P|89:143|136:149,1,95.9999970703126,10|0,0:2|0:2,0:0:0:0:
133,378,116486,2,0,P|77:381|42:351,1,95.9999970703126,2|0,3:2|3:2,0:0:0:0:
41,198,116819,2,0,P|80:172|127:178,1,95.9999970703126,10|0,0:2|0:2,0:0:0:0:
222,275,117152,6,0,B|331:254|298:318|419:285,2,191.999994140625,2|8|0,3:2|0:2|3:0,0:0:0:0:
120,302,117986,1,0,3:2:0:0:
41,198,118152,2,0,L|57:101,1,95.9999970703126,10|0,0:2|0:2,0:0:0:0:
193,4,118486,5,14,0:1:0:0:
182,114,118652,1,0,3:0:0:0:
297,60,118819,5,14,0:1:0:0:
209,126,118986,1,0,3:0:0:0:
328,169,119152,5,14,0:1:0:0:
219,153,119319,1,0,3:0:0:0:
272,258,119486,5,8,0:1:0:0:
285,267,119569,1,8,0:1:0:0:
298,277,119652,1,8,0:1:0:0:
310,285,119736,1,8,0:1:0:0:
324,294,119819,6,0,B|374:290|374:290|407:312|407:312|465:309,1,143.999995605469,6|0,3:2|0:2,0:0:0:0:
482,319,120152,2,0,L|491:205,1,95.9999970703126,8|0,0:2|0:2,0:0:0:0:
451,94,120486,1,2,3:2:0:0:
451,94,120652,1,0,3:3:0:0:
489,223,120819,1,8,0:2:0:0:
357,194,120986,1,8,0:2:0:0:
239,279,121152,6,0,L|230:379,1,95.9999970703126,2|0,3:2|3:2,0:0:0:0:
110,231,121486,2,0,L|119:131,1,95.9999970703126,10|0,0:2|0:2,0:0:0:0:
271,264,121819,2,0,L|262:364,1,95.9999970703126,2|0,3:2|3:2,0:0:0:0:
142,216,122152,2,0,L|151:116,1,95.9999970703126,10|0,0:2|0:2,0:0:0:0:
311,50,122486,6,0,B|361:44|361:44|443:82|443:82|496:76,2,191.999994140625,2|8|0,3:2|0:2|3:0,0:0:0:0:
282,151,123319,1,0,3:2:0:0:
150,120,123486,2,0,B|128:76|128:76|150:19,1,95.9999970703126,10|0,0:2|0:2,0:0:0:0:
282,151,123819,6,0,L|272:261,1,95.9999970703126,2|0,3:2|3:2,0:0:0:0:
94,343,124152,2,0,L|85:247,1,95.9999970703126,10|8,0:2|0:2,0:0:0:0:
154,124,124486,1,2,3:2:0:0:
154,124,124652,1,0,3:2:0:0:
282,151,124819,1,8,0:2:0:0:
385,64,124986,1,8,0:2:0:0:
407,57,125069,1,8,0:2:0:0:
430,53,125152,6,0,B|481:74|481:74|475:182,1,143.999995605469,6|0,3:2|0:2,0:0:0:0:
475,185,125486,2,0,B|464:215|464:215|467:243|467:243|449:286,1,95.9999970703126,8|0,0:2|0:2,0:0:0:0:
357,370,125819,1,2,3:2:0:0:
357,370,125986,1,0,3:3:0:0:
324,239,126152,1,8,0:2:0:0:
453,276,126319,1,8,0:2:0:0:
318,206,126486,6,0,P|274:187|227:194,1,95.9999970703126,2|0,3:2|3:2,0:0:0:0:
153,330,126819,2,0,P|196:348|243:341,1,95.9999970703126,10|0,0:2|0:2,0:0:0:0:
313,172,127152,2,0,P|269:153|222:160,1,95.9999970703126,2|0,3:2|3:2,0:0:0:0:
148,296,127486,2,0,P|191:314|238:307,1,95.9999970703126,10|0,0:2|0:2,0:0:0:0:
309,139,127819,6,0,B|257:114|197:137|197:137|147:130|133:95,2,191.999994140625,2|8|0,3:2|0:2|3:0,0:0:0:0:
379,218,128652,1,0,3:2:0:0:
487,155,128819,2,0,B|498:37,1,95.9999970703126,10|0,0:2|0:2,0:0:0:0:
337,0,129152,5,14,0:1:0:0:
309,139,129319,1,0,3:0:0:0:
250,27,129486,5,14,0:1:0:0:
222,166,129652,1,0,3:0:0:0:
163,54,129819,5,14,0:1:0:0:
135,193,129986,1,0,3:0:0:0:
6,90,130152,5,14,0:1:0:0:
6,90,130486,6,0,B|20:359,1,256,4|8,1:2|0:2,0:0:0:0:
19,345,131652,1,8,0:2:0:0:
197,362,131986,5,8,0:3:0:0:
197,362,132152,1,8,0:3:0:0:
85,221,132486,5,8,0:2:0:0:
103,295,132652,1,8,0:3:0:0:
161,246,132819,1,4,2:3:0:0:
161,246,132986,1,4,2:3:0:0:
85,221,133152,6,0,P|46:124|169:38,1,256,0|8,1:2|0:2,0:0:0:0:
509,210,134652,5,8,0:3:0:0:
509,210,134819,1,8,0:3:0:0:
381,124,135152,5,8,0:2:0:0:
399,50,135319,1,8,0:3:0:0:
456,106,135486,1,4,2:3:0:0:
456,106,135652,1,4,2:3:0:0:
381,124,135819,6,0,L|116:108,1,256,0|8,1:2|0:2,0:0:0:0:
126,108,136986,1,8,0:2:0:0:
262,36,137319,5,8,0:3:0:0:
262,36,137486,1,8,0:3:0:0:
313,180,137819,5,8,0:2:0:0:
374,134,137986,1,8,0:3:0:0:
387,214,138152,1,4,2:3:0:0:
387,214,138319,1,4,2:3:0:0:
313,180,138486,6,0,B|234:162|234:162|150:194|150:194|61:172,1,256,0|8,1:2|0:2,0:0:0:0:
439,356,139986,5,8,0:3:0:0:
439,356,140152,1,8,0:3:0:0:
470,260,140319,6,0,L|477:221,2,32,8|8|8,0:2|0:2|0:2,0:0:0:0:
396,283,140652,1,8,0:3:0:0:
328,247,140819,1,4,0:3:0:0:
305,173,140986,1,8,0:3:0:0:
366,93,141152,6,0,P|273:31|225:147,1,256,4|8,1:2|0:2,0:0:0:0:
218,133,142319,1,8,0:2:0:0:
321,245,142652,5,8,0:3:0:0:
321,245,142819,1,8,0:3:0:0:
150,284,143152,5,8,0:2:0:0:
168,210,143319,1,8,0:3:0:0:
229,268,143486,1,4,2:3:0:0:
229,268,143652,1,4,2:3:0:0:
150,284,143819,6,0,B|126:220|126:220|164:116|164:116|136:32,1,256,0|8,1:2|0:2,0:0:0:0:
0,347,145319,5,8,0:3:0:0:
0,347,145486,1,8,0:3:0:0:
150,284,145819,5,8,0:2:0:0:
168,358,145986,1,8,0:3:0:0:
229,307,146152,1,4,2:3:0:0:
229,307,146319,1,4,2:3:0:0:
150,284,146486,6,0,P|133:172|248:97,1,256,0|8,1:2|0:2,0:0:0:0:
239,97,147652,1,8,0:2:0:0:
352,199,147986,5,8,0:3:0:0:
352,199,148152,1,8,0:3:0:0:
426,98,148486,5,8,0:2:0:0:
487,144,148652,1,8,0:3:0:0:
497,69,148819,1,4,2:3:0:0:
273,71,149152,6,0,B|256:62|245:35|245:35|246:99|291:134|366:128|425:98|425:98|356:83|269:119|243:157|234:245|259:280|302:300|352:292|392:225|331:180,1,691.200016875,4|0,1:2|0:2,0:0:0:0:
0,276,157152,6,0,B|59:280|59:280|79:308|79:308|159:316,1,155.999992858887,6|0,3:2|0:2,0:0:0:0:
164,326,157486,2,0,L|176:217,1,103.999995239258,8|0,0:2|0:2,0:0:0:0:
229,86,157819,1,2,3:2:0:0:
229,86,157986,1,0,3:2:0:0:
374,65,158152,1,8,0:2:0:0:
464,180,158319,1,8,0:2:0:0:
351,285,158486,6,0,P|302:297|255:277,1,103.999995239258,2|0,3:2|3:2,0:0:0:0:
229,85,158819,2,0,P|278:73|325:93,1,103.999995239258,10|0,0:2|0:2,0:0:0:0:
345,317,159152,2,0,P|295:329|248:309,1,103.999995239258,2|0,3:2|3:2,0:0:0:0:
222,117,159486,2,0,P|271:104|318:124,1,103.999995239258,10|0,0:2|0:2,0:0:0:0:
342,349,159819,6,0,P|242:349|179:269,2,207.999990478516,2|8|0,3:2|0:2|3:2,0:0:0:0:
400,273,160652,1,0,3:2:0:0:
493,358,160819,2,0,L|496:254,1,103.999995239258,10|0,0:2|0:2,0:0:0:0:
389,116,161152,5,14,0:1:0:0:
324,235,161319,1,0,3:2:0:0:
296,77,161486,5,14,0:1:0:0:
299,212,161652,1,0,3:2:0:0:
195,89,161819,5,14,0:1:0:0:
265,204,161986,1,0,3:2:0:0:
113,149,162152,5,8,0:1:0:0:
87,148,162236,1,8,0:1:0:0:
64,160,162319,1,8,0:1:0:0:
50,182,162402,1,8,0:1:0:0:
48,207,162486,6,0,B|68:250|68:250|47:311|47:311|65:359,1,155.999992858887,6|0,3:2|0:2,0:0:0:0:
86,360,162819,2,0,B|120:350|120:350|144:363|144:363|207:352,1,103.999995239258,8|0,0:2|0:2,0:0:0:0:
328,329,163152,1,2,3:2:0:0:
328,329,163319,1,0,3:2:0:0:
184,355,163486,1,8,0:2:0:0:
128,220,163652,1,8,0:2:0:0:
268,137,163819,6,0,L|285:32,1,103.999995239258,2|0,3:2|3:2,0:0:0:0:
424,175,164152,2,0,L|407:280,1,103.999995239258,10|0,0:2|0:2,0:0:0:0:
239,123,164486,2,0,L|256:18,1,103.999995239258,2|0,3:2|3:2,0:0:0:0:
395,161,164819,2,0,L|378:266,1,103.999995239258,10|0,0:2|0:2,0:0:0:0:
207,109,165152,6,0,B|108:81|111:158|5:125,2,207.999990478516,2|8|0,3:2|0:2|3:2,0:0:0:0:
266,189,165986,1,0,3:2:0:0:
395,161,166152,2,0,L|407:52,1,103.999995239258,10|0,0:2|0:2,0:0:0:0:
412,286,166486,6,0,P|449:314|515:313,1,103.999995239258,2|0,3:2|3:2,0:0:0:0:
499,88,166819,2,0,P|462:60|396:61,1,103.999995239258,10|0,0:2|0:2,0:0:0:0:
270,193,167152,1,2,3:2:0:0:
270,193,167319,1,0,3:3:0:0:
186,74,167486,1,8,0:2:0:0:
51,131,167652,1,8,0:2:0:0:
44,155,167736,1,8,0:2:0:0:
38,180,167819,6,0,B|53:343,1,155.999992858887,6|0,3:2|0:2,0:0:0:0:
66,356,168152,2,0,P|116:360|156:329,1,103.999995239258,8|0,0:2|0:2,0:0:0:0:
230,202,168486,1,2,3:2:0:0:
230,202,168652,1,0,3:2:0:0:
156,328,168819,1,8,0:2:0:0:
291,378,168986,1,8,0:2:0:0:
402,269,169152,6,0,B|426:224|426:224|407:174,1,103.999995239258,2|0,3:2|3:2,0:0:0:0:
235,107,169486,2,0,B|211:152|211:152|229:201,1,103.999995239258,10|0,0:2|0:2,0:0:0:0:
436,270,169819,2,0,B|460:225|460:225|441:175,1,103.999995239258,2|0,3:2|3:2,0:0:0:0:
269,108,170152,2,0,B|245:153|245:153|263:202,1,103.999995239258,10|0,0:2|0:2,0:0:0:0:
470,272,170486,6,0,B|492:225|492:225|464:147|464:147|511:72,2,207.999990478516,2|8|0,3:2|0:2|3:2,0:0:0:0:
409,352,171319,1,0,3:2:0:0:
296,277,171486,2,0,B|247:254|247:254|186:262,1,103.999995239258,10|0,0:2|0:2,0:0:0:0:
17,278,171819,5,14,0:1:0:0:
151,332,171986,1,0,3:2:0:0:
63,206,172152,5,14,0:1:0:0:
197,260,172319,1,0,3:2:0:0:
109,134,172486,6,0,L|39:97,2,69.3333301595054,10|8|8,0:2|0:2|0:2,0:0:0:0:
191,114,172819,5,8,0:3:0:0:
223,102,172930,1,8,0:3:0:0:
255,90,173041,1,8,0:3:0:0:
287,78,173152,6,0,L|391:83,1,80,6|8,1:2|0:2,0:0:0:0:
443,22,173486,1,0,1:2:0:0:
443,22,173652,1,0,1:2:0:0:
483,109,173819,2,0,B|468:148|468:148|484:222|484:222|465:259,1,160,10|0,0:2|1:2,0:0:0:0:
385,313,174319,5,8,0:2:0:0:
385,313,174402,1,8,0:2:0:0:
385,313,174486,2,0,L|368:223,1,80,2|8,1:2|0:2,0:0:0:0:
284,277,174819,2,0,L|290:185,1,80,2|0,1:2|0:2,0:0:0:0:
195,216,175152,2,0,L|225:129,1,80,10|0,0:2|1:2,0:0:0:0:
338,37,175486,5,12,0:1:0:0:
338,37,175819,6,0,B|272:27|272:27|222:49|222:49|157:41,2,184.000003509522,6|8|0,3:2|0:2|3:2,0:0:0:0:
433,10,176652,1,0,3:2:0:0:
501,115,176819,2,0,L|491:229,1,92.0000017547608,8|0,0:2|0:2,0:0:0:0:
296,278,177152,6,0,P|269:237|274:178,1,92.0000017547608,2|0,3:2|3:3,0:0:0:0:
338,37,177486,2,0,P|365:78|360:137,1,92.0000017547608,10|0,0:2|0:1,0:0:0:0:
236,23,177819,1,2,3:2:0:0:
236,23,177986,1,0,3:3:0:0:
190,143,178152,1,8,0:2:0:0:
104,46,178319,1,8,0:2:0:0:
81,41,178402,1,8,0:2:0:0:
57,39,178486,6,0,B|4:63|4:63|16:165,1,155.999992858887,6|0,3:2|0:2,0:0:0:0:
23,184,178819,2,0,B|65:190|65:190|81:201|81:201|122:205,1,103.999995239258,8|0,0:2|0:2,0:0:0:0:
268,186,179152,1,2,3:2:0:0:
268,186,179319,1,0,3:2:0:0:
122,205,179486,1,8,0:2:0:0:
212,319,179652,1,8,0:2:0:0:
281,156,179819,6,0,P|324:130|375:136,1,103.999995239258,2|0,3:2|3:2,0:0:0:0:
442,284,180152,2,0,P|398:310|347:304,1,103.999995239258,10|0,0:2|0:2,0:0:0:0:
279,119,180486,2,0,P|322:92|373:98,1,103.999995239258,2|0,3:2|3:2,0:0:0:0:
439,246,180819,2,0,P|395:272|344:266,1,103.999995239258,10|0,0:2|0:2,0:0:0:0:
273,83,181152,6,0,P|369:59|452:137,2,207.999990478516,2|8|0,3:2|0:2|3:2,0:0:0:0:
211,161,181986,1,0,3:2:0:0:
142,55,182152,2,0,B|100:27|100:27|37:37,1,103.999995239258,10|0,0:2|0:2,0:0:0:0:
0,222,182486,5,14,0:1:0:0:
77,108,182652,1,0,3:2:0:0:
66,301,182819,5,14,0:1:0:0:
126,176,182986,1,0,3:2:0:0:
159,317,183152,5,8,0:3:0:0:
171,320,183236,1,8,0:3:0:0:
184,323,183319,1,8,0:3:0:0:
196,326,183402,1,8,0:3:0:0:
209,328,183486,5,8,0:1:0:0:
228,312,183569,1,8,0:1:0:0:
237,288,183652,1,8,0:1:0:0:
234,262,183736,1,8,0:1:0:0:
220,241,183819,6,0,B|215:191|215:191|239:151|239:151|234:91,1,155.999992858887,6|0,3:2|0:2,0:0:0:0:
241,66,184152,2,0,B|281:35|281:35|333:42,1,103.999995239258,8|0,0:2|0:2,0:0:0:0:
477,70,184486,1,2,3:2:0:0:
477,70,184652,1,0,3:2:0:0:
350,140,184819,1,8,0:2:0:0:
491,174,184986,1,8,0:2:0:0:
333,264,185152,6,0,L|320:377,1,103.999995239258,2|0,3:2|3:2,0:0:0:0:
222,194,185486,2,0,L|233:90,1,103.999995239258,10|0,0:2|0:2,0:0:0:0:
364,273,185819,2,0,L|351:386,1,103.999995239258,2|0,3:2|3:2,0:0:0:0:
253,203,186152,2,0,L|264:99,1,103.999995239258,10|0,0:2|0:2,0:0:0:0:
440,22,186486,6,0,B|512:47|512:47|486:200,2,207.999990478516,2|8|0,3:2|0:2|3:2,0:0:0:0:
373,106,187319,1,0,3:2:0:0:
237,42,187486,2,0,L|134:34,1,103.999995239258,10|0,0:2|0:2,0:0:0:0:
36,177,187819,6,0,P|81:205|145:202,1,103.999995239258,2|0,3:2|3:3,0:0:0:0:
305,154,188152,2,0,P|260:126|196:129,1,103.999995239258,10|0,0:2|0:1,0:0:0:0:
300,265,188486,1,2,3:2:0:0:
300,265,188652,1,0,3:2:0:0:
444,253,188819,1,8,0:2:0:0:
469,109,188986,1,8,0:2:0:0:
455,86,189069,1,8,0:2:0:0:
442,62,189152,6,0,B|391:49|391:49|350:64|350:64|291:50,1,155.999992858887,6|0,3:2|0:2,0:0:0:0:
268,39,189486,2,0,B|220:18|220:18|161:36,1,103.999995239258,8|0,0:2|0:2,0:0:0:0:
40,98,189819,1,2,3:2:0:0:
40,98,189986,1,0,3:2:0:0:
185,113,190152,1,8,0:2:0:0:
59,188,190319,1,8,0:2:0:0:
198,281,190486,6,0,P|248:291|294:269,1,103.999995239258,2|0,3:2|3:2,0:0:0:0:
280,99,190819,2,0,P|230:89|184:111,1,103.999995239258,10|0,0:2|0:2,0:0:0:0:
198,318,191152,2,0,P|248:328|294:306,1,103.999995239258,2|0,3:2|3:2,0:0:0:0:
280,136,191486,2,0,P|229:125|183:147,1,103.999995239258,10|0,0:2|0:2,0:0:0:0:
192,351,191819,6,0,L|427:365,2,207.999990478516,2|8|0,3:2|0:2|3:2,0:0:0:0:
91,377,192652,1,0,3:2:0:0:
0,267,192819,2,0,B|12:146,1,103.999995239258,10|0,0:2|0:2,0:0:0:0:
133,13,193152,5,14,0:1:0:0:
101,158,193319,1,0,3:2:0:0:
227,43,193486,5,14,0:1:0:0:
197,191,193652,1,0,3:2:0:0:
323,76,193819,5,14,0:1:0:0:
293,224,193986,1,0,3:2:0:0:
468,62,194152,5,14,0:1:0:0:
468,62,194486,6,0,B|466:113|466:113|481:145|481:145|476:174|476:174|488:223,2,160,6|8|0,3:2|0:2|3:2,0:0:0:0:
468,62,195319,1,0,3:2:0:0:
400,159,195486,1,8,0:2:0:0:
326,63,195652,1,8,0:2:0:0:
269,186,195819,6,0,B|232:202|232:202|195:185,1,80,2|0,3:2|3:2,0:0:0:0:
136,62,196152,2,0,B|173:46|173:46|209:62,1,80,10|0,0:2|0:2,0:0:0:0:
97,181,196486,1,0,3:2:0:0:
97,181,196652,1,0,3:2:0:0:
19,89,196819,1,8,0:2:0:0:
136,62,196986,1,8,0:2:0:0:
195,185,197152,6,0,B|241:185|241:185|268:203|268:203|312:187|352:216,2,160,2|8|0,3:2|0:2|3:2,0:0:0:0:
195,185,197986,1,0,3:2:0:0:
286,124,198152,1,8,0:2:0:0:
301,274,198319,1,8,0:2:0:0:
423,188,198486,6,0,L|435:101,1,80,2|0,3:2|3:2,0:0:0:0:
301,274,198819,2,0,L|289:361,1,80,10|0,0:2|0:2,0:0:0:0:
202,191,199152,1,0,3:2:0:0:
202,191,199319,1,0,3:2:0:0:
122,291,199486,1,8,0:2:0:0:
28,203,199652,1,8,0:2:0:0:
31,183,199736,1,8,0:2:0:0:
35,163,199819,6,0,B|34:129|45:101|45:101|26:76|26:76|38:48|34:10,2,160,6|8|0,3:2|0:2|3:2,0:0:0:0:
35,163,200652,1,0,3:2:0:0:
110,59,200819,1,8,0:2:0:0:
171,168,200986,1,8,0:2:0:0:
281,70,201152,6,0,P|320:52|367:58,1,80,2|0,3:2|3:2,0:0:0:0:
247,185,201486,2,0,P|208:186|172:169,1,80,10|0,0:2|0:2,0:0:0:0:
113,63,201819,1,0,3:2:0:0:
113,63,201986,1,0,3:2:0:0:
171,168,202152,2,0,L|179:267,1,80,8|8,0:2|0:2,0:0:0:0:
373,347,202486,5,14,0:1:0:0:
276,181,202652,1,0,3:0:0:0:
269,346,202819,5,14,0:1:0:0:
372,186,202986,1,0,3:0:0:0:
382,371,203152,5,14,0:1:0:0:
285,205,203319,1,0,3:0:0:0:
278,370,203486,5,14,0:1:0:0:
381,210,203652,1,0,3:0:0:0:
372,186,203736,1,0,3:0:0:0:
363,162,203819,6,0,B|369:128|369:128|392:106|392:106|398:68,1,103.999995239258,14|0,0:1|3:0,0:0:0:0:
512,231,204152,2,0,B|506:265|506:265|483:287|483:287|476:324,1,103.999995239258,14|0,0:1|3:0,0:0:0:0:
471,349,204402,1,0,3:0:0:0:
464,374,204486,5,8,0:0:0:0:
359,335,204652,5,8,0:3:0:0:
278,370,204819,5,4,0:3:0:0:
111,39,205152,5,6,1:2:0:0:
