osu file format v14

[General]
AudioFilename: audio.mp3
AudioLeadIn: 0
PreviewTime: 61185
Countdown: 0
SampleSet: Soft
StackLeniency: 0.2
Mode: 0
LetterboxInBreaks: 0
WidescreenStoryboard: 1

[Editor]
Bookmarks: 13185,22785,23385,23685,23835,23985,24135,24285,24585,24885,25035,25185,25335,25485,25785,26085,26235,26385,26535,26685,26985,27285,27435,27585,27735,27885,28185,28485,28635,28785,28935,29085,29385,29685,29835,29985,30135,30285,30585,30885,31035,31185,31335,31485,31785,32085,32235,32385,32535,32685,32985,33285,33435,33585,33735,33885,34185,34485,34635,34785,34935,35085,35385,35685,35835,35985,36135,36285,36585,36885,37035,37185,37335,37485,37785,38085,38235,38385,38535,38685,38985,39285,39435,39585,39735,39885,40185,40485,40635,40785,40935,41085,41385,41685,41835,41985,61185,63585,85185,92385,101985,121185,137985,140385
DistanceSpacing: 1.1
BeatDivisor: 2
GridSize: 16
TimelineZoom: 1.7

[Metadata]
Title:Shiroki Yami no Arabesque
TitleUnicode:白き闇のアラベスク
Artist:Marie
ArtistUnicode:真理絵
Creator:Fushimi Rio
Version:irotuk's Expert
Source:バタフライシーカー
Tags:Silkysplus シルキーズプラス Seeker Visual novel Eroge Short Ver PinkHeart Misure irotuk
BeatmapID:1608193
BeatmapSetID:746689

[Difficulty]
HPDrainRate:7.2
CircleSize:4
OverallDifficulty:8.5
ApproachRate:9.2
SliderMultiplier:2.19999990463257
SliderTickRate:1

[Events]
//Background and Video events
0,0,"bg1.jpg",0,0
//Break Periods
2,82830,84610
2,85380,87010
2,87780,89410
2,90180,91810
//Storyboard Layer 0 (Background)
//Storyboard Layer 1 (Fail)
//Storyboard Layer 2 (Pass)
//Storyboard Layer 3 (Foreground)
//Storyboard Sound Samples

[TimingPoints]
1180,600,4,2,1,10,1,0
13180,-125,4,2,1,30,0,0
23380,-100,4,2,1,30,0,0
41980,-100,4,2,1,40,0,0
58480,-100,4,2,1,30,0,0
63580,-62.5,4,2,1,50,0,1
64180,-125,4,2,1,50,0,1
64630,-62.5,4,2,1,50,0,1
67480,-125,4,2,1,50,0,1
67780,-62.5,4,2,1,50,0,1
68980,-125,4,2,1,50,0,1
69430,-62.5,4,2,1,50,0,1
70780,-125,4,2,1,50,0,1
73180,-62.5,4,2,1,50,0,1
73780,-125,4,2,1,50,0,1
74230,-62.5,4,2,1,50,0,1
77080,-125,4,2,1,50,0,1
77380,-62.5,4,2,1,50,0,1
78580,-125,4,2,1,50,0,1
79030,-62.5,4,2,1,50,0,1
82780,-100,4,2,1,15,0,0
92380,-100,4,2,1,30,0,0
92980,-125,4,2,1,30,0,0
101980,-100,4,2,1,70,0,1
102130,-100,4,2,1,70,0,1
102580,-66.6666666666667,4,2,1,70,0,1
103030,-50,4,2,1,70,0,1
103480,-62.5,4,2,1,70,0,1
104380,-50,4,2,1,70,0,1
105580,-83.3333333333333,4,2,1,70,0,1
106180,-62.5,4,2,1,70,0,1
106930,-100,4,2,1,70,0,1
107380,-66.6666666666667,4,2,1,70,0,1
107680,-50,4,2,1,70,0,1
108280,-62.5,4,2,1,70,0,1
109180,-50,4,2,1,70,0,1
110380,-62.5,4,2,1,70,0,1
111580,-100,4,2,1,70,0,1
112180,-66.6666666666667,4,2,1,70,0,1
112630,-50,4,2,1,70,0,1
113080,-62.5,4,2,1,70,0,1
113980,-50,4,2,1,70,0,1
114880,-100,4,2,1,70,0,1
116530,-100,4,2,1,70,0,1
116980,-66.6666666666667,4,2,1,70,0,1
117430,-50,4,2,1,70,0,1
118180,-125,4,2,1,70,0,1
118480,-50,4,2,1,70,0,1
119980,-62.5,4,2,1,70,0,1
121030,-100,4,2,1,70,0,0
121180,-125,4,2,1,70,0,1
121330,-125,4,2,1,70,0,0
126430,-125,4,2,1,70,0,0
126580,-125,4,2,1,70,0,0
127030,-125,4,2,1,70,0,0
137980,-50,4,2,1,70,0,1
138580,-66.6666666666667,4,2,1,70,0,1
138880,-66.6666666666667,4,2,1,70,0,1
139180,-33.6666666666667,4,2,1,70,0,1
140305,-33.6666666666667,4,2,1,5,0,1
140380,-100,4,2,1,5,0,0

[Colours]
Combo1 : 128,128,255
Combo2 : 255,128,128
Combo3 : 255,128,255
Combo4 : 255,128,192
Combo5 : 0,128,255

[HitObjects]
226,158,13180,6,0,L|325:140,1,87.9999961853028,4|0,0:0|0:0,0:0:0:0:
211,150,13780,1,8,0:0:0:0:
211,150,14080,5,0,0:0:0:0:
205,166,14230,1,0,0:0:0:0:
200,182,14380,1,0,0:0:0:0:
195,199,14530,1,0,0:0:0:0:
189,215,14680,2,0,L|120:200,1,43.9999980926514,0|0,0:0|0:0,0:0:0:0:
62,185,14980,5,8,0:0:0:0:
308,351,15280,1,0,0:0:0:0:
422,287,15580,2,0,L|352:304,1,43.9999980926514,2|0,0:0|0:0,0:0:0:0:
435,273,15880,1,0,0:0:0:0:
308,351,16180,2,0,L|238:334,1,43.9999980926514,8|0,0:0|0:0,0:0:0:0:
188,312,16480,5,0,1:0:0:0:
257,260,16630,1,0,1:0:0:0:
253,242,16780,1,0,0:0:0:0:
249,224,16930,1,0,1:0:0:0:
245,206,17080,2,0,L|232:148,1,43.9999980926514,0|0,0:0|0:0,0:0:0:0:
219,82,17380,5,8,0:0:0:0:
421,262,17680,1,0,0:0:0:0:
444,139,17980,2,0,L|435:193,1,43.9999980926514,4|0,0:0|0:0,0:0:0:0:
421,262,18280,1,0,0:0:0:0:
436,129,18580,2,0,L|427:183,1,43.9999980926514,8|0,0:0|0:0,0:0:0:0:
413,252,18880,1,0,0:0:0:0:
432,121,19180,6,0,L|423:175,1,43.9999980926514,0|0,0:0|0:0,0:0:0:0:
409,244,19480,1,0,0:0:0:0:
429,113,19780,2,0,L|420:167,1,43.9999980926514,8|0,0:0|0:0,0:0:0:0:
406,236,20080,1,0,0:0:0:0:
322,154,20380,6,0,P|270:135|222:146,1,87.9999961853028,2|0,0:0|0:0,0:0:0:0:
123,221,20980,2,0,L|141:285,1,43.9999980926514,8|0,0:0|0:0,0:0:0:0:
166,353,21280,1,0,1:0:0:0:
171,336,21430,1,0,1:0:0:0:
228,253,21580,5,0,0:0:0:0:
261,336,21730,1,0,1:0:0:0:
291,306,21880,1,0,0:0:0:0:
311,318,22030,1,0,0:0:0:0:
405,340,22180,5,8,0:0:0:0:
422,336,22330,1,0,1:0:0:0:
439,332,22480,1,0,1:0:0:0:
439,332,22780,5,4,0:0:0:0:
324,66,23380,2,0,P|337:144|316:192,1,109.999995231628,0|0,1:0|0:0,0:0:0:0:
249,185,23830,2,0,P|239:160|221:140,2,54.9999976158142,0|0|0,0:0|0:0|0:0,0:0:0:0:
167,205,24280,1,0,0:0:0:0:
167,205,24580,5,0,1:0:0:0:
375,353,24880,1,0,3:0:0:0:
425,287,25030,1,0,0:0:0:0:
380,215,25180,2,0,P|405:206|435:203,2,54.9999976158142,0|0|0,3:0|0:0|0:0,0:0:0:0:
380,215,25780,5,2,0:0:0:0:
256,302,26080,1,0,1:0:0:0:
291,227,26230,1,0,1:0:0:0:
123,107,26380,1,0,0:0:0:0:
192,151,26530,1,0,0:0:0:0:
203,232,26680,1,0,3:0:0:0:
30,264,26980,6,0,P|90:213|151:204,1,109.999995231628,0|0,1:0|3:0,0:0:0:0:
119,342,27430,1,0,0:0:0:0:
119,342,27580,2,0,P|72:346|38:336,2,54.9999976158142,0|0|0,3:0|3:0|0:0,0:0:0:0:
198,313,28180,5,0,1:0:0:0:
348,382,28480,1,0,0:0:0:0:
409,326,28630,1,0,0:0:0:0:
379,249,28780,2,0,B|349:246|349:246|303:258,2,54.9999976158142,0|0|0,0:0|0:0|0:0,0:0:0:0:
379,249,29380,5,0,1:0:0:0:
258,203,29680,2,0,L|246:130,1,54.9999976158142,0|0,3:0|0:0,0:0:0:0:
279,22,29980,2,0,L|287:76,2,54.9999976158142,0|0|0,3:0|0:0|0:0,0:0:0:0:
113,158,30580,5,0,0:0:0:0:
113,158,30880,1,0,1:0:0:0:
179,309,31030,1,0,1:0:0:0:
96,298,31180,1,0,0:0:0:0:
148,234,31330,1,0,0:0:0:0:
230,240,31480,1,0,3:0:0:0:
179,309,31780,5,0,1:0:0:0:
179,309,32080,2,0,P|212:329|250:328,1,54.9999976158142,0|0,3:0|0:0,0:0:0:0:
408,231,32380,2,0,L|403:152,2,54.9999976158142,4|0|0,0:0|0:0|0:0,0:0:0:0:
408,231,32980,5,0,1:0:0:0:
269,362,33280,2,0,P|237:355|200:338,1,54.9999976158142,0|0,0:0|0:0,0:0:0:0:
96,265,33580,2,0,P|121:255|148:249,2,54.9999976158142,0|0|0,0:0|0:0|0:0,0:0:0:0:
96,265,34180,5,0,1:0:0:0:
263,283,34480,2,0,P|270:241|257:200,1,54.9999976158142,0|0,3:0|0:0,0:0:0:0:
192,174,34780,1,0,3:0:0:0:
265,212,34930,1,0,0:0:0:0:
341,181,35080,1,0,0:0:0:0:
341,181,35380,5,2,0:0:0:0:
281,3,35680,1,0,1:0:0:0:
274,85,35830,1,0,1:0:0:0:
108,95,35980,1,0,0:0:0:0:
128,175,36130,1,0,0:0:0:0:
126,92,36280,1,0,3:0:0:0:
182,277,36580,6,0,P|132:261|46:283,1,109.999995231628,0|0,1:0|3:0,0:0:0:0:
57,348,37030,1,0,0:0:0:0:
133,380,37180,2,0,P|175:360|223:366,2,54.9999976158142,0|0|0,3:0|3:0|0:0,0:0:0:0:
380,353,37780,6,0,P|399:296|379:215,1,109.999995231628,0|0,1:0|0:0,0:0:0:0:
228,135,38230,1,0,0:0:0:0:
290,185,38380,2,0,P|311:226|311:265,2,54.9999976158142,0|0|0,0:0|0:0|0:0,0:0:0:0:
107,334,38980,5,0,1:0:0:0:
107,334,39280,2,0,P|130:303|137:262,1,54.9999976158142,0|0,3:0|0:0,0:0:0:0:
196,220,39580,1,0,3:0:0:0:
196,220,39730,2,0,P|219:251|226:292,1,54.9999976158142,0|0,0:0|0:0,0:0:0:0:
120,160,40180,1,2,0:0:0:0:
120,160,40480,5,0,1:0:0:0:
318,193,40630,1,0,1:0:0:0:
245,147,40780,1,0,0:0:0:0:
246,136,40930,1,0,3:0:0:0:
247,125,41080,1,0,3:0:0:0:
248,114,41380,5,0,1:0:0:0:
249,103,41680,1,0,3:0:0:0:
250,92,41830,1,0,0:0:0:0:
251,70,41980,5,4,0:0:0:0:
440,306,42580,1,8,0:0:0:0:
305,376,42880,1,0,0:0:0:0:
312,355,43030,1,0,0:0:0:0:
169,268,43180,1,0,0:0:0:0:
175,290,43330,1,0,0:0:0:0:
181,312,43480,1,0,0:0:0:0:
154,183,43780,6,0,L|233:203,1,54.9999976158142,8|0,0:0|0:0,0:0:0:0:
288,212,44080,1,0,3:0:0:0:
347,154,44230,1,0,0:0:0:0:
416,269,44380,2,0,B|448:274|448:274|495:259,2,54.9999976158142,0|0|0,3:0|0:0|0:0,0:0:0:0:
416,269,44980,5,8,0:0:0:0:
449,360,45280,1,0,1:0:0:0:
212,314,45430,1,0,1:0:0:0:
297,292,45580,1,0,0:0:0:0:
301,270,45730,1,0,0:0:0:0:
304,248,45880,1,0,3:0:0:0:
213,169,46180,6,0,L|233:252,1,54.9999976158142,8|0,0:0|0:0,0:0:0:0:
176,287,46480,1,0,3:0:0:0:
80,301,46630,1,0,0:0:0:0:
38,220,46780,1,0,3:0:0:0:
51,202,46930,1,0,0:0:0:0:
64,184,47080,2,0,L|44:101,1,54.9999976158142,0|0,0:0|0:0,0:0:0:0:
194,85,47380,5,8,0:0:0:0:
194,85,47680,1,0,0:0:0:0:
116,58,47830,1,0,0:0:0:0:
185,170,47980,1,0,0:0:0:0:
263,143,48130,1,0,0:0:0:0:
338,175,48280,1,0,0:0:0:0:
282,335,48580,6,0,P|257:286|273:212,1,109.999995231628,8|0,0:0|3:0,0:0:0:0:
138,350,49180,2,0,P|174:329|209:324,2,54.9999976158142,0|0|0,3:0|0:0|0:0,0:0:0:0:
58,327,49780,1,8,0:0:0:0:
377,381,50080,1,0,1:0:0:0:
273,264,50230,1,0,1:0:0:0:
442,249,50380,5,0,0:0:0:0:
360,299,50530,1,0,0:0:0:0:
365,190,50680,5,0,3:0:0:0:
365,190,50980,1,0,1:0:0:0:
510,105,51280,1,0,3:0:0:0:
510,105,51580,2,0,P|457:124|385:97,1,109.999995231628,4|0,0:0|0:0,0:0:0:0:
406,112,52180,5,8,0:0:0:0:
272,29,52480,1,0,0:0:0:0:
278,50,52630,1,0,0:0:0:0:
218,120,52780,1,0,0:0:0:0:
304,150,52930,1,0,0:0:0:0:
212,141,53080,1,0,0:0:0:0:
372,361,53380,5,8,0:0:0:0:
372,361,53680,1,0,3:0:0:0:
343,281,53830,1,0,0:0:0:0:
284,356,53980,1,0,3:0:0:0:
278,341,54130,1,0,0:0:0:0:
202,374,54280,1,0,0:0:0:0:
202,374,54580,5,8,0:0:0:0:
142,80,54880,1,0,1:0:0:0:
155,161,55030,1,0,1:0:0:0:
368,155,55180,1,0,0:0:0:0:
355,236,55330,1,0,0:0:0:0:
350,153,55480,1,0,0:0:0:0:
82,216,55780,6,0,P|137:186|226:199,1,109.999995231628,8|0,0:0|3:0,0:0:0:0:
159,313,56380,2,0,P|131:309|107:298,2,54.9999976158142,0|0|0,3:0|0:0|0:0,0:0:0:0:
159,313,56980,5,8,0:0:0:0:
321,376,57280,1,0,0:0:0:0:
338,295,57430,1,0,0:0:0:0:
356,214,57580,1,0,0:0:0:0:
358,235,57730,1,0,0:0:0:0:
360,256,57880,1,0,0:0:0:0:
433,315,58180,6,0,L|516:302,1,54.9999976158142,8|0,0:0|0:0,0:0:0:0:
489,293,58480,2,0,L|406:280,1,54.9999976158142,0|0,3:0|0:0,0:0:0:0:
474,191,58780,1,0,0:0:0:0:
471,212,58930,1,0,0:0:0:0:
429,95,59080,5,0,0:0:0:0:
432,116,59230,1,0,0:0:0:0:
168,237,59380,5,0,3:0:0:0:
213,168,59530,1,0,3:0:0:0:
293,148,59680,1,0,3:0:0:0:
369,177,59830,1,0,3:0:0:0:
103,331,59980,5,0,1:0:0:0:
84,250,60130,1,0,1:0:0:0:
79,228,60280,1,0,1:0:0:0:
73,206,60430,1,0,1:0:0:0:
275,331,60580,5,0,0:0:0:0:
290,233,60730,1,0,0:0:0:0:
306,135,60880,1,0,0:0:0:0:
323,37,61030,1,0,0:0:0:0:
332,55,61180,6,0,L|417:46,2,54.9999976158142,2|0|0,0:0|0:0|0:0,0:0:0:0:
339,72,61780,6,0,L|424:63,1,54.9999976158142,0|0,0:0|0:0,0:0:0:0:
475,59,62080,1,0,0:0:0:0:
366,154,62230,1,0,0:0:0:0:
483,217,62380,6,0,L|398:208,2,54.9999976158142
361,260,62980,1,0,0:0:0:0:
125,125,63280,2,0,L|210:116,1,54.9999976158142,0|0,0:0|0:0,0:0:0:0:
231,52,63580,5,4,1:0:0:0:
239,263,63730,2,0,L|222:365,1,87.9999961853028,0|0,0:0|0:0,0:0:0:0:
93,218,64030,1,0,0:0:0:0:
44,284,64180,2,0,L|61:362,1,43.9999980926514,0|0,1:0|0:0,0:0:0:0:
345,218,64480,1,0,0:0:0:0:
406,277,64630,2,0,L|387:378,1,87.9999961853028,0|0,0:0|0:0,0:0:0:0:
473,219,64930,5,0,0:0:0:0:
496,140,65080,2,0,L|480:41,1,87.9999961853028,0|0,0:0|0:0,0:0:0:0:
316,41,65380,1,0,1:0:0:0:
272,206,65530,1,0,0:0:0:0:
335,145,65680,2,0,P|297:123|254:124,1,87.9999961853028,0|0,0:0|0:0,0:0:0:0:
173,135,65980,2,0,P|100:70|212:59,1,263.999988555908,2|0,0:0|0:0,0:0:0:0:
254,124,66580,2,0,L|240:271,1,87.9999961853028,0|0,1:0|0:0,0:0:0:0:
180,265,66880,1,0,3:0:0:0:
336,175,67030,1,0,0:0:0:0:
180,352,67180,6,0,P|112:320|104:233,1,87.9999961853028,0|0,3:0|0:0,0:0:0:0:
16,234,67480,2,0,L|27:301,1,43.9999980926514,0|0,3:0|0:0,0:0:0:0:
180,352,67780,2,0,B|222:338|222:338|304:359,1,87.9999961853028,0|0,1:0|0:0,0:0:0:0:
420,349,68080,1,0,0:0:0:0:
435,341,68230,1,0,0:0:0:0:
326,176,68380,5,4,0:0:0:0:
384,117,68530,2,0,L|366:8,1,87.9999961853028,0|0,0:0|0:0,0:0:0:0:
151,165,68830,1,0,0:0:0:0:
106,97,68980,2,0,L|125:19,1,43.9999980926514,0|0,1:0|0:0,0:0:0:0:
326,176,69280,1,0,0:0:0:0:
384,117,69430,2,0,L|366:8,1,87.9999961853028,0|0,0:0|0:0,0:0:0:0:
452,177,69730,5,0,0:0:0:0:
497,248,69880,2,0,L|479:357,1,87.9999961853028,0|0,0:0|0:0,0:0:0:0:
305,380,70180,1,0,1:0:0:0:
231,243,70330,1,0,0:0:0:0:
165,294,70480,2,0,L|55:275,1,87.9999961853028,0|0,0:0|0:0,0:0:0:0:
123,133,70780,6,0,L|145:202,1,43.9999980926514,2|0,0:0|0:0,0:0:0:0:
51,82,71080,2,0,L|-19:64,1,43.9999980926514,0|0,3:0|0:0,0:0:0:0:
139,50,71380,2,0,L|189:-2,1,43.9999980926514,0|0,1:0|0:0,0:0:0:0:
362,126,71680,1,0,3:0:0:0:
323,104,71830,1,0,0:0:0:0:
362,82,71980,5,4,3:1:0:0:
418,352,72130,1,0,3:0:0:0:
432,175,72280,1,0,1:0:0:0:
350,300,72430,1,0,1:0:0:0:
93,122,72580,5,8,1:2:0:0:
149,316,72730,1,8,1:2:0:0:
121,28,72880,1,8,1:2:0:0:
76,220,73030,1,8,1:2:0:0:
350,300,73180,5,4,1:0:0:0:
350,300,73330,2,0,L|455:284,1,87.9999961853028,0|0,0:0|0:0,0:0:0:0:
209,134,73630,1,0,0:0:0:0:
279,95,73780,2,0,L|332:103,1,43.9999980926514,0|0,1:0|0:0,0:0:0:0:
43,267,74080,1,0,0:0:0:0:
107,317,74230,2,0,L|212:301,1,87.9999961853028,0|0,0:0|0:0,0:0:0:0:
29,346,74530,5,0,0:0:0:0:
212,273,74680,2,0,L|125:286,1,87.9999961853028,0|0,0:0|0:0,0:0:0:0:
272,334,74980,1,0,1:0:0:0:
362,146,75130,1,0,0:0:0:0:
408,212,75280,2,0,L|391:340,1,87.9999961853028,0|0,0:0|0:0,0:0:0:0:
361,145,75580,6,0,P|408:50|454:146,1,263.999988555908,2|0,0:0|0:0,0:0:0:0:
408,212,76180,2,0,B|367:193|367:193|291:209,1,87.9999961853028,0|0,1:0|0:0,0:0:0:0:
266,140,76480,1,0,3:0:0:0:
292,326,76630,1,0,0:0:0:0:
234,267,76780,6,0,L|109:251,1,87.9999961853028,0|0,3:0|0:0,0:0:0:0:
28,310,77080,2,0,L|102:297,1,43.9999980926514,0|0,3:0|0:0,0:0:0:0:
146,255,77380,2,0,P|154:201|78:147,1,87.9999961853028,0|0,1:0|0:0,0:0:0:0:
75,126,77680,1,0,0:0:0:0:
58,132,77830,1,0,0:0:0:0:
192,82,77980,5,4,0:0:0:0:
362,190,78130,2,0,L|460:165,1,87.9999961853028,0|0,0:0|0:0,0:0:0:0:
242,243,78430,1,0,0:0:0:0:
210,320,78580,2,0,L|228:397,1,43.9999980926514,0|0,1:0|0:0,0:0:0:0:
160,175,78880,1,0,0:0:0:0:
85,139,79030,2,0,L|-11:164,1,87.9999961853028,0|0,0:0|0:0,0:0:0:0:
263,140,79330,1,0,0:0:0:0:
328,88,79480,2,0,L|347:-9,1,87.9999961853028,0|0,0:0|0:0,0:0:0:0:
390,215,79780,6,0,P|444:218|492:158,1,87.9999961853028,0|0,1:0|0:0,0:0:0:0:
459,240,80080,2,0,P|417:245|378:225,1,87.9999961853028,0|0,0:0|0:0,0:0:0:0:
348,313,80380,5,4,3:2:0:0:
351,320,80455,1,0,3:2:0:0:
354,327,80530,1,0,3:2:0:0:
313,162,80680,1,0,3:0:0:0:
247,366,80830,1,0,1:0:0:0:
120,54,80980,1,0,1:0:0:0:
67,366,81130,1,0,1:0:0:0:
146,212,81280,1,4,0:0:0:0:
146,212,81580,6,0,P|183:235|248:225,1,87.9999961853028,0|0,1:0|1:0,0:0:0:0:
345,191,81880,1,0,1:0:0:0:
392,24,82030,1,0,1:0:0:0:
299,112,82180,1,8,1:2:0:0:
291,68,82330,1,8,1:2:0:0:
219,145,82480,1,8,1:2:0:0:
199,139,82630,1,8,1:2:0:0:
296,330,85180,5,0,0:0:0:0:
287,324,87580,5,0,0:0:0:0:
307,315,89980,5,0,0:0:0:0:
391,166,92380,5,0,0:0:0:0:
388,176,92530,1,0,0:0:0:0:
385,186,92680,1,0,0:0:0:0:
385,186,92980,2,0,P|310:195|220:138,1,175.999992370606,2|0,0:0|0:0,0:0:0:0:
223,137,93730,1,0,0:0:0:0:
223,128,93880,1,0,0:0:0:0:
223,128,94180,6,0,P|255:186|216:269,1,131.999994277954,0|0,0:0|0:0,0:0:0:0:
159,286,94780,1,0,0:0:0:0:
155,278,94930,1,0,0:0:0:0:
151,270,95080,1,0,0:0:0:0:
151,270,95380,2,0,L|341:290,1,175.999992370606,2|0,0:0|0:0,0:0:0:0:
334,289,96130,1,0,0:0:0:0:
342,290,96280,1,0,0:0:0:0:
342,290,96580,6,0,P|393:235|393:155,1,131.999994277954,0|0,0:0|0:0,0:0:0:0:
372,101,97180,1,0,0:0:0:0:
363,98,97330,1,0,0:0:0:0:
354,95,97480,1,0,0:0:0:0:
264,66,97780,2,0,L|280:166,1,87.9999961853028,2|0,0:0|0:0,0:0:0:0:
158,127,98380,5,0,0:0:0:0:
156,135,98530,1,0,0:0:0:0:
154,144,98680,1,0,0:0:0:0:
129,226,98980,1,0,0:0:0:0:
248,326,99280,5,0,0:0:0:0:
248,326,99580,1,0,0:0:0:0:
256,324,99730,1,0,0:0:0:0:
264,322,99880,1,0,0:0:0:0:
350,301,100180,5,2,0:0:0:0:
350,301,100480,1,0,0:0:0:0:
358,299,100630,1,0,0:0:0:0:
366,297,100780,1,0,0:0:0:0:
374,294,100930,1,0,0:0:0:0:
382,292,101080,2,0,L|372:350,1,43.9999980926514,0|0,0:0|0:0,0:0:0:0:
431,205,101380,5,2,0:0:0:0:
407,211,101530,1,0,0:0:0:0:
345,122,101680,5,2,0:0:0:0:
509,172,101830,1,0,0:0:0:0:
299,255,101980,5,4,1:0:0:0:
104,182,102130,2,0,P|106:152|125:113,1,54.9999976158142,0|0,0:0|0:0,0:0:0:0:
394,136,102430,5,0,0:0:0:0:
92,103,102580,2,0,P|89:150|106:185,1,82.4999995708466,0|0,1:2|0:0,0:0:0:0:
316,208,102880,5,0,0:0:0:0:
67,205,103030,2,0,P|67:147|109:87,1,109.999995231628,0|0,0:0|0:0,0:0:0:0:
187,22,103330,5,0,0:0:0:0:
249,306,103480,2,0,P|200:278|149:277,1,87.9999961853028,0|0,3:0|0:0,0:0:0:0:
162,278,103780,2,0,P|211:306|262:307,1,87.9999961853028,0|0,1:2|0:0,0:0:0:0:
411,95,104080,2,0,P|368:60|321:54,1,87.9999961853028,0|0,0:0|0:0,0:0:0:0:
337,53,104380,6,0,P|356:188|232:134,1,329.999985694885,2|0,0:0|0:0,0:0:0:0:
484,359,104980,2,0,P|366:286|194:353,1,329.999985694885,8|0,1:2|0:0,0:0:0:0:
46,233,105580,2,0,P|75:186|77:147,1,65.9999951248171,0|0,3:0|3:0,0:0:0:0:
32,244,105880,1,0,3:0:0:0:
181,19,106180,2,0,P|213:49|236:109,1,87.9999961853028,8|0,0:0|0:0,0:0:0:0:
165,241,106480,1,0,0:0:0:0:
263,231,106630,1,0,0:0:0:0:
162,256,106780,5,4,0:0:0:0:
422,340,106930,2,0,P|435:303|433:275,1,54.9999976158142,0|0,0:0|0:0,0:0:0:0:
160,269,107230,5,0,0:0:0:0:
428,208,107380,2,0,P|452:243|442:329,1,82.4999995708466,0|0,1:0|0:0,0:0:0:0:
159,279,107680,5,0,0:0:0:0:
472,341,107830,6,0,P|501:266|477:188,1,109.999995231628,0|0,0:0|0:0,0:0:0:0:
446,105,108130,1,0,0:0:0:0:
170,147,108280,2,0,P|204:177|286:180,1,87.9999961853028,0|0,3:0|0:0,0:0:0:0:
254,186,108580,2,0,P|220:156|138:153,1,87.9999961853028,0|0,1:0|0:0,0:0:0:0:
338,371,108880,2,0,P|377:356|417:313,1,87.9999961853028,0|0,0:0|0:0,0:0:0:0:
409,326,109180,6,0,P|274:306|363:204,1,329.999985694885,2|0,0:0|3:0,0:0:0:0:
467,21,109780,2,0,P|343:88|110:36,1,329.999985694885,0|0,1:0|3:0,0:0:0:0:
103,150,110380,6,0,P|145:198|157:252,1,87.9999961853028,0|0,1:0|1:0,0:0:0:0:
149,303,110680,1,0,1:0:0:0:
67,338,110830,1,0,1:0:0:0:
434,357,110980,1,8,1:2:0:0:
232,264,111130,1,8,1:2:0:0:
512,157,111280,1,8,1:2:0:0:
358,297,111430,1,8,1:2:0:0:
373,209,111580,5,4,1:0:0:0:
418,84,111730,2,0,P|429:113|431:153,1,54.9999976158142,0|0,0:0|0:0,0:0:0:0:
365,19,112030,5,0,0:0:0:0:
129,200,112180,2,0,P|134:138|167:85,1,82.4999995708466,0|0,1:0|0:0,0:0:0:0:
185,49,112480,5,0,0:0:0:0:
433,302,112630,2,0,P|395:278|284:291,1,109.999995231628,0|0,0:0|0:0,0:0:0:0:
479,221,112930,1,0,0:0:0:0:
247,303,113080,2,0,P|205:327|128:318,1,87.9999961853028,0|0,3:0|0:0,0:0:0:0:
30,263,113380,2,0,P|17:203|31:152,1,87.9999961853028,0|0,1:0|0:0,0:0:0:0:
24,99,113680,2,0,P|36:140|33:184,1,87.9999961853028,0|0,0:0|0:0,0:0:0:0:
320,257,113980,2,0,P|346:206|243:268,1,329.999985694885,2|0,0:0|0:0,0:0:0:0:
452,259,114580,2,0,P|464:181|446:127,1,109.999995231628,0|0,1:0|0:0,0:0:0:0:
457,151,114880,6,0,P|452:109|461:79,1,54.9999976158142,0|0,0:0|0:0,0:0:0:0:
478,22,115180,1,0,3:0:0:0:
320,257,115480,1,0,3:0:0:0:
88,37,115780,1,0,1:0:0:0:
88,37,116080,5,0,0:0:0:0:
93,52,116230,1,0,0:0:0:0:
180,39,116380,1,4,0:0:0:0:
106,142,116530,2,0,P|151:121|173:75,1,54.9999976158142,0|0,0:0|0:0,0:0:0:0:
63,222,116830,5,0,0:0:0:0:
245,334,116980,2,0,P|172:319|121:275,1,82.4999995708466,0|0,1:0|0:0,0:0:0:0:
330,310,117280,5,0,0:0:0:0:
299,63,117430,2,0,P|252:111|236:186,1,109.999995231628,0|0,0:0|0:0,0:0:0:0:
436,321,117730,5,0,0:0:0:0:
399,246,117880,2,0,P|332:216|268:238,1,109.999995231628,0|0,3:0|0:0,0:0:0:0:
127,287,118180,2,0,P|120:250|122:233,1,43.9999980926514,0|0,1:0|0:0,0:0:0:0:
108,350,118480,6,0,P|103:296|139:217,1,109.999995231628,0|0,0:0|0:0,0:0:0:0:
194,142,118780,1,4,1:0:0:0:
234,236,118930,1,8,3:2:0:0:
234,236,119005,1,0,1:0:0:0:
234,236,119080,1,0,1:0:0:0:
273,51,119230,5,0,3:0:0:0:
237,325,119380,1,0,1:0:0:0:
444,177,119530,1,0,1:0:0:0:
69,215,119680,1,4,1:0:0:0:
69,215,119980,6,0,P|91:256|99:326,1,87.9999961853028,0|0,1:0|1:0,0:0:0:0:
198,117,120280,2,0,P|200:174|183:225,1,87.9999961853028,0|0,1:0|1:0,0:0:0:0:
303,211,120580,1,8,1:2:0:0:
233,307,120730,1,8,1:2:0:0:
353,76,120880,1,8,1:2:0:0:
353,363,121030,1,8,1:2:0:0:
429,231,121180,6,0,P|467:254|539:245,1,87.9999961853028,4|0,1:0|0:0,0:0:0:0:
509,256,121780,1,8,0:0:0:0:
274,26,122080,1,0,0:0:0:0:
214,85,122380,1,0,1:0:0:0:
249,162,122680,1,0,3:0:0:0:
333,158,122980,6,0,L|451:132,1,87.9999961853028,8|0,0:0|0:0,0:0:0:0:
418,139,123580,1,4,0:0:0:0:
220,379,123880,1,0,0:0:0:0:
159,327,124180,1,8,0:0:0:0:
191,254,124480,1,0,3:0:0:0:
268,239,124780,2,0,L|385:267,1,87.9999961853028,0|0,1:0|3:0,0:0:0:0:
353,259,125380,5,8,0:0:0:0:
243,15,125680,1,0,0:0:0:0:
60,70,125980,2,0,P|129:98|216:74,1,131.999994277954,4|0,3:1|0:0,0:0:0:0:
301,96,126580,2,0,P|235:89|176:116,1,131.999994277954,8|0,0:0|3:0,0:0:0:0:
136,190,127180,1,0,1:0:0:0:
155,266,127480,1,0,3:0:0:0:
354,358,127780,1,8,0:0:0:0:
373,282,128080,1,0,0:0:0:0:
451,66,128380,6,0,P|392:53|342:64,1,87.9999961853028,0|0,3:0|0:0,0:0:0:0:
199,254,128980,2,0,P|258:267|308:256,1,87.9999961853028,8|0,0:0|0:0,0:0:0:0:
364,219,129580,1,0,3:0:0:0:
364,219,129880,1,0,3:0:0:0:
364,219,130180,5,8,1:2:0:0:
306,164,130330,1,8,0:2:0:0:
227,151,130480,1,8,0:2:0:0:
154,183,130630,1,8,0:2:0:0:
35,189,130780,6,0,P|99:182|183:221,1,131.999994277954,4|0,1:0|0:0,0:0:0:0:
161,204,131380,1,8,0:0:0:0:
140,280,131680,1,0,3:0:0:0:
475,263,131980,1,0,1:0:0:0:
453,187,132280,1,0,3:0:0:0:
288,369,132580,1,8,0:0:0:0:
288,369,132880,6,0,P|308:368|344:340,1,43.9999980926514,0|0,0:0|0:0,0:0:0:0:
392,295,133180,2,0,P|326:315|260:287,1,131.999994277954,4|0,0:0|0:0,0:0:0:0:
269,295,133780,5,8,0:0:0:0:
431,221,134080,1,0,0:0:0:0:
214,165,134380,5,0,1:0:0:0:
52,239,134680,1,0,3:0:0:0:
353,186,134980,2,0,L|364:117,1,43.9999980926514,8|0,0:0|0:0,0:0:0:0:
429,93,135280,1,0,0:0:0:0:
429,93,135580,6,0,P|360:111|291:63,1,131.999994277954,0|0,3:0|0:0,0:0:0:0:
308,85,136180,1,8,0:0:0:0:
401,259,136480,1,0,0:0:0:0:
226,352,136780,1,0,1:0:0:0:
134,178,137080,1,0,3:0:0:0:
274,208,137380,5,8,0:0:0:0:
274,208,137680,1,0,0:0:0:0:
368,158,137980,6,0,P|315:173|274:209,1,109.999995231628,4|0,1:0|0:0,0:0:0:0:
170,187,138280,2,0,P|219:210|273:209,1,109.999995231628,4|0,0:1|0:0,0:0:0:0:
292,287,138580,2,0,P|290:246|273:208,1,82.4999995708466,4|0,0:1|0:0,0:0:0:0:
49,122,138880,2,0,P|32:159|30:200,1,82.4999995708466,4|0,0:1|0:0,0:0:0:0:
319,184,139180,6,0,P|360:77|326:-24,1,163.366323381695,4|0,0:1|0:0,0:0:0:0:
274,243,139480,6,0,P|345:332|450:353,1,163.366323381695,4|0,0:1|0:0,0:0:0:0:
245,180,139780,6,0,P|141:200|70:281,1,163.366323381695,4|0,1:0|0:0,0:0:0:0:
274,209,140080,5,4,1:0:0:0:
