osu file format v14

[General]
AudioFilename: audio.mp3
AudioLeadIn: 0
PreviewTime: 61185
Countdown: 0
SampleSet: Soft
StackLeniency: 0.7
Mode: 0
LetterboxInBreaks: 0
WidescreenStoryboard: 1

[Editor]
DistanceSpacing: 1.4
BeatDivisor: 4
GridSize: 4
TimelineZoom: 0.8000001

[Metadata]
Title:Shiroki Yami no Arabesque
TitleUnicode:白き闇のアラベスク
Artist:Marie
ArtistUnicode:真理絵
Creator:Fushimi Rio
Version:Misure's Hard
Source:バタフライシーカー
Tags:Silkysplus シルキーズプラス Seeker Visual novel Eroge Short Ver PinkHeart Misure irotuk
BeatmapID:1628505
BeatmapSetID:746689

[Difficulty]
HPDrainRate:5
CircleSize:4
OverallDifficulty:6
ApproachRate:8
SliderMultiplier:1.99999990463257
SliderTickRate:1

[Events]
//Background and Video events
0,0,"bg1.jpg",0,0
//Break Periods
2,85380,91630
//Storyboard Layer 0 (Background)
//Storyboard Layer 1 (Fail)
//Storyboard Layer 2 (Pass)
//Storyboard Layer 3 (Foreground)
//Storyboard Sound Samples

[TimingPoints]
1180,600,4,2,1,5,1,0
13180,-100,4,2,1,30,0,0
22780,-125,4,2,1,25,0,0
41980,-125,4,2,1,40,0,0
58780,-125,4,2,1,25,0,0
59080,-100,4,2,1,50,0,0
59380,-125,4,2,1,35,0,0
59980,-125,4,2,1,45,0,0
60580,-125,4,2,1,55,0,0
61180,-100,4,2,1,30,0,0
63580,-83.3333333333333,4,2,1,50,0,1
72880,-83.3333333333333,4,2,1,40,0,0
73180,-83.3333333333333,4,2,1,50,0,1
80380,-83.3333333333333,4,2,1,60,0,1
82780,-125,4,2,1,50,0,0
83380,-125,4,2,1,25,0,0
83980,-125,4,2,1,20,0,0
84580,-125,4,2,1,15,0,0
85180,-125,4,2,1,10,0,0
92380,-125,4,2,1,25,0,0
97180,-125,4,2,1,35,0,0
100780,-125,4,2,1,45,0,0
101980,-83.3333333333333,4,2,1,60,0,1
111280,-83.3333333333333,4,2,1,50,0,0
111580,-83.3333333333333,4,2,1,60,0,1
118780,-83.3333333333333,4,2,1,70,0,1
121030,-83.3333333333333,4,2,1,50,0,1
121180,-100,4,2,1,70,0,0
121330,-100,4,2,1,70,0,0
130780,-100,4,2,1,70,0,0
130930,-100,4,2,1,70,0,0
137980,-125,4,2,1,70,0,0
138580,-111.111111111111,4,2,1,70,0,0
139180,-100,4,2,1,70,0,0
139480,-90.9090909090909,4,2,1,55,0,0
139780,-83.3333333333333,4,2,1,70,0,0
140080,-76.9230769230769,4,2,1,65,0,0
140230,-125,4,2,1,30,0,0

[Colours]
Combo1 : 128,128,255
Combo2 : 255,128,128
Combo3 : 255,128,255
Combo4 : 255,128,192
Combo5 : 0,128,255

[HitObjects]
476,48,13180,6,0,L|378:71,1,99.9999952316285,4|0,0:0|0:0,0:0:0:0:
276,28,13780,2,0,L|294:126,1,99.9999952316285,8|0,0:0|0:0,0:0:0:0:
323,232,14380,2,0,P|273:234|227:214,1,99.9999952316285,0|0,0:0|0:0,0:0:0:0:
140,148,14980,2,0,P|120:193|122:243,1,99.9999952316285,8|0,0:0|0:0,0:0:0:0:
164,344,15580,6,0,L|262:321,2,99.9999952316285,2|0|8,0:0|0:0|0:0,0:0:0:0:
364,364,16480,1,0,1:0:0:0:
364,364,16630,1,0,1:0:0:0:
364,364,16780,2,0,L|396:269,1,99.9999952316285,0|0,0:0|0:0,0:0:0:0:
312,196,17380,2,0,P|294:149|297:99,1,99.9999952316285,8|0,0:0|0:0,0:0:0:0:
397,42,17980,5,4,0:0:0:0:
472,121,18280,1,0,0:0:0:0:
420,216,18580,1,8,0:0:0:0:
312,196,18880,1,0,0:0:0:0:
299,88,19180,1,0,0:0:0:0:
191,69,19480,1,0,0:0:0:0:
139,163,19780,1,8,0:0:0:0:
214,243,20080,1,0,0:0:0:0:
156,336,20380,6,0,P|107:343|60:328,1,99.9999952316285,2|0,0:0|0:0,0:0:0:0:
4,232,20980,1,8,0:0:0:0:
72,148,21280,2,0,P|64:124|50:103,2,49.9999976158143,0|0|0,1:0|1:0|0:0,0:0:0:0:
160,212,21880,1,0,0:0:0:0:
160,212,22030,1,0,0:0:0:0:
160,212,22180,2,0,P|172:190|189:172,1,49.9999976158143,8|0,0:0|1:0,0:0:0:0:
244,184,22480,1,0,1:0:0:0:
224,72,22780,5,4,0:0:0:0:
224,72,22930,1,0,0:0:0:0:
384,16,23380,2,0,L|366:175,1,159.999992370606,0|0,1:0|0:0,0:0:0:0:
366,174,24580,2,0,P|403:162|442:168,1,79.9999961853028,0|0,1:0|3:0,0:0:0:0:
511,257,25180,5,0,3:0:0:0:
511,257,25330,1,0,0:0:0:0:
404,384,25780,1,2,0:0:0:0:
306,329,26080,1,0,1:0:0:0:
306,329,26230,2,0,L|315:250,1,79.9999961853028,0|0,1:0|0:0,0:0:0:0:
358,213,26680,1,0,3:0:0:0:
306,113,26980,1,0,1:0:0:0:
194,131,27280,1,0,3:0:0:0:
176,243,27580,5,0,3:0:0:0:
176,243,27730,1,0,0:0:0:0:
20,296,28180,2,0,L|1:137,1,159.999992370606,0|0,1:0|0:0,0:0:0:0:
1,137,29380,2,0,P|38:149|77:143,1,79.9999961853028,0|0,1:0|3:0,0:0:0:0:
120,40,29980,5,0,3:0:0:0:
120,40,30130,1,0,0:0:0:0:
236,164,30580,1,0,0:0:0:0:
316,84,30880,1,0,1:0:0:0:
316,84,31030,2,0,L|237:75,1,79.9999961853028,0|0,1:0|0:0,0:0:0:0:
200,32,31480,1,0,3:0:0:0:
100,84,31780,1,0,1:0:0:0:
118,196,32080,1,0,3:0:0:0:
230,214,32380,5,4,0:0:0:0:
230,214,32530,1,0,0:0:0:0:
328,76,32980,2,0,L|487:58,1,159.999992370606,0|0,1:0|0:0,0:0:0:0:
486,58,34180,2,0,P|449:46|410:52,1,79.9999961853028,0|0,1:0|3:0,0:0:0:0:
439,160,34780,5,0,3:0:0:0:
439,160,34930,1,0,0:0:0:0:
323,284,35380,1,2,0:0:0:0:
243,204,35680,1,0,1:0:0:0:
243,204,35830,2,0,L|322:195,1,79.9999961853028,0|0,1:0|0:0,0:0:0:0:
359,152,36280,1,0,3:0:0:0:
459,204,36580,1,0,1:0:0:0:
441,316,36880,1,0,3:0:0:0:
326,350,37180,5,0,3:0:0:0:
326,350,37330,1,0,0:0:0:0:
180,264,37780,2,0,L|198:105,1,159.999992370606,0|0,1:0|0:0,0:0:0:0:
198,105,38980,2,0,P|210:142|203:181,1,79.9999961853028,0|0,1:0|3:0,0:0:0:0:
96,212,39580,5,0,3:0:0:0:
96,212,39730,1,0,0:0:0:0:
160,368,40180,1,2,0:0:0:0:
232,280,40480,1,0,1:0:0:0:
232,280,40630,2,0,L|311:271,1,79.9999961853028,0|0,1:0|3:0,0:0:0:0:
360,300,41080,1,0,3:0:0:0:
428,212,41380,2,0,P|437:173|426:135,1,79.9999961853028,0|0,1:0|3:0,0:0:0:0:
324,91,41980,6,0,P|400:94|445:32,1,159.999992370606,4|8,0:0|0:0,0:0:0:0:
220,48,42880,1,0,0:0:0:0:
220,48,43030,1,0,0:0:0:0:
220,48,43180,2,0,L|229:86,2,39.9999980926514,0|0|0,0:0|0:0|0:0,0:0:0:0:
112,12,43780,1,8,0:0:0:0:
132,124,44080,1,0,3:0:0:0:
80,224,44380,6,0,P|40:219|2:230,2,79.9999961853028,0|0|8,3:0|0:0|0:0,0:0:0:0:
144,316,45280,1,0,1:0:0:0:
144,316,45430,1,0,1:0:0:0:
144,316,45580,2,0,L|183:306,1,39.9999980926514,0|0,0:0|0:0,0:0:0:0:
228,340,45880,1,0,3:0:0:0:
312,264,46180,1,8,0:0:0:0:
335,374,46480,1,0,3:0:0:0:
444,348,46780,6,0,P|461:311|460:272,1,79.9999961853028,0|0,3:0|0:0,0:0:0:0:
392,184,47380,1,8,0:0:0:0:
472,108,47680,1,0,0:0:0:0:
472,108,47830,1,0,0:0:0:0:
472,108,47980,2,0,L|511:118,2,39.9999980926514,0|0|0,0:0|0:0|0:0,0:0:0:0:
420,8,48580,1,8,0:0:0:0:
348,96,48880,1,0,3:0:0:0:
276,8,49180,6,0,P|206:42|137:8,1,159.999992370606,0|8,3:0|0:0,0:0:0:0:
48,76,50080,1,0,1:0:0:0:
48,76,50230,1,0,1:0:0:0:
48,76,50380,2,0,L|42:115,1,39.9999980926514,0|0,0:0|0:0,0:0:0:0:
72,164,50680,1,0,3:0:0:0:
176,124,50980,1,0,1:0:0:0:
240,216,51280,1,0,3:0:0:0:
172,304,51580,6,0,P|96:301|51:363,1,159.999992370606,4|8,0:0|0:0,0:0:0:0:
276,347,52480,1,0,0:0:0:0:
276,347,52630,1,0,0:0:0:0:
276,347,52780,2,0,L|267:309,1,39.9999980926514,0|0,0:0|0:0,0:0:0:0:
300,264,53080,1,0,0:0:0:0:
244,168,53380,2,0,P|204:168|170:189,1,79.9999961853028,8|0,0:0|3:0,0:0:0:0:
107,282,53980,5,0,3:0:0:0:
0,247,54280,1,0,0:0:0:0:
0,135,54580,1,8,0:0:0:0:
105,98,54880,1,0,1:0:0:0:
105,98,55030,1,0,1:0:0:0:
105,98,55180,2,0,L|101:48,2,39.9999980926514,0|0|0,0:0|0:0|0:0,0:0:0:0:
170,188,55780,1,8,0:0:0:0:
252,112,56080,1,0,3:0:0:0:
340,180,56380,6,0,P|343:219|330:257,1,79.9999961853028,0|0,3:0|0:0,0:0:0:0:
244,332,56980,1,8,0:0:0:0:
164,256,57280,1,0,0:0:0:0:
164,256,57430,1,0,0:0:0:0:
164,256,57580,2,0,L|156:204,1,39.9999980926514,0|0,0:0|0:0,0:0:0:0:
128,168,57880,1,0,0:0:0:0:
184,72,58180,2,0,P|222:86|261:81,1,79.9999961853028,8|0,0:0|3:0,0:0:0:0:
360,0,58780,6,0,P|365:19|367:39,3,39.9999980926514,0|0|0|0,0:0|0:0|0:0|0:0,0:0:0:0:
424,96,59380,2,0,P|419:115|410:133,3,39.9999980926514,0|0|0|0,3:0|3:0|3:0|3:0,0:0:0:0:
453,225,59980,1,0,1:0:0:0:
453,225,60130,1,0,1:0:0:0:
453,225,60280,1,0,1:0:0:0:
453,225,60430,1,0,1:0:0:0:
453,225,60580,2,0,P|438:239|422:250,1,39.9999980926514,8|8,1:2|1:2,0:0:0:0:
401,328,60880,2,0,P|381:333|362:335,1,39.9999980926514,8|8,1:2|1:2,0:0:0:0:
312,248,61180,5,2,0:0:0:0:
219,209,61480,1,0,0:0:0:0:
124,242,61780,1,2,0:0:0:0:
84,334,62080,1,0,0:0:0:0:
94,344,62380,5,2,0:0:0:0:
133,251,62680,1,0,0:0:0:0:
100,156,62980,1,2,0:0:0:0:
8,116,63280,1,0,0:0:0:0:
0,129,63580,5,4,1:0:0:0:
8,213,63730,2,0,P|63:230|114:202,1,119.999990615845,0|0,0:0|0:0,0:0:0:0:
146,123,64180,2,0,P|146:180|189:220,1,119.999990615845,0|0,1:0|0:0,0:0:0:0:
274,226,64630,2,0,P|219:244|194:297,1,119.999990615845,0|0,0:0|0:0,0:0:0:0:
215,379,65080,1,0,0:0:0:0:
215,379,65380,2,0,P|180:332|122:325,1,119.999990615845,0|0,1:0|0:0,0:0:0:0:
122,326,65980,6,0,P|234:331|272:226,1,239.99998123169,2|0,0:0|1:0,3:3:0:0:
132,136,66880,1,0,3:0:0:0:
132,136,67030,1,0,0:0:0:0:
51,111,67180,2,0,P|22:61|28:2,2,119.999990615845,0|0|0,3:0|0:0|1:0,0:0:0:0:
220,68,68080,1,0,0:0:0:0:
220,68,68230,1,0,0:0:0:0:
280,8,68380,5,4,0:0:0:0:
352,52,68530,2,0,P|364:108|331:156,1,119.999990615845,0|0,0:0|0:0,0:0:0:0:
250,181,68980,2,0,P|306:185|342:232,1,119.999990615845,0|0,1:0|0:0,0:0:0:0:
342,316,69430,2,0,P|364:262|419:242,1,119.999990615845,0|0,0:0|0:0,0:0:0:0:
499,272,69880,1,0,0:0:0:0:
499,272,70180,2,0,P|455:233|453:174,1,119.999990615845,0|0,1:0|0:0,0:0:0:0:
452,175,70780,6,0,P|449:287|341:317,1,239.99998123169,2|0,0:0|1:0,3:3:0:0:
220,188,71680,1,0,3:0:0:0:
220,188,71830,1,0,0:0:0:0:
203,107,71980,2,0,P|157:68|98:65,1,119.999990615845,4|0,3:1|1:0,0:0:0:0:
52,252,72580,5,8,1:2:0:0:
52,252,72730,1,8,1:2:0:0:
128,288,72880,2,0,P|156:280|180:264,1,59.9999953079226,8|8,1:2|1:2,0:0:0:0:
220,188,73180,5,4,1:0:0:0:
203,107,73330,2,0,P|251:73|310:75,1,119.999990615845,0|0,0:0|0:0,0:0:0:0:
374,18,73780,2,0,P|420:53|437:110,1,119.999990615845,0|0,1:0|0:0,0:0:0:0:
511,153,74230,2,0,P|491:208|442:241,1,119.999990615845,0|0,0:0|0:0,0:0:0:0:
424,325,74680,1,0,0:0:0:0:
424,325,74980,2,0,P|364:323|318:287,1,119.999990615845,0|0,1:0|0:0,0:0:0:0:
318,287,75580,6,0,P|249:375|144:336,1,239.99998123169,2|0,0:0|1:0,3:3:0:0:
176,168,76480,1,0,3:0:0:0:
176,168,76630,1,0,0:0:0:0:
195,86,76780,2,0,P|166:35|112:11,2,119.999990615845,0|0|0,3:0|0:0|1:0,0:0:0:0:
60,188,77680,1,0,0:0:0:0:
60,188,77830,1,0,0:0:0:0:
16,260,77980,5,4,0:0:0:0:
64,332,78130,2,0,P|120:347|175:325,1,119.999990615845,0|0,0:0|0:0,0:0:0:0:
253,356,78580,2,0,P|284:307|280:248,1,119.999990615845,0|0,1:0|0:0,0:0:0:0:
336,182,79030,2,0,P|298:137|241:122,1,119.999990615845,0|0,0:0|0:0,0:0:0:0:
196,51,79480,1,0,0:0:0:0:
196,51,79780,2,0,P|140:73|109:122,1,119.999990615845,0|0,1:0|0:0,0:0:0:0:
172,312,80380,5,4,0:2:0:0:
172,312,80530,1,0,0:0:0:0:
172,312,80680,2,0,P|172:341|187:366,1,59.9999953079226,0|0,3:0|0:0,0:0:0:0:
272,360,80980,2,0,P|295:378|323:383,1,59.9999953079226,0|0,1:0|1:0,0:0:0:0:
373,314,81280,2,0,P|401:308|424:289,1,59.9999953079226,4|0,1:0|0:0,0:0:0:0:
432,204,81580,1,0,1:0:0:0:
356,40,81880,5,0,1:0:0:0:
304,104,82030,1,0,1:0:0:0:
220,92,82180,1,8,1:2:0:0:
64,184,82480,1,8,1:2:0:0:
116,248,82630,1,8,1:2:0:0:
200,236,82780,1,0,0:0:0:0:
256,192,82930,12,0,85180,0:0:0:0:
380,252,92380,6,0,P|428:189|503:163,1,159.999992370606,2|0,0:0|0:0,0:0:0:0:
276,80,93580,2,0,P|324:142|399:168,1,159.999992370606,2|0,0:0|0:0,0:0:0:0:
160,184,94780,6,0,L|137:25,1,159.999992370606,2|0,0:0|0:0,0:0:0:0:
196,260,95980,2,0,L|218:101,1,159.999992370606,2|0,0:0|0:0,0:0:0:0:
10,153,97180,6,0,P|81:188|160:184,1,159.999992370606,2|0,0:0|0:0,0:0:0:0:
400,212,98380,2,0,P|321:207|250:242,1,159.999992370606,2|0,0:0|0:0,0:0:0:0:
76,324,99580,6,0,L|233:350,1,159.999992370606,2|0,0:0|0:0,0:0:0:0:
364,196,100780,2,0,L|374:275,1,79.9999961853028,2|0,0:0|0:0,0:0:0:0:
471,104,101380,2,0,L|460:183,1,79.9999961853028,2|0,0:0|0:0,0:0:0:0:
352,92,101980,5,4,1:0:0:0:
277,56,102130,2,0,P|260:31|253:2,2,59.9999953079226,0|0|0,0:0|0:0|0:0,0:0:0:0:
217,112,102580,2,0,P|190:98|169:77,1,59.9999953079226,0|0,1:2|0:0,0:0:0:0:
197,244,102880,1,0,0:0:0:0:
272,208,103030,2,0,P|288:183|295:154,2,59.9999953079226,0|0|0,0:0|0:0|0:0,0:0:0:0:
332,264,103480,2,0,P|358:250|379:229,1,59.9999953079226,0|0,3:0|0:0,0:0:0:0:
385,144,103780,1,0,1:2:0:0:
485,280,104080,1,0,0:0:0:0:
341,368,104380,6,0,P|279:272|166:288,1,239.99998123169,2|8,0:0|1:2,0:0:0:0:
20,372,105280,1,0,0:0:0:0:
60,296,105430,1,0,0:0:0:0:
12,228,105580,2,0,L|1:108,2,119.999990615845,0|0|8,3:0|0:0|0:0,0:0:0:0:
168,288,106480,1,0,0:0:0:0:
244,248,106630,1,0,0:0:0:0:
312,296,106780,5,4,0:0:0:0:
348,221,106930,2,0,P|372:204|401:197,2,59.9999953079226,0|0|0,0:0|0:0|0:0,0:0:0:0:
292,161,107380,2,0,P|305:134|326:113,1,59.9999953079226,0|0,1:0|0:0,0:0:0:0:
154,149,107680,1,0,0:0:0:0:
190,224,107830,2,0,P|214:240|243:247,2,59.9999953079226,0|0|0,0:0|0:0|0:0,0:0:0:0:
134,284,108280,2,0,P|147:310|168:331,1,59.9999953079226,0|0,3:0|0:0,0:0:0:0:
252,328,108580,1,0,1:0:0:0:
328,180,108880,1,0,0:0:0:0:
208,60,109180,6,0,P|140:151|29:127,1,239.99998123169,2|0,0:0|1:0,0:0:0:0:
76,288,110080,1,0,3:0:0:0:
140,232,110230,1,0,3:0:0:0:
217,264,110380,2,0,L|243:381,1,119.999990615845,0|0,1:0|1:0,0:0:0:0:
404,332,110980,5,8,1:2:0:0:
352,268,111130,1,8,1:2:0:0:
376,188,111280,2,0,L|432:166,1,59.9999953079226,8|8,1:2|1:2,0:0:0:0:
432,84,111580,5,4,1:0:0:0:
352,64,111730,2,0,P|335:39|326:10,2,59.9999953079226,0|0|0,0:0|0:0|0:0,0:0:0:0:
308,136,112180,2,0,P|278:133|249:141,1,59.9999953079226,0|0,1:0|0:0,0:0:0:0:
128,216,112480,1,0,0:0:0:0:
108,136,112630,2,0,P|83:119|54:110,2,59.9999953079226,0|0|0,0:0|0:0|0:0,0:0:0:0:
180,92,113080,2,0,P|177:62|185:33,1,59.9999953079226,0|0,3:0|0:0,0:0:0:0:
249,141,113380,1,0,1:0:0:0:
180,292,113680,1,0,0:0:0:0:
12,280,113980,6,0,P|124:296|186:200,1,239.99998123169,2|0,0:0|1:0,0:0:0:0:
185,33,114880,1,0,0:0:0:0:
236,100,115030,1,0,0:0:0:0:
308,56,115180,2,0,L|427:45,2,119.999990615845,0|0|0,3:0|0:0|1:0,0:0:0:0:
312,224,116080,1,0,0:0:0:0:
367,160,116230,1,0,0:0:0:0:
431,213,116380,5,4,0:0:0:0:
377,277,116530,2,0,P|368:306|370:335,2,59.9999953079226,0|0|0,0:0|0:0|0:0,0:0:0:0:
312,224,116980,2,0,P|284:236|254:238,1,59.9999953079226,0|0,1:0|0:0,0:0:0:0:
115,210,117280,1,0,0:0:0:0:
124,292,117430,2,0,P|105:316|82:334,2,59.9999953079226,0|0|0,0:0|0:0|0:0,0:0:0:0:
206,309,117880,2,0,P|213:337|230:362,1,59.9999953079226,0|0,3:0|0:0,0:0:0:0:
312,384,118180,1,0,1:0:0:0:
460,308,118480,1,0,0:0:0:0:
484,112,118780,5,4,1:0:0:0:
484,112,118930,1,8,3:2:0:0:
484,112,119080,2,0,P|459:95|430:86,1,59.9999953079226,0|0,1:0|3:0,0:0:0:0:
368,32,119380,2,0,P|337:35|309:46,1,59.9999953079226,0|0,1:0|1:0,0:0:0:0:
227,45,119680,2,0,P|205:66|192:93,1,59.9999953079226,4|0,1:0|0:0,0:0:0:0:
192,176,119980,1,0,1:0:0:0:
288,320,120280,5,0,1:0:0:0:
288,320,120430,1,0,1:0:0:0:
225,375,120580,2,0,L|167:359,1,59.9999953079226,8|8,1:2|1:2,0:0:0:0:
60,296,120880,2,0,L|118:281,1,59.9999953079226,8|8,1:2|1:2,0:0:0:0:
28,376,121180,6,0,L|0:178,2,199.999990463257,4|8|0,1:0|0:0|1:0,0:0:0:0:
176,324,122680,1,0,3:0:0:0:
108,192,122980,1,8,0:0:0:0:
71,294,123280,1,0,0:0:0:0:
0,120,123580,6,0,L|194:73,2,199.999990463257,4|8|0,0:0|0:0|1:0,0:0:0:0:
80,48,125080,1,0,3:0:0:0:
132,144,125380,1,8,0:0:0:0:
212,0,125680,1,0,0:0:0:0:
312,136,125980,6,0,L|506:183,2,199.999990463257,4|8|0,3:1|0:0|1:0,0:0:0:0:
432,120,127480,1,0,3:0:0:0:
464,236,127780,1,8,0:0:0:0:
308,236,128080,1,0,0:0:0:0:
332,384,128380,6,0,L|430:364,2,99.9999952316285,0|0|8,3:0|0:0|0:0,0:0:0:0:
220,340,129280,1,0,0:0:0:0:
272,232,129580,2,0,L|369:254,1,99.9999952316285,0|0,3:0|3:0,0:0:0:0:
464,180,130180,1,8,1:2:0:0:
464,180,130330,1,8,0:2:0:0:
464,180,130480,2,0,L|449:132,1,49.9999976158143,8|8,0:2|0:2,0:0:0:0:
468,28,130780,6,0,P|409:104|313:98,2,199.999990463257,4|8|0,1:0|0:0|1:0,0:0:0:0:
392,160,132280,1,0,3:0:0:0:
324,60,132580,1,8,0:0:0:0:
264,204,132880,1,0,0:0:0:0:
92,156,133180,6,0,P|97:60|21:1,2,199.999990463257,4|8|0,0:0|0:0|1:0,0:0:0:0:
272,128,134680,1,0,3:0:0:0:
212,232,134980,1,8,0:0:0:0:
152,80,135280,1,0,0:0:0:0:
120,292,135580,6,0,P|215:286|274:362,2,199.999990463257,4|8|0,3:1|0:0|1:0,0:0:0:0:
244,380,137080,1,0,3:0:0:0:
304,228,137380,1,8,0:0:0:0:
380,320,137680,1,0,0:0:0:0:
480,140,137980,6,0,L|401:157,1,79.9999961853028,4|4,1:0|0:1,0:0:0:0:
216,208,138580,2,0,L|303:227,1,89.9999929618838,4|4,0:1|0:1,0:0:0:0:
316,68,139180,6,0,L|305:116,1,49.9999976158143,4|0,0:1|0:0,0:0:0:0:
192,12,139480,2,0,L|203:65,1,54.9999990558624,4|0,0:1|0:0,0:0:0:0:
328,80,139780,2,0,L|316:138,1,59.9999953079226,4|0,1:0|0:0,0:0:0:0:
120,64,140080,2,0,L|134:127,1,64.9999939250949,4|0,1:0|0:0,0:0:0:0:
