osu file format v14

[General]
AudioFilename: audio.mp3
AudioLeadIn: 0
PreviewTime: 61185
Countdown: 0
SampleSet: Soft
StackLeniency: 0.7
Mode: 0
LetterboxInBreaks: 0
WidescreenStoryboard: 0

[Editor]
Bookmarks: 13185,22785,41985,61185,63585,68380,85185,92385,101985,121185,137985,140385
DistanceSpacing: 1.1
BeatDivisor: 4
GridSize: 16
TimelineZoom: 1

[Metadata]
Title:Shiroki Yami no Arabesque
TitleUnicode:白き闇のアラベスク
Artist:Marie
ArtistUnicode:真理絵
Creator:Fushimi Rio
Version:Insane
Source:バタフライシーカー
Tags:Silkysplus シルキーズプラス Seeker Visual novel Eroge Short Ver PinkHeart Misure irotuk
BeatmapID:1575468
BeatmapSetID:746689

[Difficulty]
HPDrainRate:7
CircleSize:4
OverallDifficulty:8
ApproachRate:9
SliderMultiplier:3.59999990463257
SliderTickRate:1

[Events]
//Background and Video events
0,0,"bg1.jpg",0,0
//Break Periods
2,92380,101380
//Storyboard Layer 0 (Background)
//Storyboard Layer 1 (Fail)
//Storyboard Layer 2 (Pass)
//Storyboard Layer 3 (Foreground)
//Storyboard Sound Samples

[TimingPoints]
1180,600,4,2,1,5,1,0
13180,-200,4,2,1,30,0,0
41980,-200,4,2,1,40,0,0
59080,-200,4,2,1,50,0,0
61330,-200,4,2,1,30,0,0
63580,-133.333333333333,4,2,1,50,0,1
82780,-100,4,2,1,50,0,0
101980,-100,4,2,1,70,0,1
121030,-100,4,2,1,50,0,0
121180,-100,4,2,1,70,0,1
121330,-133.333333333333,4,2,1,70,0,0
130780,-100,4,2,1,70,0,1
130930,-133.333333333333,4,2,1,70,0,0
137980,-100,4,2,1,70,0,1
138580,-76.9230769230769,4,2,1,70,0,1
139180,-62.5,4,2,1,70,0,1
139780,-52.6315789473684,4,2,1,70,0,1
140230,-52.6315789473684,4,2,1,70,0,0

[Colours]
Combo1 : 128,128,255
Combo2 : 255,128,128
Combo3 : 255,128,255
Combo4 : 255,128,192
Combo5 : 0,128,255

[HitObjects]
256,192,1180,12,0,12580,0:0:0:0:
291,171,13180,5,4,0:0:0:0:
266,84,13480,1,0,0:0:0:0:
352,59,13780,1,8,0:0:0:0:
377,146,14080,1,0,0:0:0:0:
275,203,14380,2,0,L|355:203,1,44.9999988079071,0|0,0:0|0:0,0:0:0:0:
387,251,14680,1,0,0:0:0:0:
387,251,14980,2,0,L|499:251,1,89.9999976158143,8|0,0:0|0:0,0:0:0:0:
214,315,15580,5,2,0:0:0:0:
189,228,15880,1,0,0:0:0:0:
275,203,16180,1,8,0:0:0:0:
300,290,16480,1,0,1:0:0:0:
300,290,16630,2,0,L|210:290,1,89.9999976158143,0|0,1:0|1:0,0:0:0:0:
140,331,17080,1,0,0:0:0:0:
140,331,17380,2,0,L|28:331,1,89.9999976158143,8|0,0:0|0:0,0:0:0:0:
271,178,17980,5,4,0:0:0:0:
296,265,18280,1,0,0:0:0:0:
210,290,18580,1,8,0:0:0:0:
185,203,18880,1,0,0:0:0:0:
287,146,19180,2,0,L|207:146,1,44.9999988079071,0|0,0:0|0:0,0:0:0:0:
175,98,19480,1,0,0:0:0:0:
175,98,19780,2,0,L|63:98,1,89.9999976158143,8|0,0:0|0:0,0:0:0:0:
303,258,20380,5,2,0:0:0:0:
328,171,20680,1,0,0:0:0:0:
242,146,20980,1,8,0:0:0:0:
217,233,21280,1,0,1:0:0:0:
217,233,21430,2,0,L|307:233,1,89.9999976158143,0|0,1:0|1:0,0:0:0:0:
377,274,21880,1,0,0:0:0:0:
377,274,22180,5,8,0:0:0:0:
462,202,22330,1,0,1:0:0:0:
462,202,22480,2,0,L|414:202,1,44.9999988079071,0|0,1:0|0:0,0:0:0:0:
312,159,22780,5,4,0:0:0:0:
312,159,23380,2,0,P|371:143|411:38,2,179.999995231629,0|0|0,1:0|0:0|1:0,0:0:0:0:
218,108,24880,1,0,3:0:0:0:
129,211,25180,2,0,P|70:195|30:90,1,179.999995231629,0|2,3:0|0:0,0:0:0:0:
107,320,26080,1,0,1:0:0:0:
107,320,26230,2,0,P|170:296|199:298,1,89.9999976158143,0|0,1:0|0:0,0:0:0:0:
285,329,26680,1,0,3:0:0:0:
285,329,26980,2,0,P|329:325|369:305,1,89.9999976158143,0|0,1:0|3:0,0:0:0:0:
413,217,27580,5,0,3:0:0:0:
413,217,28180,2,0,P|354:201|314:96,2,179.999995231629,0|0|0,1:0|0:0|1:0,0:0:0:0:
205,198,29680,1,0,3:0:0:0:
205,198,29980,2,0,P|185:282|105:317,1,179.999995231629,0|0,3:0|0:0,0:0:0:0:
174,118,30880,1,0,1:0:0:0:
174,118,31030,2,0,P|236:117|267:141,1,89.9999976158143,0|0,1:0|0:0,0:0:0:0:
205,198,31480,1,0,3:0:0:0:
341,157,31780,1,0,1:0:0:0:
194,281,32080,1,0,3:0:0:0:
391,223,32380,5,4,0:0:0:0:
391,223,32980,2,0,P|450:207|490:102,2,179.999995231629,0|0|0,1:0|0:0|1:0,0:0:0:0:
313,302,34480,1,0,3:0:0:0:
206,185,34780,2,0,P|147:200|107:306,1,179.999995231629,0|2,3:0|0:0,0:0:0:0:
96,108,35680,1,0,1:0:0:0:
96,108,35830,2,0,P|159:84|188:86,1,89.9999976158143,0|0,1:0|0:0,0:0:0:0:
274,117,36280,1,0,3:0:0:0:
274,117,36580,2,0,P|318:113|358:93,1,89.9999976158143,0|0,1:0|3:0,0:0:0:0:
402,5,37180,5,0,3:0:0:0:
402,5,37780,2,0,P|343:20|303:126,2,179.999995231629,0|0|0,1:0|0:0|1:0,0:0:0:0:
383,170,39280,1,0,3:0:0:0:
462,225,39580,2,0,P|446:284|341:324,1,179.999995231629,0|2,3:0|0:0,0:0:0:0:
203,235,40480,1,0,1:0:0:0:
203,235,40630,2,0,L|131:266,1,44.9999988079071,0|0,1:0|0:0,0:0:0:0:
260,325,40930,1,0,3:0:0:0:
275,203,41080,1,0,3:0:0:0:
133,249,41380,5,0,1:0:0:0:
271,350,41680,1,0,3:0:0:0:
292,180,41980,6,0,P|320:232|432:228,1,179.999995231629,4|8,0:0|0:0,0:0:0:0:
242,282,42880,2,0,L|278:255,1,44.9999988079071,0|0,0:0|0:0,0:0:0:0:
374,169,43180,1,0,0:0:0:0:
251,128,43330,1,0,0:0:0:0:
278,255,43480,1,0,0:0:0:0:
321,72,43780,2,0,L|285:99,1,44.9999988079071,8|0,0:0|0:0,0:0:0:0:
278,255,44080,2,0,L|313:227,1,44.9999988079071,0|0,3:0|0:0,0:0:0:0:
285,99,44380,6,0,P|257:47|145:51,1,179.999995231629,0|8,3:0|0:0,0:0:0:0:
99,199,45280,1,0,1:0:0:0:
99,199,45430,2,0,L|134:171,1,44.9999988079071,0|0,1:0|0:0,0:0:0:0:
203,110,45730,1,0,0:0:0:0:
195,265,45880,1,0,3:0:0:0:
238,82,46180,2,0,L|202:109,1,44.9999988079071,8|0,0:0|0:0,0:0:0:0:
195,265,46480,2,0,L|230:237,1,44.9999988079071,0|0,3:0|0:0,0:0:0:0:
367,187,46780,6,0,P|339:239|227:234,1,179.999995231629,0|8,3:0|0:0,0:0:0:0:
417,290,47680,2,0,L|381:262,1,44.9999988079071,0|0,0:0|0:0,0:0:0:0:
285,177,47980,1,0,0:0:0:0:
408,135,48130,1,0,0:0:0:0:
381,262,48280,1,0,0:0:0:0:
338,79,48580,2,0,L|373:106,1,44.9999988079071,8|0,0:0|0:0,0:0:0:0:
381,262,48880,2,0,L|345:234,1,44.9999988079071,0|0,3:0|0:0,0:0:0:0:
203,110,49180,6,0,P|118:93|65:160,1,179.999995231629,0|8,3:0|0:0,0:0:0:0:
251,260,50080,1,0,1:0:0:0:
251,260,50230,2,0,L|216:232,1,44.9999988079071,0|0,1:0|0:0,0:0:0:0:
147,171,50530,1,0,0:0:0:0:
155,326,50680,2,0,L|196:309,1,44.9999988079071,0|0,3:0|0:0,0:0:0:0:
311,161,50980,2,0,L|269:177,1,44.9999988079071,0|0,1:0|0:0,0:0:0:0:
422,304,51280,2,0,L|463:287,1,44.9999988079071,0|0,3:0|0:0,0:0:0:0:
462,123,51580,6,0,P|434:71|322:75,1,179.999995231629,4|8,0:0|0:0,0:0:0:0:
512,21,52480,2,0,L|476:48,1,44.9999988079071,0|0,0:0|0:0,0:0:0:0:
380,134,52780,1,0,0:0:0:0:
503,175,52930,1,0,0:0:0:0:
476,48,53080,1,0,0:0:0:0:
433,231,53380,2,0,L|469:204,1,44.9999988079071,8|0,0:0|0:0,0:0:0:0:
476,48,53680,2,0,L|441:76,1,44.9999988079071,0|0,3:0|0:0,0:0:0:0:
295,180,53980,6,0,P|323:232|435:228,1,179.999995231629,0|8,3:0|0:0,0:0:0:0:
481,80,54880,1,0,1:0:0:0:
481,80,55030,2,0,L|446:108,1,44.9999988079071,0|0,1:0|0:0,0:0:0:0:
377,169,55330,1,0,0:0:0:0:
385,14,55480,1,0,0:0:0:0:
342,197,55780,2,0,L|378:170,1,44.9999988079071,8|0,0:0|0:0,0:0:0:0:
385,14,56080,2,0,L|350:42,1,44.9999988079071,0|0,3:0|0:0,0:0:0:0:
163,167,56380,6,0,P|191:115|303:120,1,179.999995231629,0|8,3:0|0:0,0:0:0:0:
113,64,57280,2,0,L|149:92,1,44.9999988079071,0|0,0:0|0:0,0:0:0:0:
245,177,57580,1,0,0:0:0:0:
122,219,57730,1,0,0:0:0:0:
149,92,57880,1,0,0:0:0:0:
192,275,58180,6,0,L|157:248,1,44.9999988079071,8|0,0:0|0:0,0:0:0:0:
357,265,58480,2,0,L|321:237,1,44.9999988079071,0|0,3:0|0:0,0:0:0:0:
260,120,58780,5,0,0:0:0:0:
260,120,58930,1,0,0:0:0:0:
84,56,59080,5,0,0:0:0:0:
84,56,59230,1,0,0:0:0:0:
140,176,59380,5,0,3:0:0:0:
140,176,59530,1,0,3:0:0:0:
204,0,59680,5,0,3:0:0:0:
204,0,59830,1,0,3:0:0:0:
41,146,59980,5,0,1:0:0:0:
51,225,60130,1,0,1:0:0:0:
116,272,60280,1,0,1:0:0:0:
194,256,60430,1,0,1:0:0:0:
279,215,60580,5,8,1:2:0:0:
372,228,60730,1,8,1:2:0:0:
445,288,60880,1,8,1:2:0:0:
473,378,61030,1,8,1:2:0:0:
464,197,61180,5,2,0:0:0:0:
380,362,61480,1,0,0:0:0:0:
366,169,61780,5,0,0:0:0:0:
298,301,62080,1,0,0:0:0:0:
298,301,62230,1,0,0:0:0:0:
266,121,62380,5,0,0:0:0:0:
266,121,62530,1,0,0:0:0:0:
198,253,62680,1,0,0:0:0:0:
184,60,62980,5,0,0:0:0:0:
100,224,63280,1,0,0:0:0:0:
104,4,63580,5,4,1:0:0:0:
104,4,63730,2,0,L|104:71,1,67.5000007867814,0|0,0:0|0:0,0:0:0:0:
216,95,64030,5,0,0:0:0:0:
216,95,64180,2,0,L|168:142,1,67.5000007867814,0|0,1:0|0:0,0:0:0:0:
230,238,64480,5,0,0:0:0:0:
230,238,64630,2,0,L|162:238,1,67.5000007867814,0|0,0:0|0:0,0:0:0:0:
139,350,64930,5,0,0:0:0:0:
139,350,65080,2,0,L|91:302,1,67.5000007867814,0|0,0:0|0:0,0:0:0:0:
18,258,65380,6,0,P|39:231|69:217,1,67.5000007867814,0|0,1:0|0:0,0:0:0:0:
229,241,65680,2,0,P|259:226|280:200,1,67.5000007867814,0|0,0:0|0:0,0:0:0:0:
381,0,65980,6,0,P|322:59|370:160,1,202.500002360344,2|0,0:0|0:0,3:3:0:0:
196,100,66580,2,0,P|166:115|145:141,1,67.5000007867814,0|0,1:0|0:0,3:3:0:0:
201,291,66880,2,0,P|234:293|265:280,1,67.5000007867814,0|0,3:0|0:0,0:0:0:0:
354,195,67180,5,0,3:0:0:0:
383,307,67330,1,0,0:0:0:0:
508,158,67480,2,0,P|482:185|455:194,1,67.5000007867814
377,110,67780,2,0,P|343:107|269:170,1,135.000001573563,0|0,1:0|0:0,0:0:0:0:
506,210,68380,5,4,0:0:0:0:
506,210,68530,2,0,L|447:176,1,67.5000007867814,0|0,0:0|0:0,0:0:0:0:
371,261,68830,5,0,0:0:0:0:
371,261,68980,2,0,L|354:195,1,67.5000007867814,0|0,1:0|0:0,0:0:0:0:
240,202,69280,5,0,0:0:0:0:
240,202,69430,2,0,L|274:143,1,67.5000007867814,0|0,0:0|0:0,0:0:0:0:
188,67,69730,5,0,0:0:0:0:
188,67,69880,2,0,L|253:49,1,67.5000007867814,0|0,0:0|0:0,0:0:0:0:
335,65,70180,6,0,P|337:31|325:1,1,67.5000007867814,0|0,1:0|0:0,0:0:0:0:
234,194,70480,2,0,P|231:227|244:258,1,67.5000007867814,0|0,0:0|0:0,0:0:0:0:
409,292,70780,6,0,P|378:234|315:214,1,135.000001573563,2|0,0:0|3:0,3:3:0:0:
315,214,71230,1,0,0:0:0:0:
244,258,71380,2,0,L|85:258,1,135.000001573563,0|0,1:0|3:0,3:3:0:0:
109,258,71830,1,0,0:0:0:0:
146,59,71980,5,4,3:1:0:0:
146,59,72130,1,0,3:0:0:0:
0,198,72280,5,0,1:0:0:0:
0,198,72430,1,0,1:0:0:0:
200,172,72580,5,8,1:2:0:0:
200,172,72730,1,8,1:2:0:0:
23,75,72880,5,8,1:2:0:0:
23,75,73030,1,8,1:2:0:0:
109,258,73180,5,4,1:0:0:0:
109,258,73330,2,0,L|78:197,1,67.5000007867814,0|0,0:0|0:0,0:0:0:0:
191,211,73630,5,0,0:0:0:0:
191,211,73780,2,0,L|212:146,1,67.5000007867814,0|0,1:0|0:0,0:0:0:0:
283,235,74080,5,0,0:0:0:0:
283,235,74230,2,0,L|342:203,1,67.5000007867814,0|0,0:0|0:0,0:0:0:0:
332,317,74530,5,0,0:0:0:0:
332,317,74680,2,0,L|395:337,1,67.5000007867814
278,373,74980,6,0,P|259:344|254:311,1,67.5000007867814,0|0,1:0|0:0,0:0:0:0:
304,107,75280,2,0,P|322:134|327:167,1,67.5000007867814,0|0,0:0|0:0,0:0:0:0:
179,226,75580,6,0,P|156:132|235:78,1,202.500002360344,2|0,0:0|0:0,0:0:0:0:
326,168,76180,2,0,P|319:199|299:226,1,67.5000007867814,0|0,1:0|0:0,3:3:0:0:
333,80,76480,2,0,P|364:86|391:106,1,67.5000007867814,0|0,3:0|0:0,0:0:0:0:
355,280,76780,5,0,3:0:0:0:
326,168,76930,1,0,0:0:0:0:
433,309,77080,2,0,P|462:282|471:257,1,67.5000007867814
269,258,77380,2,0,P|266:292|329:366,1,135.000001573563,0|0,1:0|0:0,0:0:0:0:
407,137,77980,5,4,0:0:0:0:
407,137,78130,2,0,L|438:198,1,67.5000007867814,0|0,0:0|0:0,0:0:0:0:
325,184,78430,5,0,0:0:0:0:
325,184,78580,2,0,L|304:249,1,67.5000007867814,0|0,1:0|0:0,0:0:0:0:
233,160,78880,5,0,0:0:0:0:
233,160,79030,2,0,L|174:192,1,67.5000007867814,0|0,0:0|0:0,0:0:0:0:
184,78,79330,5,0,0:0:0:0:
184,78,79480,2,0,L|121:58,1,67.5000007867814,0|0,0:0|0:0,0:0:0:0:
335,51,79780,6,0,L|272:31,1,67.5000007867814,0|0,1:0|0:0,0:0:0:0:
245,194,80080,2,0,L|182:174,1,67.5000007867814
184,78,80380,5,4,0:2:0:0:
0,110,80530,1,0,0:0:0:0:
0,110,80605,1,0,3:0:0:0:
0,110,80680,2,0,L|100:91,1,89.9999976158143,0|0,3:0|0:0,0:0:0:0:
109,186,80980,5,0,1:0:0:0:
109,186,81130,1,0,1:0:0:0:
76,2,81280,5,4,1:0:0:0:
76,2,81430,1,0,0:0:0:0:
8,210,81580,5,0,1:0:0:0:
56,273,81730,1,0,1:0:0:0:
136,281,81880,1,0,1:0:0:0:
195,228,82030,1,0,1:0:0:0:
248,150,82180,5,8,1:2:0:0:
335,115,82330,1,8,1:2:0:0:
429,130,82480,1,8,1:2:0:0:
498,194,82630,1,8,1:2:0:0:
511,288,82780,5,0,0:0:0:0:
71,184,101980,5,4,1:0:0:0:
71,184,102130,2,0,P|31:198|0:233,1,89.9999976158143,0|0,0:0|0:0,0:0:0:0:
129,109,102430,5,0,0:0:0:0:
129,109,102580,2,0,P|90:90|44:93,1,89.9999976158143,0|0,1:2|0:0,0:0:0:0:
223,96,102880,5,0,0:0:0:0:
223,96,103030,2,0,P|208:56|174:25,1,89.9999976158143,0|0,0:0|0:0,0:0:0:0:
298,154,103330,5,0,0:0:0:0:
298,154,103480,2,0,P|316:115|313:69,1,89.9999976158143,0|0,3:0|0:0,0:0:0:0:
311,248,103780,6,0,P|351:234|382:199,1,89.9999976158143,0|0,1:2|0:0,0:0:0:0:
449,27,104080,2,0,P|421:59|412:104,1,89.9999976158143,0|0,0:0|0:0,0:0:0:0:
501,295,104380,6,0,P|466:216|381:199,1,179.999995231629,2|0,0:0|0:0,0:0:0:0:
311,248,104830,1,0,0:0:0:0:
257,79,104980,6,0,P|170:69|113:134,1,179.999995231629,8|0,1:2|0:0,0:0:0:0:
120,220,105430,1,0,0:0:0:0:
24,105,105580,5,0,3:0:0:0:
206,159,105730,1,0,3:0:0:0:
24,105,105880,2,0,L|107:68,1,89.9999976158143
120,220,106180,2,0,P|154:299|239:316,1,179.999995231629,8|0,0:0|0:0,0:0:0:0:
441,184,106780,5,4,0:0:0:0:
441,184,106930,2,0,P|481:198|511:233,1,89.9999976158143,0|0,0:0|0:0,0:0:0:0:
383,109,107230,5,0,0:0:0:0:
383,109,107380,2,0,P|421:90|467:93,1,89.9999976158143,0|0,1:0|0:0,0:0:0:0:
289,96,107680,5,0,0:0:0:0:
289,96,107830,2,0,P|303:56|338:25,1,89.9999976158143,0|0,0:0|0:0,0:0:0:0:
214,154,108130,5,0,0:0:0:0:
214,154,108280,2,0,P|195:115|198:69,1,89.9999976158143,0|0,3:0|0:0,0:0:0:0:
201,248,108580,6,0,P|161:234|130:199,1,89.9999976158143,0|0,1:0|0:0,0:0:0:0:
63,27,108880,2,0,P|90:59|99:104,1,89.9999976158143,0|0,0:0|0:0,0:0:0:0:
10,295,109180,6,0,P|45:216|130:199,1,179.999995231629,2|0,0:0|3:0,0:0:0:0:
201,248,109630,1,0,3:0:0:0:
180,53,109780,6,0,P|117:112|130:198,1,179.999995231629,0|0,1:0|3:0,0:0:0:0:
201,248,110230,1,0,3:0:0:0:
0,106,110380,5,0,1:0:0:0:
0,106,110530,1,0,1:0:0:0:
201,248,110680,5,0,1:0:0:0:
201,248,110830,1,0,1:0:0:0:
171,76,110980,5,8,1:2:0:0:
171,76,111130,1,8,1:2:0:0:
29,277,111280,5,8,1:2:0:0:
29,277,111430,1,8,1:2:0:0:
278,295,111580,5,4,1:0:0:0:
278,295,111730,2,0,P|245:322|200:331,1,89.9999976158143,0|0,0:0|0:0,0:0:0:0:
371,281,112030,5,0,0:0:0:0:
371,281,112180,2,0,P|367:323|342:362,1,89.9999976158143,0|0,1:0|0:0,0:0:0:0:
430,206,112480,5,0,0:0:0:0:
430,206,112630,2,0,P|457:238|466:283,1,89.9999976158143,0|0,0:0|0:0,0:0:0:0:
416,112,112930,5,0,0:0:0:0:
416,112,113080,2,0,P|458:115|497:140,1,89.9999976158143,0|0,3:0|0:0,0:0:0:0:
342,54,113380,6,0,P|374:26|419:17,1,89.9999976158143,0|0,1:0|0:0,0:0:0:0:
338,173,113680,2,0,P|296:180|252:166,1,89.9999976158143,0|0,0:0|0:0,0:0:0:0:
116,24,113980,6,0,P|201:14|259:79,1,179.999995231629,2|0,0:0|0:0,0:0:0:0:
251,165,114430,1,0,0:0:0:0:
87,127,114580,6,0,P|34:197|62:279,1,179.999995231629,0|0,1:0|0:0,0:0:0:0:
141,316,115030,1,0,0:0:0:0:
265,196,115180,5,0,3:0:0:0:
227,359,115330,1,0,3:0:0:0:
368,240,115480,2,0,L|396:331,1,89.9999976158143
175,228,115780,2,0,P|180:141|256:99,1,179.999995231629,0|0,1:0|0:0,0:0:0:0:
234,295,116380,5,4,0:0:0:0:
234,295,116530,2,0,P|267:322|312:331,1,89.9999976158143,0|0,0:0|0:0,0:0:0:0:
141,281,116830,5,0,0:0:0:0:
141,281,116980,2,0,P|145:323|170:362,1,89.9999976158143,0|0,1:0|0:0,0:0:0:0:
82,206,117280,5,0,0:0:0:0:
82,206,117430,2,0,P|55:238|46:283,1,89.9999976158143,0|0,0:0|0:0,0:0:0:0:
96,112,117730,5,0,0:0:0:0:
96,112,117880,2,0,P|54:115|15:140,1,89.9999976158143,0|0,3:0|0:0,0:0:0:0:
170,54,118180,6,0,P|138:26|93:17,1,89.9999976158143,0|0,1:0|0:0,0:0:0:0:
170,171,118480,2,0,P|202:199|247:208,1,89.9999976158143,0|0,0:0|0:0,0:0:0:0:
328,161,118780,5,4,1:0:0:0:
512,193,118930,1,8,3:2:0:0:
512,193,119005,1,0,1:0:0:0:
512,193,119080,2,0,L|412:174,1,89.9999976158143,0|0,1:0|3:0,0:0:0:0:
403,269,119380,5,0,1:0:0:0:
403,269,119530,1,0,1:0:0:0:
436,85,119680,5,4,1:0:0:0:
436,85,119830,1,0,0:0:0:0:
504,293,119980,5,0,1:0:0:0:
456,356,120130,1,0,1:0:0:0:
376,364,120280,1,0,1:0:0:0:
317,311,120430,1,0,1:0:0:0:
264,233,120580,5,8,1:2:0:0:
177,198,120730,1,8,1:2:0:0:
83,213,120880,1,8,1:2:0:0:
14,277,121030,1,8,1:2:0:0:
1,371,121180,6,0,P|96:326|72:203,1,179.999995231629,4|0,1:0|0:0,0:0:0:0:
0,154,121630,1,0,0:0:0:0:
0,154,121780,2,0,L|52:202,1,67.5000007867814,8|0,0:0|0:0,0:0:0:0:
258,213,122080,2,0,L|190:234,1,67.5000007867814,0|0,0:0|0:0,0:0:0:0:
195,326,122380,6,0,L|262:304,1,67.5000007867814,0|0,1:0|3:0,0:0:0:0:
375,132,122680,2,0,L|360:197,1,67.5000007867814,0|0,3:0|0:0,0:0:0:0:
452,384,122980,2,0,L|402:338,1,67.5000007867814,8|0,0:0|0:0,0:0:0:0:
259,305,123280,2,0,L|195:326,1,67.5000007867814,0|0,0:0|0:0,0:0:0:0:
193,144,123580,6,0,L|257:123,1,67.5000007867814,4|0,0:0|0:0,0:0:0:0:
49,110,123880,2,0,L|0:64,1,67.5000007867814,0|0,0:0|0:0,0:0:0:0:
92,250,124180,2,0,L|77:315,1,67.5000007867814,8|0,0:0|0:0,0:0:0:0:
193,144,124480,2,0,L|257:123,1,67.5000007867814,0|0,3:0|3:0,0:0:0:0:
92,250,124780,5,0,1:0:0:0:
92,250,124930,1,0,3:0:0:0:
198,251,125080,2,0,L|263:231,1,67.5000007867814,0|0,3:0|0:0,0:0:0:0:
378,59,125380,2,0,L|364:125,1,67.5000007867814,8|0,0:0|0:0,0:0:0:0:
456,310,125680,2,0,L|407:265,1,67.5000007867814
233,102,125980,6,0,L|283:148,1,67.5000007867814,4|0,3:1|0:0,0:0:0:0:
489,162,126280,2,0,L|425:182,1,67.5000007867814,0|0,0:0|0:0,0:0:0:0:
310,355,126580,2,0,L|325:289,1,67.5000007867814,8|0,0:0|0:0,0:0:0:0:
364,125,126880,5,0,3:0:0:0:
364,125,127030,1,0,3:0:0:0:
263,231,127180,1,0,1:0:0:0:
263,231,127330,1,0,3:0:0:0:
220,88,127480,6,0,L|199:23,1,67.5000007867814,0|0,3:0|0:0,0:0:0:0:
325,188,127780,2,0,L|390:202,1,67.5000007867814,8|0,0:0|0:0,0:0:0:0:
185,231,128080,2,0,L|139:280,1,67.5000007867814,0|0,0:0|0:0,0:0:0:0:
301,108,128380,6,0,L|347:58,1,67.5000007867814,0|0,3:0|0:0,0:0:0:0:
267,249,128680,2,0,L|287:313,1,67.5000007867814,0|0,0:0|0:0,0:0:0:0:
160,149,128980,2,0,L|94:134,1,67.5000007867814,8|0,0:0|0:0,0:0:0:0:
325,188,129280,2,0,L|390:202,1,67.5000007867814,0|0,0:0|0:0,0:0:0:0:
246,171,129580,5,0,3:0:0:0:
246,171,129730,1,0,3:0:0:0:
477,226,129880,1,0,3:0:0:0:
477,226,130030,1,0,3:0:0:0:
389,83,130180,5,8,1:2:0:0:
389,83,130330,1,8,0:2:0:0:
334,314,130480,1,8,0:2:0:0:
334,314,130630,1,8,0:2:0:0:
257,77,130780,6,0,P|174:104|150:188,1,179.999995231629,4|0,1:0|0:0,0:0:0:0:
258,294,131230,1,0,0:0:0:0:
258,294,131380,2,0,L|206:246,1,67.5000007867814,8|0,0:0|0:0,0:0:0:0:
0,235,131680,2,0,L|68:214,1,67.5000007867814,0|0,3:0|3:0,0:0:0:0:
286,147,131980,6,0,L|219:169,1,67.5000007867814,0|0,1:0|3:0,0:0:0:0:
106,341,132280,2,0,L|121:276,1,67.5000007867814,0|0,3:0|0:0,0:0:0:0:
29,89,132580,2,0,L|79:135,1,67.5000007867814,8|0,0:0|0:0,0:0:0:0:
286,147,132880,2,0,L|222:168,1,67.5000007867814,0|0,0:0|0:0,0:0:0:0:
236,267,133180,6,0,L|300:246,1,67.5000007867814,4|0,0:0|0:0,0:0:0:0:
416,75,133480,2,0,L|401:140,1,67.5000007867814,0|0,0:0|0:0,0:0:0:0:
493,326,133780,2,0,L|444:280,1,67.5000007867814,8|0,0:0|0:0,0:0:0:0:
300,245,134080,1,0,0:0:0:0:
300,245,134230,1,0,0:0:0:0:
401,140,134380,5,0,1:0:0:0:
401,140,134530,1,0,3:0:0:0:
260,155,134680,2,0,L|195:176,1,67.5000007867814,0|0,3:0|0:0,0:0:0:0:
0,100,134980,2,0,L|49:144,1,67.5000007867814,8|0,0:0|0:0,0:0:0:0:
81,348,135280,2,0,L|93:281,1,67.5000007867814,0|0,0:0|0:0,0:0:0:0:
195,176,135580,6,0,L|131:196,1,67.5000007867814,4|0,3:1|0:0,0:0:0:0:
295,69,135880,2,0,L|310:3,1,67.5000007867814
337,209,136180,2,0,L|387:255,1,67.5000007867814,8|0,0:0|0:0,0:0:0:0:
214,93,136480,1,0,0:0:0:0:
214,93,136630,1,0,3:0:0:0:
356,127,136780,1,0,1:0:0:0:
356,127,136930,1,0,3:0:0:0:
256,233,137080,6,0,L|242:298,1,67.5000007867814,0|0,3:0|0:0,0:0:0:0:
214,93,137380,2,0,L|164:47,1,67.5000007867814,8|0,0:0|0:0,0:0:0:0:
356,127,137680,2,0,L|421:106,1,67.5000007867814,0|0,0:0|0:0,0:0:0:0:
329,346,137980,6,0,P|386:306|403:212,1,89.9999976158143,4|0,1:0|0:0,0:0:0:0:
183,36,138280,2,0,P|126:76|109:170,1,89.9999976158143,4|0,0:1|0:0,0:0:0:0:
329,346,138580,6,0,P|378:296|378:201,1,116.999991544724,4|0,0:1|0:0,0:0:0:0:
183,36,138880,2,0,P|134:86|134:181,1,116.999991544724,4|0,0:1|0:1,0:0:0:0:
329,346,139180,6,0,P|368:289|352:194,1,143.999996185303,4|0,0:1|0:0,0:0:0:0:
183,36,139480,2,0,P|144:93|160:188,1,143.999996185303,4|0,0:1|0:0,0:0:0:0:
328,347,139780,6,0,P|358:268|325:192,1,170.999990903855,4|0,1:0|0:0,0:0:0:0:
183,36,140080,2,0,P|153:115|186:191,1,170.999990903855,4|0,1:0|0:0,0:0:0:0:
