osu file format v14

[General]
AudioFilename: audio.mp3
AudioLeadIn: 0
PreviewTime: 61185
Countdown: 0
SampleSet: Soft
StackLeniency: 0.7
Mode: 0
LetterboxInBreaks: 0
WidescreenStoryboard: 0

[Editor]
Bookmarks: 13185,22785,41985,46785,61185,63585,85185,92385,101985,118785,119685,119985,121185,129585,136485,137985,140385
DistanceSpacing: 1.1
BeatDivisor: 4
GridSize: 4
TimelineZoom: 1

[Metadata]
Title:Shiroki Yami no Arabesque
TitleUnicode:白き闇のアラベスク
Artist:Marie
ArtistUnicode:真理絵
Creator:Fushimi Rio
Version:Bloody Butterfly
Source:バタフライシーカー
Tags:Silkysplus シルキーズプラス Seeker Visual novel Eroge Short Ver PinkHeart Misure irotuk
BeatmapID:1575480
BeatmapSetID:746689

[Difficulty]
HPDrainRate:7.2
CircleSize:4
OverallDifficulty:9
ApproachRate:9.3
SliderMultiplier:3.59999990463257
SliderTickRate:1

[Events]
//Background and Video events
0,0,"bg2.jpg",0,0
//Break Periods
2,92380,100780
//Storyboard Layer 0 (Background)
//Storyboard Layer 1 (Fail)
//Storyboard Layer 2 (Pass)
//Storyboard Layer 3 (Foreground)
//Storyboard Sound Samples

[TimingPoints]
1180,600,4,2,1,10,1,0
13180,-200,4,2,1,30,0,0
41980,-200,4,2,1,40,0,0
58480,-133.333333333333,4,2,1,30,0,0
61180,-200,4,2,1,30,0,0
63580,-133.333333333333,4,2,1,50,0,1
80380,-100,4,2,1,50,0,1
82180,-100,4,2,1,70,0,1
82780,-200,4,2,1,30,0,0
92380,-400,4,2,1,30,0,0
97180,-200,4,2,1,30,0,0
101980,-100,4,2,1,70,0,1
119680,-66.6666666666667,4,2,1,70,0,1
120580,-66.6666666666667,4,2,1,85,0,1
121030,-100,4,2,1,70,0,0
121180,-66.6666666666667,4,2,1,70,0,1
121330,-100,4,2,1,70,0,0
130780,-100,4,2,1,70,0,1
130930,-100,4,2,1,70,0,0
137980,-100,4,2,1,70,0,1
138580,-75,4,2,1,70,0,1
139180,-30,4,2,1,70,0,1
139480,-27,4,2,1,70,0,1
139780,-57,4,2,1,70,0,1
140080,-40,4,2,1,70,0,1
140305,-100,4,2,1,5,0,0

[Colours]
Combo1 : 255,0,0
Combo2 : 128,128,255
Combo3 : 255,128,255
Combo4 : 255,128,128
Combo5 : 233,233,233

[HitObjects]
256,192,1180,12,0,12580,0:0:0:0:
116,144,13180,6,0,L|216:144,1,89.9999976158143,4|0,0:0|0:0,0:0:0:0:
396,68,13780,2,0,L|296:68,1,89.9999976158143,8|0,0:0|0:0,0:0:0:0:
252,264,14380,2,0,L|300:264,1,44.9999988079071
360,224,14680,1,0,0:0:0:0:
360,224,14980,2,0,L|456:224,1,89.9999976158143,8|0,0:0|0:0,0:0:0:0:
320,340,15580,6,0,L|224:340,1,89.9999976158143,2|0,0:0|0:0,0:0:0:0:
80,248,16180,2,0,L|172:248,1,89.9999976158143,8|0,0:0|1:0,0:0:0:0:
232,204,16630,5,0,1:0:0:0:
232,204,16930,1,0,1:0:0:0:
232,204,17080,2,0,L|280:204,1,44.9999988079071
302,128,17380,2,0,L|212:128,1,89.9999976158143,8|0,0:0|0:0,0:0:0:0:
128,220,17980,38,0,L|128:128,1,89.9999976158143,4|0,0:0|0:0,0:0:0:0:
208,276,18580,2,0,L|208:366,1,89.9999976158143,8|0,0:0|0:0,0:0:0:0:
280,56,19180,2,0,L|280:100,1,44.9999988079071
312,172,19480,1,0,0:0:0:0:
312,172,19780,2,0,L|312:280,1,89.9999976158143,8|0,0:0|0:0,0:0:0:0:
412,104,20380,6,0,L|412:8,1,89.9999976158143,2|0,0:0|0:0,0:0:0:0:
352,204,20980,2,0,L|352:312,1,89.9999976158143,8|0,0:0|1:0,0:0:0:0:
308,356,21430,5,0,1:0:0:0:
308,356,21730,1,0,1:0:0:0:
252,256,21880,2,0,L|252:320,1,44.9999988079071
220,184,22180,1,8,0:0:0:0:
332,264,22330,1,0,1:0:0:0:
332,264,22480,2,0,L|332:200,1,44.9999988079071,0|0,1:0|0:0,0:0:0:0:
328,40,22780,37,4,0:0:0:0:
328,40,23380,2,0,P|368:88|488:64,2,179.999995231629,0|0|0,1:0|0:0|1:0,0:0:0:0:
260,172,24880,1,0,3:0:0:0:
260,172,25180,2,0,B|190:150|177:241|95:219,1,179.999995231629,0|2,3:0|0:0,0:0:0:0:
95,219,26080,1,0,1:0:0:0:
175,236,26230,2,0,P|167:181|128:148,1,89.9999976158143,0|0,1:0|0:0,0:0:0:0:
256,256,26680,1,0,3:0:0:0:
256,256,26980,2,0,P|264:310|303:344,1,89.9999976158143,0|0,1:0|3:0,0:0:0:0:
388,356,27580,5,0,3:0:0:0:
388,356,28180,2,0,P|367:272|424:207,2,179.999995231629,0|0|0,1:0|0:0|1:0,0:0:0:0:
456,296,29680,1,0,3:0:0:0:
288,360,29980,2,0,B|205:381|192:290|123:312,1,179.999995231629,0|0,3:0|0:0,0:0:0:0:
268,276,30880,1,0,1:0:0:0:
320,212,31030,2,0,P|328:168|324:148,1,44.9999988079071,0|0,1:0|0:0,0:0:0:0:
352,292,31330,1,0,0:0:0:0:
248,172,31480,1,0,3:0:0:0:
248,172,31780,2,0,P|258:127|289:98,1,89.9999976158143,0|0,1:0|3:0,0:0:0:0:
172,64,32380,5,4,0:0:0:0:
172,64,32980,2,0,P|132:112|12:88,2,179.999995231629,0|0|0,1:0|0:0|1:0,0:0:0:0:
240,196,34480,1,0,3:0:0:0:
240,196,34780,2,0,B|322:217|335:126|404:148,1,179.999995231629,0|2,3:0|0:0,0:0:0:0:
404,148,35680,1,0,1:0:0:0:
460,204,35830,2,0,P|468:244|448:288,1,89.9999976158143,0|0,1:0|0:0,0:0:0:0:
348,360,36280,1,0,3:0:0:0:
348,360,36580,2,0,P|340:320|360:276,1,89.9999976158143,0|0,1:0|3:0,0:0:0:0:
240,320,37180,37,0,3:0:0:0:
240,320,37780,2,0,P|260:236|203:171,2,179.999995231629,0|0|0,1:0|0:0|1:0,0:0:0:0:
128,368,39280,1,0,3:0:0:0:
172,260,39580,2,0,B|254:238|267:329|336:307,1,179.999995231629,0|2,3:0|0:0,0:0:0:0:
196,340,40480,1,0,1:0:0:0:
112,320,40630,2,0,P|92:288|88:268,1,44.9999988079071,0|0,1:0|0:0,0:0:0:0:
120,200,40930,1,0,3:0:0:0:
4,276,41080,1,0,3:0:0:0:
236,124,41380,1,0,1:0:0:0:
120,200,41680,1,0,3:0:0:0:
43,83,41980,6,0,B|131:51|131:134|214:102,1,179.999995231629,4|8,0:0|0:0,0:0:0:0:
300,36,42880,1,0,0:0:0:0:
216,128,43180,2,0,P|198:177|267:274,1,179.999995231629,0|8,0:0|0:0,0:0:0:0:
389,190,44080,1,0,3:0:0:0:
320,348,44380,2,0,B|391:288|319:246|389:190,1,179.999995231629,0|8,3:0|0:0,0:0:0:0:
500,200,45280,1,0,1:0:0:0:
437,262,45430,2,0,P|365:274|309:222,1,134.999996423721,0|0,1:0|3:0,0:0:0:0:
240,148,46180,1,8,0:0:0:0:
124,224,46480,1,0,3:0:0:0:
288,219,46780,6,0,B|359:159|287:117|357:61,1,179.999995231629,0|8,3:0|0:0,0:0:0:0:
412,132,47680,1,0,0:0:0:0:
236,144,47980,2,0,P|160:102|149:16,1,179.999995231629,0|8,0:0|0:0,0:0:0:0:
128,216,48880,1,0,3:0:0:0:
128,216,49180,2,0,P|41:226|0:302,1,179.999995231629,0|8,3:0|0:0,0:0:0:0:
180,308,50080,1,0,1:0:0:0:
96,304,50230,2,0,P|47:259|40:196,1,89.9999976158143,0|0,1:0|0:0,0:0:0:0:
32,152,50680,1,0,3:0:0:0:
250,238,50980,1,0,1:0:0:0:
96,304,51280,1,0,3:0:0:0:
184,84,51580,38,0,P|258:39|338:72,1,179.999995231629,4|8,0:0|0:0,0:0:0:0:
378,186,52480,1,0,0:0:0:0:
497,98,52780,2,0,B|427:154|499:196|428:256,1,179.999995231629,0|8,0:0|0:0,0:0:0:0:
327,195,53680,1,0,3:0:0:0:
307,310,53980,2,0,P|233:355|153:322,1,179.999995231629,0|8,3:0|0:0,0:0:0:0:
12,200,54880,1,0,1:0:0:0:
75,262,55030,2,0,P|147:274|203:222,1,134.999996423721,0|0,1:0|0:0,0:0:0:0:
272,148,55780,1,8,0:0:0:0:
388,224,56080,1,0,3:0:0:0:
309,69,56380,6,0,B|221:37|221:120|138:88,1,179.999995231629,0|8,3:0|0:0,0:0:0:0:
171,8,57280,1,0,0:0:0:0:
272,148,57580,2,0,P|296:231|243:299,1,179.999995231629,0|8,0:0|0:0,0:0:0:0:
112,176,58480,2,0,L|94:241,1,67.5000007867814,0|0,3:0|0:0,0:0:0:0:
72,332,58780,5,0,0:0:0:0:
173,235,58930,1,0,0:0:0:0:
114,335,59080,37,0,0:0:0:0:
150,199,59230,1,0,0:0:0:0:
153,315,59380,5,0,3:0:0:0:
110,180,59530,1,0,3:0:0:0:
174,278,59680,5,0,3:0:0:0:
69,185,59830,1,0,3:0:0:0:
216,337,59980,37,0,1:0:0:0:
269,109,60130,1,0,1:0:0:0:
174,278,60280,5,0,1:0:0:0:
341,112,60430,1,0,1:0:0:0:
170,206,60580,5,8,1:2:0:0:
400,154,60730,1,8,1:2:0:0:
206,143,60880,37,8,1:2:0:0:
429,218,61030,1,8,1:2:0:0:
69,185,61180,5,2,0:0:0:0:
193,189,61780,5,0,0:0:0:0:
318,194,62380,37,0,0:0:0:0:
443,199,62980,5,0,0:0:0:0:
192,256,63580,5,4,1:0:0:0:
192,256,63730,2,0,P|229:215|232:139,1,135.000001573563
125,260,64180,2,0,P|159:264|192:256,1,67.5000007867814,0|0,1:0|0:0,0:0:0:0:
344,132,64480,37,0,0:0:0:0:
344,132,64630,2,0,P|331:185|367:253,1,135.000001573563
398,94,65080,2,0,P|368:108|344:132,1,67.5000007867814
484,200,65380,2,0,L|408:176,1,67.5000007867814,0|0,1:0|0:0,0:0:0:0:
192,100,65680,2,0,L|268:76,1,67.5000007867814
216,280,65980,6,0,P|159:314|94:303,1,135.000001573563,2|0,0:0|3:0,3:0:0:0:
192,100,66430,1,0,0:0:0:0:
319,286,66580,2,0,P|384:298|441:263,1,135.000001573563,0|0,1:0|3:0,3:0:0:0:
484,128,67030,1,0,0:0:0:0:
441,263,67180,5,0,3:0:0:0:
412,64,67330,1,0,0:0:0:0:
369,199,67480,1,0,3:0:0:0:
369,199,67780,2,0,L|357:127,1,67.5000007867814,0|0,1:0|0:0,0:0:0:0:
192,216,68080,2,0,P|213:241|243:255,1,67.5000007867814
308,52,68380,37,4,0:0:0:0:
308,52,68530,2,0,P|270:92|267:168,1,135.000001573563
375,48,68980,2,0,P|341:44|308:52,1,67.5000007867814,0|0,1:0|0:0,0:0:0:0:
136,240,69280,5,0,0:0:0:0:
136,240,69430,2,0,P|173:199|176:123,1,135.000001573563
69,244,69880,2,0,P|103:248|136:240,1,67.5000007867814
248,56,70180,2,0,L|272:132,1,67.5000007867814,0|0,1:0|0:0,0:0:0:0:
348,348,70480,2,0,L|372:272,1,67.5000007867814
468,152,70780,6,0,P|411:186|346:175,1,135.000001573563,2|0,0:0|3:0,3:0:0:0:
248,56,71230,1,0,0:0:0:0:
212,260,71380,2,0,P|146:248|90:283,1,135.000001573563,0|0,1:0|3:0,3:0:0:0:
168,344,71830,1,0,0:0:0:0:
128,164,71980,37,4,3:1:0:0:
168,344,72130,1,0,3:0:0:0:
120,128,72280,5,0,1:0:0:0:
75,326,72430,1,0,1:0:0:0:
128,92,72580,5,8,1:2:0:0:
229,287,72730,1,8,1:2:0:0:
116,56,72880,37,8,1:2:0:0:
2,273,73030,1,8,1:2:0:0:
232,128,73180,5,4,1:0:0:0:
232,128,73330,2,0,P|287:126|347:172,1,135.000001573563
186,176,73780,2,0,P|205:148|232:128,1,67.5000007867814,0|0,1:0|0:0,0:0:0:0:
444,104,74080,5,0,0:0:0:0:
444,104,74230,2,0,P|397:73|375:1,1,135.000001573563
511,102,74680,2,0,P|477:108|444:103,1,67.5000007867814
280,63,74980,2,0,L|260:128,1,67.5000007867814,0|0,1:0|0:0,0:0:0:0:
180,355,75280,2,0,L|156:279,1,67.5000007867814
0,172,75580,38,0,P|56:206|121:194,1,135.000001573563,2|0,0:0|0:0,0:0:0:0:
249,8,76029,1,0,0:0:0:0:
347,211,76180,2,0,P|281:221|225:187,1,135.000001573563,0|0,1:0|3:0,3:0:0:0:
188,96,76630,1,0,0:0:0:0:
108,292,76780,5,0,3:0:0:0:
225,187,76930,1,0,0:0:0:0:
145,383,77080,1,0,3:0:0:0:
145,383,77380,2,0,L|116:308,1,67.5000007867814,0|0,1:0|0:0,0:0:0:0:
304,256,77680,2,0,P|290:286|264:308,1,67.5000007867814
148,172,77980,5,4,0:0:0:0:
148,172,78130,2,0,P|194:142|269:152,1,135.000001573563
132,236,78580,2,0,P|134:202|148:172,1,67.5000007867814,0|0,1:0|0:0,0:0:0:0:
392,264,78880,37,0,0:0:0:0:
392,264,79030,2,0,P|379:317|319:363,1,135.000001573563
367,202,79480,2,0,P|385:231|391:264,1,67.5000007867814
232,292,79780,2,0,L|296:271,1,67.5000007867814,0|0,1:0|0:0,0:0:0:0:
512,176,80080,2,0,L|447:155,1,67.5000007867814
164,76,80380,5,4,0:2:0:0:
232,292,80530,1,8,0:3:0:0:
221,259,80605,1,4,3:0:0:0:
211,227,80680,1,0,3:0:0:0:
145,298,80830,5,0,1:0:0:0:
277,156,80980,1,0,1:0:0:0:
247,343,81130,37,0,1:0:0:0:
176,112,81280,2,0,L|204:204,1,89.9999976158143,4|0,0:0|0:0,0:0:0:0:
256,52,81580,5,4,1:3:0:0:
92,176,81730,1,4,1:3:0:0:
320,100,81880,5,4,1:3:0:0:
118,249,82030,1,4,1:3:0:0:
149,0,82180,37,8,1:2:0:0:
350,262,82330,1,8,1:2:0:0:
52,217,82480,5,8,1:2:0:0:
309,28,82630,1,8,1:2:0:0:
255,374,82780,5,2,0:0:0:0:
110,77,101980,5,4,1:0:0:0:
110,77,102130,2,0,P|150:134|262:133,1,179.999995231629
352,0,102580,2,0,L|321:114,1,89.9999976158143,0|0,1:2|0:0,0:0:0:0:
295,245,102880,5,0,0:0:0:0:
295,245,103030,2,0,P|381:240|438:306,1,179.999995231629
312,145,103480,2,0,L|336:59,1,89.9999976158143,0|0,3:0|0:0,0:0:0:0:
246,364,103780,2,0,P|232:321|201:290,1,89.9999976158143,8|0,1:2|0:0,0:0:0:0:
26,159,104080,2,0,P|82:225|166:218,1,134.999996423721
213,195,104380,53,2,0:0:0:0:
278,122,104530,1,0,0:0:0:0:
368,83,104680,2,0,P|412:82|452:103,1,89.9999976158143
468,292,104980,2,0,P|391:255|391:170,1,179.999995231629,0|0,1:2|0:0,0:0:0:0:
295,337,105430,1,0,0:0:0:0:
462,209,105580,5,0,3:0:0:0:
304,144,105730,1,0,3:0:0:0:
327,313,105880,1,0,3:0:0:0:
327,313,106180,2,0,P|336:269|325:226,1,89.9999976158143,8|0,0:0|0:0,0:0:0:0:
266,42,106480,2,0,P|256:85|267:128,1,89.9999976158143
468,287,106780,53,4,0:0:0:0:
468,287,106930,2,0,P|428:230|316:231,1,179.999995231629
226,362,107380,2,0,L|257:248,1,89.9999976158143,0|0,1:0|0:0,0:0:0:0:
296,118,107680,5,0,0:0:0:0:
296,118,107830,2,0,P|209:122|152:56,1,179.999995231629
265,217,108280,2,0,L|242:304,1,89.9999976158143,0|0,3:0|0:0,0:0:0:0:
325,7,108580,2,0,P|280:12|243:36,1,89.9999976158143,8|0,1:2|0:0,0:0:0:0:
402,150,108880,2,0,P|412:106|402:63,1,89.9999976158143
220,126,109180,54,0,P|259:180|324:195,1,134.999996423721,2|0,0:0|0:0,0:0:0:0:
402,150,109480,2,0,L|321:198,1,89.9999976158143,0|0,3:0|3:0,0:0:0:0:
389,344,109780,2,0,P|399:300|389:257,1,89.9999976158143,0|0,1:0|0:0,0:0:0:0:
316,104,110080,1,0,3:0:0:0:
316,104,110230,1,0,3:0:0:0:
241,208,110380,5,0,1:0:0:0:
391,0,110530,1,0,1:0:0:0:
168,188,110680,53,0,1:0:0:0:
406,76,110830,1,0,1:0:0:0:
113,133,110980,5,8,1:2:0:0:
379,149,111130,1,8,1:2:0:0:
92,60,111280,53,8,1:2:0:0:
318,197,111430,1,8,1:2:0:0:
28,292,111580,5,4,1:0:0:0:
28,292,111730,2,0,P|114:287|171:353,1,179.999995231629
226,145,112180,2,0,L|257:31,1,89.9999976158143,0|0,1:0|0:0,0:0:0:0:
345,291,112480,53,0,0:0:0:0:
345,291,112630,2,0,P|258:295|201:229,1,179.999995231629
266,2,113080,2,0,L|242:88,1,89.9999976158143,0|0,3:0|0:0,0:0:0:0:
84,120,113380,2,0,P|114:84|153:66,1,89.9999976158143,8|0,1:2|0:0,0:0:0:0:
291,170,113680,2,0,P|377:161|419:89,1,134.999996423721
414,39,113980,5,2,0:0:0:0:
326,84,114130,1,0,0:0:0:0:
291,170,114280,2,0,P|297:214|322:250,1,89.9999976158143
412,281,114580,2,0,P|326:280|289:357,1,179.999995231629,0|0,1:0|0:0,0:0:0:0:
386,180,115030,1,0,0:0:0:0:
219,224,115180,53,0,3:0:0:0:
407,158,115330,1,0,3:0:0:0:
371,354,115480,1,0,3:0:0:0:
371,354,115780,2,0,P|358:310|365:267,1,89.9999976158143,8|0,1:2|0:0,0:0:0:0:
402,73,116080,2,0,P|415:114|408:158,1,89.9999976158143
316,208,116380,5,4,0:0:0:0:
316,208,116530,2,0,P|403:203|460:270,1,179.999995231629
340,92,116980,2,0,L|364:6,1,89.9999976158143,0|0,1:0|0:0,0:0:0:0:
287,309,117280,53,0,0:0:0:0:
287,309,117430,2,0,P|200:313|143:247,1,179.999995231629
348,64,117880,2,0,L|324:150,1,89.9999976158143,0|0,3:0|0:0,0:0:0:0:
373,330,118180,2,0,P|373:285|353:246,1,89.9999976158143,8|0,1:2|0:0,0:0:0:0:
236,128,118480,2,0,P|235:172|256:212,1,89.9999976158143
461,300,118780,5,4,1:0:0:0:
175,240,118930,1,8,1:3:0:0:
154,169,119005,1,4,1:3:0:0:
165,97,119080,1,0,1:0:0:0:
240,292,119230,53,0,3:0:0:0:
264,52,119380,5,0,1:0:0:0:
100,224,119530,1,0,1:0:0:0:
372,128,119680,2,0,B|244:172,1,135.000001573563,4|0,1:0|0:0,0:0:0:0:
32,296,119980,53,4,1:3:0:0:
245,90,120130,1,4,1:3:0:0:
120,352,120280,5,4,1:3:0:0:
286,74,120430,1,4,1:3:0:0:
216,384,120580,53,8,1:2:0:0:
315,42,120730,1,8,1:2:0:0:
326,386,120880,5,8,1:2:0:0:
334,4,121030,1,8,1:2:0:0:
436,360,121180,54,0,P|400:240|272:244,1,270.000003147125,4|0,1:0|0:0,0:0:0:0:
224,316,121630,1,0,0:0:0:0:
389,139,121780,2,0,P|389:94|369:55,1,89.9999976158143,8|0,0:0|0:0,0:0:0:0:
295,9,122080,2,0,P|250:9|211:29,1,89.9999976158143
169,108,122380,5,0,1:0:0:0:
189,192,122530,1,0,3:0:0:0:
263,238,122680,2,0,P|308:238|347:218,1,89.9999976158143,0|0,3:0|0:0,0:0:0:0:
389,139,122980,2,0,P|389:94|369:55,1,89.9999976158143,8|0,0:0|0:0,0:0:0:0:
295,9,123280,2,0,P|250:9|211:29,1,89.9999976158143
125,236,123580,54,0,P|80:236|41:216,1,89.9999976158143,4|0,0:0|0:0,0:0:0:0:
0,135,123880,2,0,P|0:90|20:51,1,89.9999976158143
94,5,124180,2,0,P|138:5|178:25,1,89.9999976158143,8|0,0:0|0:0,0:0:0:0:
220,105,124480,1,0,3:0:0:0:
201,189,124630,1,0,3:0:0:0:
40,215,124780,5,0,1:0:0:0:
125,236,124930,1,0,3:0:0:0:
231,337,125080,2,0,P|210:292|210:252,1,89.9999976158143,0|0,3:0|0:0,0:0:0:0:
263,180,125380,2,0,P|303:159|346:159,1,89.9999976158143,8|0,0:0|0:0,0:0:0:0:
421,210,125680,2,0,P|441:250|441:293,1,89.9999976158143
181,177,125980,54,0,P|160:136|160:93,1,89.9999976158143,4|0,3:1|0:0,0:0:0:0:
212,18,126280,2,0,P|252:-1|296:-1,1,89.9999976158143
370,49,126580,2,0,P|390:90|391:134,1,89.9999976158143,8|0,0:0|0:0,0:0:0:0:
339,208,126880,1,0,3:0:0:0:
254,228,127030,1,0,3:0:0:0:
160,92,127180,5,0,1:0:0:0:
181,177,127330,1,0,3:0:0:0:
206,263,127480,2,0,P|245:283|290:283,1,89.9999976158143,0|0,3:0|0:0,0:0:0:0:
364,231,127779,2,0,P|384:191|384:146,1,89.9999976158143,8|0,0:0|0:0,0:0:0:0:
333,72,128079,2,0,P|292:52|248:51,1,89.9999976158143
61,242,128380,54,0,P|61:286|81:326,1,89.9999976158143,0|0,3:0|0:0,0:0:0:0:
154,378,128680,2,0,P|198:378|238:357,1,89.9999976158143
290,283,128980,2,0,P|290:238|269:198,1,89.9999976158143,8|0,0:0|0:0,0:0:0:0:
195,147,129280,2,0,P|150:146|110:167,1,89.9999976158143
238,354,129580,5,0,3:0:0:0:
110,166,129730,1,0,3:0:0:0:
78,325,129880,53,0,3:0:0:0:
269,198,130030,1,0,3:0:0:0:
44,67,130180,5,8,1:2:0:0:
222,335,130330,1,8,0:2:0:0:
267,112,130480,53,8,0:2:0:0:
4,292,130630,1,8,0:2:0:0:
343,65,130780,6,0,P|388:65|427:85,1,89.9999976158143,4|0,1:0|0:0,0:0:0:0:
468,166,131080,2,0,P|468:211|448:250,1,89.9999976158143
374,296,131380,2,0,P|330:296|290:276,1,89.9999976158143,8|0,0:0|0:0,0:0:0:0:
248,196,131680,1,0,3:0:0:0:
267,112,131830,1,0,3:0:0:0:
428,86,131980,53,0,1:0:0:0:
343,65,132130,1,0,3:0:0:0:
245,27,132280,2,0,P|266:72|266:112,1,89.9999976158143,0|0,3:0|0:0,0:0:0:0:
213,184,132580,2,0,P|173:205|130:205,1,89.9999976158143,8|0,0:0|0:0,0:0:0:0:
55,154,132880,2,0,P|35:114|35:71,1,89.9999976158143
68,276,133180,6,0,P|113:297|153:297,1,89.9999976158143,4|0,0:0|0:0,0:0:0:0:
225,244,133480,2,0,P|246:204|246:161,1,89.9999976158143
195,86,133780,2,0,P|155:66|112:66,1,89.9999976158143,8|0,0:0|0:0,0:0:0:0:
37,116,134080,2,0,P|17:156|17:199,1,89.9999976158143
68,276,134380,53,0,1:0:0:0:
152,297,134530,1,0,3:0:0:0:
239,319,134680,2,0,P|283:317|323:297,1,89.9999976158143,0|0,3:0|0:0,0:0:0:0:
374,222,134980,2,0,P|374:177|354:137,1,89.9999976158143,8|0,0:0|0:0,0:0:0:0:
281,88,135280,2,0,P|236:87|196:107,1,89.9999976158143
154,317,135580,6,0,P|109:317|69:297,1,89.9999976158143,4|0,3:1|0:0,0:0:0:0:
18,223,135880,2,0,P|17:178|38:139,1,89.9999976158143
111,86,136181,2,0,P|155:87|195:107,1,89.9999976158143,8|0,0:0|0:0,0:0:0:0:
248,179,136480,1,0,0:0:0:0:
226,263,136630,1,0,3:0:0:0:
223,292,136705,1,0,3:0:0:0:
230,321,136780,53,0,1:0:0:0:
309,285,136930,1,0,3:0:0:0:
335,137,137080,2,0,P|305:103|264:85,1,89.9999976158143,0|0,3:0|0:0,0:0:0:0:
230,321,137380,2,0,P|273:312|309:285,1,89.9999976158143,8|0,0:0|0:0,0:0:0:0:
123,138,137680,2,0,P|108:180|113:224,1,89.9999976158143
256,384,137980,6,0,P|256:348|220:256,1,134.999996423721,4|0,1:0|0:0,0:0:0:0:
256,345,138280,2,0,P|256:308|312:232,1,134.999996423721,4|0,0:1|0:0,0:0:0:0:
256,306,138580,2,0,P|256:267|167:166,1,179.999995231629,4|0,0:1|0:0,0:1:0:0:
256,268,138880,2,0,P|256:228|344:124,1,179.999995231629,4|0,0:1|0:1,0:1:0:0:
256,229,139180,2,0,B|256:191|223:40|48:60|48:60|43:135|116:179,1,449.999988079071,4|0,0:1|0:0,0:0:0:0:
256,191,139480,2,0,B|256:149|290:-17|485:2|485:2|490:87|410:136,1,499.999986754524,4|0,0:1|0:0,0:0:0:0:
182,241,139780,2,0,B|139:297|168:372|168:372|190:327|233:301,1,236.842098988985,4|0,1:0|0:0,0:0:0:0:
340,197,140080,2,0,B|435:233|433:367|433:367|393:309|330:295,1,337.499991059303,4|0,1:0|0:0,0:0:0:0:
