osu file format v14

[General]
AudioFilename: audio.mp3
AudioLeadIn: 0
PreviewTime: 60802
Countdown: 0
SampleSet: Soft
StackLeniency: 0.7
Mode: 0
LetterboxInBreaks: 0
WidescreenStoryboard: 1

[Editor]
Bookmarks: 553,3219,8552,16552,19219,28386,29886,39052,40552,45886,51219,53886,56552,59219,61886,67219,69886,72552,77886,80552,83219,85886,88552,89552,90219
DistanceSpacing: 0.3
BeatDivisor: 4
GridSize: 32
TimelineZoom: 1.4

[Metadata]
Title:Koko ni Iru yo
TitleUnicode:ここにいるよ
Artist:Marie
ArtistUnicode:真理絵
Creator:tomatas95
Version:Episode 5: Ai Kokuhaku Insane
Source:星空TeaParty
Tags:Skyfish poco eroge Hoshizora Tea Party 星てぱ Hoshitepa 星空音楽会 Ongakukai galgame MANYO video game visual novel vn op opening jpop j-pop pop japanese
BeatmapID:3518999
BeatmapSetID:1711836

[Difficulty]
HPDrainRate:5.5
CircleSize:3.8
OverallDifficulty:8
ApproachRate:9
SliderMultiplier:1.6
SliderTickRate:1

[Events]
//Background and Video events
0,0,"TeruSugoidesuuu.jpg",0,0
Video,-2150,"Ecchigamudesu.mp4"
//Break Periods
//Storyboard Layer 0 (Background)
//Storyboard Layer 1 (Fail)
//Storyboard Layer 2 (Pass)
//Storyboard Layer 3 (Foreground)
//Storyboard Layer 4 (Overlay)
//Storyboard Sound Samples

[TimingPoints]
553,333.333333333333,4,2,3,45,1,0
553,-125,4,2,3,45,0,0
1052,-125,4,2,5,45,0,0
1386,-125,4,2,3,45,0,0
1719,-125,4,2,5,45,0,0
2052,-125,4,2,3,45,0,0
2385,-125,4,2,5,45,0,0
2719,-100,4,2,3,55,0,0
2886,-100,4,2,3,60,0,0
3052,-100,4,2,3,65,0,0
3219,-90.9090909090909,4,2,1,70,0,0
3552,-100,4,2,1,65,0,0
4802,-100,4,2,1,5,0,0
4886,-100,4,2,1,65,0,0
5386,-100,4,2,3,55,0,0
5552,-100,4,2,3,60,0,0
5719,-100,4,2,3,65,0,0
5886,-90.9090909090909,4,2,2,70,0,0
6219,-100,4,2,1,45,0,0
6386,-100,4,2,1,50,0,0
6552,-100,4,2,1,55,0,0
6719,-100,4,2,1,60,0,0
6886,-100,4,2,1,65,0,0
7052,-100,4,2,1,70,0,0
7219,-100,4,2,1,75,0,0
7386,-100,4,2,1,80,0,0
7552,-90.9090909090909,4,2,1,85,0,0
7886,-90.9090909090909,4,2,1,70,0,0
8219,-166.666666666667,4,2,2,70,0,0
8386,-166.666666666667,4,2,3,70,0,0
8469,-100,4,2,1,5,0,0
8552,-83.3333333333333,4,2,2,75,0,0
8886,-100,4,2,4,75,0,0
9219,-100,4,2,1,75,0,0
11219,-100,4,2,5,80,0,0
11386,-100,4,2,1,75,0,0
12386,-100,4,2,1,80,0,0
12719,-100,4,2,1,75,0,0
13886,-100,4,2,2,80,0,0
14219,-100,4,2,1,75,0,0
15052,-100,4,2,5,80,0,0
15219,-100,4,2,1,75,0,0
16052,-100,4,2,1,65,0,0
16219,-100,4,2,1,70,0,0
16386,-100,4,2,1,75,0,0
16552,-90.9090909090909,4,2,2,80,0,0
16886,-90.9090909090909,4,2,2,70,0,0
17052,-90.9090909090909,4,2,1,80,0,0
17386,-90.9090909090909,4,2,1,70,0,0
17719,-83.3333333333333,4,2,2,80,0,0
18052,-100,4,2,2,70,0,0
18219,-100,4,2,1,80,0,0
18552,-83.3333333333333,4,2,1,80,0,0
18719,-83.3333333333333,4,2,1,60,0,0
18886,-83.3333333333333,4,2,1,80,0,0
19053,-83.3333333333333,4,2,1,60,0,0
19219,-125,4,2,2,60,0,0
19469,-100,4,2,1,5,0,0
19552,-125,4,2,4,60,0,0
19886,-125,4,2,2,60,0,0
20052,-125,4,2,4,60,0,0
21886,-125,4,2,2,60,0,0
22053,-125,4,2,4,60,0,0
22136,-125,4,2,4,5,0,0
22219,-125,4,2,4,60,0,0
22552,-125,4,2,2,60,0,0
22719,-125,4,2,4,60,0,0
24552,-125,4,2,6,70,0,0
24719,-125,4,2,4,60,0,0
25886,-125,4,2,4,70,0,0
26053,-125,4,2,4,60,0,0
27219,-125,4,2,3,60,0,0
27552,-125,4,2,4,60,0,0
27719,-125,4,2,3,60,0,0
28052,-125,4,2,4,60,0,0
28386,-142.857142857143,4,2,5,70,0,0
28719,-142.857142857143,4,2,3,55,0,0
29052,-142.857142857143,4,2,1,60,0,0
29219,-142.857142857143,4,2,3,60,0,0
29886,-111.111111111111,4,2,6,70,0,0
30136,-125,4,2,4,5,0,0
30219,-111.111111111111,4,2,4,65,0,0
30552,-111.111111111111,4,2,2,60,0,0
30718,-111.111111111111,4,2,4,60,0,0
32552,-111.111111111111,4,2,2,60,0,0
32719,-111.111111111111,4,2,4,60,0,0
32802,-111.111111111111,4,2,4,5,0,0
32886,-111.111111111111,4,2,4,60,0,0
33218,-111.111111111111,4,2,2,60,0,0
33385,-111.111111111111,4,2,4,60,0,0
35218,-111.111111111111,4,2,6,70,0,0
35385,-111.111111111111,4,2,4,60,0,0
36552,-111.111111111111,4,2,4,70,0,0
36719,-111.111111111111,4,2,4,60,0,0
37885,-111.111111111111,4,2,3,60,0,0
38218,-111.111111111111,4,2,4,60,0,0
38385,-111.111111111111,4,2,3,60,0,0
38552,-111.111111111111,4,2,4,60,0,0
39052,-100,4,2,2,70,0,0
39386,-100,4,2,4,70,0,0
40052,-100,4,2,1,60,0,0
40219,-100,4,2,2,65,0,0
40386,-100,4,2,4,65,0,0
40552,-111.111111111111,4,2,1,70,0,0
40886,-111.111111111111,4,2,4,65,0,0
41386,-111.111111111111,4,2,4,45,0,0
41719,-111.111111111111,4,2,2,65,0,0
41886,-111.111111111111,4,2,4,65,0,0
42719,-111.111111111111,4,2,4,45,0,0
42886,-111.111111111111,4,2,4,65,0,0
43219,-111.111111111111,4,2,2,65,0,0
43386,-111.111111111111,4,2,4,45,0,0
43553,-111.111111111111,4,2,4,65,0,0
44052,-111.111111111111,4,2,4,45,0,0
44219,-111.111111111111,4,2,4,65,0,0
44386,-111.111111111111,4,2,2,65,0,0
44552,-111.111111111111,4,2,4,65,0,0
45552,-111.111111111111,4,2,4,60,0,0
45719,-111.111111111111,4,2,6,55,0,0
45886,-111.111111111111,4,2,5,75,0,0
46219,-111.111111111111,4,2,4,65,0,0
46719,-111.111111111111,4,2,4,45,0,0
46886,-111.111111111111,4,2,4,65,0,0
47052,-111.111111111111,4,2,2,65,0,0
47219,-111.111111111111,4,2,4,65,0,0
48052,-111.111111111111,4,2,4,45,0,0
48219,-111.111111111111,4,2,4,65,0,0
48469,-111.111111111111,4,2,6,55,0,0
48552,-111.111111111111,4,2,2,65,0,0
49052,-111.111111111111,4,2,4,65,0,0
49386,-111.111111111111,4,2,4,45,0,0
49553,-111.111111111111,4,2,4,65,0,0
49719,-111.111111111111,4,2,6,65,0,0
49886,-111.111111111111,4,2,2,65,0,0
50052,-111.111111111111,4,2,4,65,0,0
51219,-125,4,2,2,65,0,0
51552,-125,4,2,3,60,0,0
52469,-125,4,2,6,60,0,0
52552,-125,4,2,2,65,0,0
52886,-125,4,2,3,60,0,0
53386,-125,4,2,4,60,0,0
53886,-125,4,2,6,65,0,0
54219,-125,4,2,3,60,0,0
55219,-125,4,2,2,65,0,0
55552,-125,4,2,3,60,0,0
55886,-111.111111111111,4,2,3,60,0,0
55969,-111.111111111111,4,2,1,60,0,0
56052,-111.111111111111,4,2,4,60,0,0
56552,-90.9090909090909,4,2,1,70,0,0
56886,-100,4,2,4,65,0,0
57219,-90.9090909090909,4,2,5,70,0,0
57553,-100,4,2,4,65,0,0
57886,-90.9090909090909,4,2,2,70,0,0
58220,-100,4,2,4,65,0,0
58552,-90.9090909090909,4,2,5,70,0,0
58886,-100,4,2,4,65,0,0
59219,-100,4,2,1,75,0,0
61386,-100,4,2,1,70,0,0
61886,-90.9090909090909,4,2,2,85,0,1
62052,-90.9090909090909,4,2,1,80,0,1
63219,-90.9090909090909,4,2,5,85,0,1
63469,-90.9090909090909,4,2,5,5,0,1
63552,-90.9090909090909,4,2,1,80,0,1
64552,-90.9090909090909,4,2,1,85,0,1
64719,-90.9090909090909,4,2,1,80,0,1
65886,-90.9090909090909,4,2,2,85,0,1
66136,-90.9090909090909,4,2,5,5,0,1
66219,-90.9090909090909,4,2,1,90,0,1
66886,-90.9090909090909,4,2,5,85,0,1
66969,-90.9090909090909,4,2,1,85,0,1
67219,-90.9090909090909,4,2,1,85,0,1
67469,-90.9090909090909,4,2,5,5,0,1
67552,-90.9090909090909,4,2,1,80,0,1
68552,-90.9090909090909,4,2,5,85,0,1
68886,-90.9090909090909,4,2,1,80,0,1
69886,-90.9090909090909,4,2,2,85,0,0
70219,-90.9090909090909,4,2,1,75,0,0
70386,-83.3333333333333,4,2,1,85,0,0
70719,-83.3333333333333,4,2,1,75,0,0
71052,-74.0740740740741,4,2,2,85,0,0
71386,-100,4,2,1,75,0,0
71552,-100,4,2,1,85,0,0
72219,-100,4,2,5,90,0,0
72386,-100,4,2,5,90,0,0
72552,-90.9090909090909,4,2,2,85,0,1
72719,-90.9090909090909,4,2,1,80,0,1
73886,-90.9090909090909,4,2,5,85,0,1
74136,-90.9090909090909,4,2,5,5,0,1
74219,-90.9090909090909,4,2,1,80,0,1
75219,-80,4,2,1,85,0,1
75469,-90.9090909090909,4,2,5,5,0,1
75552,-90.9090909090909,4,2,1,80,0,1
76552,-90.9090909090909,4,2,2,85,0,1
76802,-90.9090909090909,4,2,2,5,0,1
76886,-90.9090909090909,4,2,1,85,0,1
77552,-90.9090909090909,4,2,5,80,0,1
77636,-90.9090909090909,4,2,1,80,0,1
77886,-90.9090909090909,4,2,1,80,0,1
78136,-90.9090909090909,4,2,5,5,0,1
78219,-90.9090909090909,4,2,1,80,0,1
79219,-90.9090909090909,4,2,5,85,0,1
79386,-90.9090909090909,4,2,1,85,0,1
79719,-90.9090909090909,4,2,1,65,0,1
79886,-90.9090909090909,4,2,1,70,0,1
80052,-90.9090909090909,4,2,1,75,0,1
80219,-90.9090909090909,4,2,1,80,0,1
80386,-90.9090909090909,4,2,1,85,0,1
80552,-80,4,2,2,90,0,1
80886,-90.9090909090909,4,2,1,80,0,1
81219,-90.9090909090909,4,2,5,90,0,1
81386,-90.9090909090909,4,2,1,70,0,1
81552,-90.9090909090909,4,2,2,70,0,1
81719,-90.9090909090909,4,2,3,70,0,1
81886,-80,4,2,1,85,0,1
82136,-90.9090909090909,4,2,5,5,0,1
82219,-90.9090909090909,4,2,1,80,0,1
82552,-90.9090909090909,4,2,1,75,0,1
82886,-90.9090909090909,4,2,1,70,0,1
83219,-100,4,2,2,80,0,0
83552,-100,4,2,1,70,0,0
84886,-80,4,2,5,85,0,0
85136,-80,4,2,5,5,0,0
85219,-100,4,2,1,75,0,0
85552,-100,4,2,1,70,0,0
85886,-80,4,2,2,80,0,0
86219,-80,4,2,1,70,0,0
86386,-80,4,2,1,80,0,0
86719,-80,4,2,1,70,0,0
87052,-74.0740740740741,4,2,2,80,0,0
87386,-100,4,2,1,70,0,0
88052,-100,4,2,1,75,0,0
88219,-100,4,2,2,70,0,0
88386,-100,4,2,3,65,0,0
88552,-80,4,2,5,85,0,0
88886,-80,4,2,1,70,0,0
89052,-80,4,2,5,85,0,0
89386,-80,4,2,1,70,0,0
89552,-80,4,2,4,80,0,0
90052,-166.666666666667,4,2,1,50,0,0

[Colours]
Combo1 : 245,238,103
Combo2 : 125,247,214
Combo3 : 239,157,249
Combo4 : 131,164,250

[HitObjects]
19,51,553,5,2,0:0:0:0:
95,18,719,1,2,0:0:0:0:
162,67,886,1,2,0:0:0:0:
152,149,1052,1,2,0:0:0:0:
152,149,1386,5,2,0:0:0:0:
201,216,1553,1,2,0:0:0:0:
283,206,1719,1,2,0:0:0:0:
283,206,2052,5,2,0:0:0:0:
201,216,2218,1,2,0:0:0:0:
166,293,2385,1,2,0:0:0:0:
166,293,2719,5,0,3:0:0:0:
37,375,2886,1,8,3:2:0:0:
49,349,2969,1,8,0:0:0:0:
51,322,3052,1,8,0:0:0:0:
43,295,3135,1,8,0:0:0:0:
26,273,3219,6,0,B|3:224|17:169|17:169|44:142|99:164,1,176.000005371094,6|0,3:2|3:0,0:0:0:0:
82,158,3886,1,2,3:2:0:0:
129,89,4052,1,2,0:0:0:0:
258,161,4219,1,2,3:2:0:0:
212,89,4385,1,2,0:0:0:0:
170,162,4552,6,0,L|186:294,1,120,0|0,3:0|0:0,0:0:0:0:
184,293,4886,2,0,B|222:279|222:279|267:300,1,80,2|0,3:2|0:0,0:0:0:0:
223,366,5219,5,0,3:0:0:0:
312,235,5386,1,8,0:0:0:0:
337,313,5552,5,8,0:0:0:0:
447,176,5719,1,8,0:0:0:0:
403,367,5886,6,0,B|458:372|484:349|484:349|467:307|489:256,1,176.000005371094,6|2,3:2|3:2,0:0:0:0:
354,168,6386,1,2,3:2:0:0:
354,168,6552,5,10,0:0:0:0:
393,253,6719,1,2,3:2:0:0:
408,91,6886,5,2,3:2:0:0:
447,176,7053,1,10,0:0:0:0:
462,14,7219,5,2,3:2:0:0:
501,99,7386,1,0,3:0:0:0:
370,7,7552,6,0,B|253:12|253:12|230:44|250:96,1,176.000005371094,14|2,0:0|0:0,0:0:0:0:
320,91,8052,1,8,3:0:0:0:
152,119,8219,6,0,L|165:25,1,71.9999978027344,8|0,3:3|0:0,0:0:0:0:
165,33,8552,6,0,B|19:21|19:21|37:72,2,191.999994140625,6|10|0,3:2|0:0|3:0,0:0:0:0:
70,141,9386,1,2,0:0:0:0:
152,119,9552,1,8,0:0:0:0:
19,209,9719,6,0,P|26:258|35:375,1,160,2|2,3:2|3:2,0:0:0:0:
115,369,10219,2,0,P|117:329|122:289,1,80,10|0,0:0|0:0,0:0:0:0:
126,277,10469,1,10,0:0:0:0:
129,265,10552,1,2,3:2:0:0:
34,368,10719,1,0,3:0:0:0:
197,368,10886,1,8,0:0:0:0:
221,354,10969,1,8,0:0:0:0:
248,349,11052,1,2,3:2:0:0:
276,354,11136,1,8,0:0:0:0:
302,368,11219,5,4,3:2:0:0:
456,309,11386,1,2,0:0:0:0:
389,384,11552,2,0,P|381:344|371:293,1,80,10|0,0:0|0:0,0:0:0:0:
370,293,11802,1,10,0:0:0:0:
368,280,11886,1,0,3:0:0:0:
316,121,12052,1,0,3:0:0:0:
274,223,12219,1,10,0:0:0:0:
511,170,12386,6,0,L|354:198,1,160,6|0,3:2|3:0,0:0:0:0:
318,39,12886,2,0,L|396:25,1,80,10|0,0:0|0:0,0:0:0:0:
495,92,13219,2,0,L|416:105,1,80,2|2,3:2|0:0,0:0:0:0:
485,12,13552,1,10,0:0:0:0:
339,118,13719,1,2,0:0:0:0:
327,116,13802,1,2,0:0:0:0:
316,121,13886,6,0,B|272:145|212:127|212:127|199:99|210:62,2,160,4|8|0,3:2|0:0|3:0,0:0:0:0:
149,20,14719,1,2,3:2:0:0:
263,17,14886,1,10,0:0:0:0:
141,180,15052,6,0,B|99:190|53:169|53:169|60:132|46:98,1,160,4|0,3:2|3:0,0:0:0:0:
134,98,15552,1,10,0:0:0:0:
206,236,15719,2,0,B|196:300|199:360|199:360|161:333,1,160,2|8,0:0|0:0,0:0:0:0:
158,336,16136,1,8,0:0:0:0:
130,320,16219,1,8,3:2:0:0:
98,318,16302,1,8,0:0:0:0:
68,330,16386,1,8,0:0:0:0:
46,352,16469,1,8,0:0:0:0:
36,382,16552,6,0,P|31:293|14:198,1,176.000005371094,6|8,3:2|0:0,0:0:0:0:
242,384,17052,2,0,P|246:296|261:209,1,176.000005371094,6|2,3:2|3:2,0:0:0:0:
137,234,17552,1,8,0:0:0:0:
179,35,17719,6,0,B|221:20|259:44|259:44|296:106|387:65,1,191.999994140625,4|0,3:2|3:0,0:0:0:0:
512,27,18219,1,10,0:0:0:0:
416,2,18386,1,2,0:0:0:0:
455,233,18552,5,2,3:1:0:0:
98,60,18886,5,6,3:1:0:0:
0,305,19219,6,0,B|48:285|48:285|100:318,1,96,6|0,3:2|0:0,0:0:0:0:
91,315,19552,2,0,P|97:354|98:386,1,64,10|0,0:0|0:0,0:0:0:0:
197,270,19886,2,0,P|160:255|132:240,1,64,10|0,0:0|3:0,0:0:0:0:
183,384,20219,2,0,P|213:359|240:342,1,64,2|8,0:0|0:0,0:0:0:0:
443,313,20552,5,2,3:2:0:0:
312,338,20719,1,10,0:0:0:0:
385,364,20886,1,10,0:0:0:0:
355,224,21052,2,0,L|369:286,1,64,2|8,3:2|0:0,0:0:0:0:
504,265,21386,2,0,L|490:203,1,64,2|8,3:2|0:0,0:0:0:0:
491,34,21719,1,8,0:0:0:0:
511,119,21886,6,0,P|462:111|395:117,1,96,2|0,3:2|0:0,0:0:0:0:
407,119,22219,2,0,P|403:84|414:35,1,64,10|0,0:0|0:0,0:0:0:0:
273,158,22552,2,0,P|308:154|357:165,1,64,10|0,0:0|3:0,0:0:0:0:
234,24,22886,2,0,P|238:59|227:108,1,64,2|8,0:0|0:0,0:0:0:0:
317,76,23219,5,2,3:2:0:0:
336,157,23386,1,2,3:2:0:0:
405,55,23552,1,10,0:0:0:0:
234,87,23719,2,0,L|163:80,1,64,2|2,3:2|0:0,0:0:0:0:
10,56,24052,5,10,0:0:0:0:
97,22,24219,1,2,3:2:0:0:
170,80,24386,1,10,0:0:0:0:
69,206,24552,5,6,3:2:0:0:
83,114,24719,1,2,0:0:0:0:
97,22,24886,1,10,0:0:0:0:
97,22,25219,5,10,0:0:0:0:
83,114,25386,1,2,3:2:0:0:
69,206,25552,2,0,L|58:289,1,64,2|8,0:0|0:0,0:0:0:0:
0,334,25886,5,2,3:2:0:0:
60,269,26052,1,10,0:0:0:0:
147,289,26219,1,10,0:0:0:0:
173,373,26386,2,0,P|206:366|242:373,1,64,2|8,3:2|0:0,0:0:0:0:
377,373,26719,2,0,P|344:366|308:373,1,64,2|0,3:2|0:0,0:0:0:0:
277,284,27052,1,8,0:0:0:0:
278,293,27136,1,8,0:0:0:0:
278,302,27219,5,2,3:2:0:0:
345,233,27386,1,2,0:0:0:0:
449,245,27552,1,10,0:0:0:0:
351,246,27719,5,2,3:2:0:0:
324,131,27886,1,2,3:2:0:0:
407,43,28052,1,8,0:0:0:0:
405,33,28136,1,8,0:0:0:0:
403,23,28219,1,8,0:0:0:0:
512,167,28386,1,4,3:2:0:0:
512,167,29052,5,8,0:0:0:0:
418,149,29219,1,2,3:2:0:0:
356,222,29386,1,2,3:2:0:0:
387,312,29552,1,2,3:2:0:0:
387,312,29886,6,0,B|415:310|436:296|436:296|460:313|492:321,1,107.999996704102,6|0,3:2|0:0,0:0:0:0:
493,325,30219,2,0,P|495:289|501:253,1,71.9999978027344,10|0,0:0|0:0,0:0:0:0:
418,149,30552,2,0,P|424:184|426:220,1,71.9999978027344,10|0,0:0|3:0,0:0:0:0:
496,109,30886,2,0,P|498:73|504:37,1,71.9999978027344,2|8,0:0|0:0,0:0:0:0:
418,149,31219,5,2,3:2:0:0:
420,15,31386,1,10,0:0:0:0:
496,109,31552,1,10,0:0:0:0:
342,55,31719,2,0,L|252:44,1,71.9999978027344,2|0,3:2|0:0,0:0:0:0:
346,140,32052,2,0,L|436:151,1,71.9999978027344,2|8,3:2|0:0,0:0:0:0:
484,203,32386,1,8,0:0:0:0:
475,352,32552,6,0,B|395:341|395:341|353:364,1,107.999996704102,2|0,3:2|0:0,0:0:0:0:
360,357,32886,2,0,P|356:312|367:270,1,71.9999978027344,10|0,0:0|0:0,0:0:0:0:
275,384,33219,2,0,P|234:364|203:334,1,71.9999978027344,10|0,0:0|3:0,0:0:0:0:
264,231,33552,2,0,L|282:327,1,71.9999978027344,2|8,0:0|0:0,0:0:0:0:
180,179,33886,5,2,3:2:0:0:
316,147,34052,1,2,3:2:0:0:
264,231,34219,1,10,0:0:0:0:
232,95,34386,2,0,P|227:52|233:11,1,71.9999978027344,2|10,3:2|0:0,0:0:0:0:
20,60,34719,5,10,0:0:0:0:
149,79,34886,1,2,3:2:0:0:
96,1,35052,1,10,0:0:0:0:
0,180,35219,5,6,3:2:0:0:
92,204,35386,1,2,0:0:0:0:
186,230,35552,1,10,0:0:0:0:
186,230,35886,5,10,0:0:0:0:
92,204,36052,1,2,3:2:0:0:
0,180,36219,2,0,L|10:256,1,71.9999978027344,2|8,0:0|0:0,0:0:0:0:
0,342,36552,5,2,3:2:0:0:
9,251,36719,1,10,0:0:0:0:
122,292,36886,1,10,0:0:0:0:
113,383,37052,2,0,P|152:377|203:376,1,71.9999978027344,2|8,3:2|0:0,0:0:0:0:
257,222,37386,2,0,P|221:227|185:229,1,71.9999978027344,2|0,3:2|0:0,0:0:0:0:
334,378,37719,2,0,P|338:306|349:234,1,143.999995605469,8|2,0:0|3:2,0:0:0:0:
396,11,38219,5,10,0:0:0:0:
261,89,38386,1,2,3:2:0:0:
396,167,38552,1,10,0:2:0:0:
306,11,38719,1,8,0:0:0:0:
306,167,38886,1,8,0:0:0:0:
441,89,39052,6,0,B|458:83|478:70|478:70|465:132|485:202,1,160,4|2,3:2|3:2,0:0:0:0:
512,358,39552,1,10,0:0:0:0:
349,300,39719,1,8,0:0:0:0:
349,288,39802,1,8,0:0:0:0:
349,275,39886,1,8,0:0:0:0:
446,282,40052,1,0,3:0:0:0:
353,384,40219,1,0,3:2:0:0:
293,207,40386,1,8,0:0:0:0:
282,201,40469,1,8,0:0:0:0:
269,203,40552,6,0,B|228:210|200:193|200:193|212:151|188:112,1,143.999995605469,4|2,3:2|0:0,0:0:0:0:
64,0,41052,1,8,0:0:0:0:
33,163,41219,1,10,0:0:0:0:
102,95,41386,1,8,0:0:0:0:
102,95,41719,6,0,B|141:83|153:45|153:45|187:22|238:35,2,143.999995605469,2|0|2,3:2|3:0|3:2,0:0:0:0:
33,163,42552,1,8,0:0:0:0:
127,189,42719,1,8,0:0:0:0:
152,284,42886,1,2,0:0:0:0:
82,353,43052,1,8,0:0:0:0:
9,265,43219,6,0,L|166:285,1,143.999995605469,2|0,3:2|0:0,0:0:0:0:
329,305,43719,1,10,0:0:0:0:
151,283,43886,1,10,0:0:0:0:
236,381,44052,1,8,0:0:0:0:
240,294,44219,1,2,0:0:0:0:
244,207,44386,6,0,P|246:168|216:53,2,143.999995605469,2|0|0,3:2|3:0|3:0,0:0:0:0:
332,104,45219,1,8,0:0:0:0:
153,134,45386,1,8,0:0:0:0:
244,207,45552,1,4,3:0:0:0:
222,66,45719,1,2,0:0:0:0:
229,57,45802,1,2,0:0:0:0:
231,46,45886,6,0,B|276:46|276:46|304:21|304:21|371:20,1,143.999995605469,4|2,3:2|0:0,0:0:0:0:
509,120,46386,1,8,0:0:0:0:
365,20,46552,1,8,0:0:0:0:
469,33,46719,1,8,0:0:0:0:
469,33,47052,6,0,L|448:192,2,143.999995605469,2|0|2,3:2|3:0|3:2,0:0:0:0:
366,136,47886,1,8,0:0:0:0:
286,80,48052,1,10,0:0:0:0:
198,122,48219,1,2,3:2:0:0:
278,178,48386,1,8,0:0:0:0:
450,175,48552,6,0,P|460:236|468:341,1,143.999995605469,2|0,3:2|0:0,0:0:0:0:
389,384,49052,1,8,0:0:0:0:
384,374,49136,1,2,0:0:0:0:
380,364,49219,2,0,P|374:292|362:221,1,143.999995605469,10|2,0:0|0:0,0:0:0:0:
278,178,49719,1,2,3:2:0:0:
278,188,49802,1,2,3:2:0:0:
278,198,49886,5,2,3:2:0:0:
362,221,50052,1,8,0:0:0:0:
204,237,50219,2,0,P|208:279|209:321,1,71.9999978027344,2|8,3:2|0:0,0:0:0:0:
209,319,50469,1,8,0:0:0:0:
211,329,50552,2,0,P|178:343|146:360,1,71.9999978027344,10|10,0:0|0:0,0:0:0:0:
294,286,50886,1,0,3:0:0:0:
204,237,51052,1,8,0:0:0:0:
71,378,51219,6,0,B|64:327|75:292|75:292|45:258,1,128,6|2,3:2|3:2,0:0:0:0:
0,126,51719,2,0,L|14:202,1,64,2|0,0:0|3:0,0:0:0:0:
83,35,52052,2,0,L|97:111,1,64,2|0,0:0|3:0,0:0:0:0:
0,37,52386,1,2,0:0:0:0:
166,33,52552,6,0,L|291:9,2,128,2|2|2,3:2|3:2|3:2,0:0:0:0:
0,37,53386,1,8,0:0:0:0:
166,33,53552,1,10,0:0:0:0:
83,35,53719,1,4,3:0:0:0:
106,195,53886,6,0,B|147:192|147:192|166:174|166:174|231:174,1,128,6|2,3:2|3:2,0:0:0:0:
401,216,54386,2,0,P|397:182|402:144,1,64,2|2,0:0|3:2,0:0:0:0:
290,229,54719,2,0,P|307:174|265:99,1,128,2|0,0:0|0:0,0:0:0:0:
320,19,55219,6,0,P|359:61|445:62,1,128,2|2,3:2|3:2,0:0:0:0:
499,22,55719,1,2,0:0:0:0:
504,109,55886,1,2,3:2:0:0:
504,119,55969,1,10,0:0:0:0:
504,129,56052,2,0,L|498:184,1,35.9999989013672,8|8,0:0|0:0,0:0:0:0:
486,295,56219,1,8,0:0:0:0:
486,285,56302,1,8,0:0:0:0:
486,275,56385,2,0,L|492:220,1,35.9999989013672,8|8,0:0|0:0,0:0:0:0:
465,376,56552,6,0,B|424:364|410:322|410:322|373:297|318:311,1,176.000005371094,6|0,3:2|3:0,0:0:0:0:
113,326,57052,1,10,0:0:0:0:
174,384,57219,2,0,P|195:330|129:243,1,176.000005371094,4|0,3:2|3:0,0:0:0:0:
36,61,57719,1,10,0:0:0:0:
0,146,57886,6,0,B|53:159|91:133|91:133|106:89|149:77,1,176.000005371094,6|0,3:2|3:0,0:0:0:0:
346,28,58386,1,10,0:0:0:0:
266,218,58552,2,0,P|254:116|235:39,1,176.000005371094,4|10,3:2|3:2,0:0:0:0:
145,78,59052,1,2,0:0:0:0:
266,218,59219,5,10,0:0:0:0:
346,28,59386,1,10,0:0:0:0:
346,28,60219,5,10,0:0:0:0:
266,218,60386,1,10,0:0:0:0:
266,218,61386,5,10,0:0:0:0:
149,117,61552,1,10,0:0:0:0:
18,199,61719,1,10,0:0:0:0:
126,323,61886,6,0,P|126:277|138:210,1,88.000002685547,14|2,0:0|0:0,0:0:0:0:
274,129,62219,2,0,P|268:172|267:216,1,88.000002685547,10|2,0:0|3:2,0:0:0:0:
297,384,62552,1,10,0:0:0:0:
207,305,62719,2,0,L|402:286,1,176.000005371094,2|2,3:2|3:2,0:0:0:0:
480,359,63219,6,0,B|472:315|489:267|489:267|469:221,1,132.00000402832,12|0,0:0|0:0,0:0:0:0:
469,218,63552,2,0,P|466:165|478:130,1,88.000002685547,10|0,0:0|3:0,0:0:0:0:
315,95,63886,2,0,P|362:118|386:146,1,88.000002685547,10|0,0:0|3:0,0:0:0:0:
498,23,64219,2,0,P|453:52|417:59,1,88.000002685547,10|0,0:0|3:0,0:0:0:0:
162,58,64552,5,14,0:0:0:0:
315,95,64719,1,2,0:0:0:0:
257,0,64886,1,10,0:0:0:0:
220,153,65052,1,2,0:0:0:0:
223,140,65136,1,2,0:0:0:0:
225,127,65219,1,10,0:0:0:0:
78,15,65386,2,0,L|64:122,1,88.000002685547,0|8,3:0|0:0,0:0:0:0:
61,269,65719,1,2,3:2:0:0:
0,216,65886,6,0,B|57:179|57:179|143:221,1,132.00000402832,14|0,0:0|0:0,0:0:0:0:
124,216,66219,1,10,0:0:0:0:
61,269,66386,1,0,3:0:0:0:
190,384,66552,5,10,0:0:0:0:
253,331,66719,1,0,3:0:0:0:
187,163,66886,5,12,0:0:0:0:
209,142,66969,1,10,0:2:0:0:
239,133,67052,1,10,0:2:0:0:
269,137,67135,1,10,0:2:0:0:
295,153,67219,6,0,P|293:93|306:7,1,132.00000402832,6|0,3:2|0:0,0:0:0:0:
315,19,67552,2,0,B|356:37|356:37|414:10,1,88.000002685547,10|0,0:0|0:0,0:0:0:0:
512,117,67886,2,0,B|471:99|471:99|413:126,1,88.000002685547,10|0,0:0|3:0,0:0:0:0:
466,269,68219,2,0,L|473:170,1,88.000002685547,10|0,0:0|3:0,0:0:0:0:
375,359,68552,6,0,L|387:176,1,176.000005371094,12|10,0:0|0:0,0:0:0:0:
466,269,69052,2,0,L|459:356,1,88.000002685547,2|8,3:2|0:0,0:0:0:0:
292,358,69386,2,0,L|298:270,1,88.000002685547,2|8,3:2|0:0,0:0:0:0:
285,69,69719,1,8,0:0:0:0:
272,73,69802,1,8,0:0:0:0:
261,81,69886,6,0,B|218:67|204:25|204:25|167:0|111:14,1,176.000005371094,6|10,3:2|0:0,0:0:0:0:
23,213,70386,2,0,B|70:198|85:151|85:151|127:123|189:139,1,191.999994140625,6|2,3:2|3:2,0:0:0:0:
0,128,70886,1,8,0:0:0:0:
155,217,71052,6,0,B|133:285|133:369|133:369|97:341|78:297,1,216.000000823975,6|0,3:2|3:0,0:0:0:0:
23,213,71552,2,0,P|18:257|15:322,1,80,10|0,0:0|3:0,0:0:0:0:
86,87,71886,2,0,P|49:61|-4:25,1,80,10|2,0:0|3:2,0:0:0:0:
155,217,72219,1,12,0:0:0:0:
185,191,72302,1,8,0:0:0:0:
223,181,72385,1,8,0:0:0:0:
262,189,72468,1,8,0:0:0:0:
294,213,72552,6,0,B|336:233|336:233|386:207,1,88.000002685547,6|2,3:2|0:0,0:0:0:0:
454,0,72886,2,0,P|446:51|439:182,1,176.000005371094,10|8,0:0|0:0,0:0:0:0:
450,337,73386,2,0,P|448:293|442:249,1,88.000002685547,2|8,3:2|0:0,0:0:0:0:
361,45,73719,1,2,3:2:0:0:
360,58,73802,1,2,3:2:0:0:
360,71,73886,6,0,L|227:54,1,132.00000402832,12|0,0:0|0:0,0:0:0:0:
215,55,74219,2,0,P|206:105|206:161,1,88.000002685547,10|0,0:0|3:0,0:0:0:0:
55,41,74552,2,0,P|102:23|151:-4,1,88.000002685547,10|0,0:0|3:0,0:0:0:0:
123,187,74886,2,0,P|84:154|35:126,1,88.000002685547,8|0,0:0|3:0,0:0:0:0:
4,371,75219,6,0,B|91:389|54:330|147:342,1,150,14|0,0:0|0:0,0:0:0:0:
157,347,75552,2,0,L|169:242,1,88.000002685547,10|2,0:0|3:2,0:0:0:0:
75,267,75886,1,10,0:0:0:0:
245,384,76052,2,0,L|257:279,1,88.000002685547,2|8,3:2|0:0,0:0:0:0:
255,75,76386,1,2,3:2:0:0:
266,68,76469,1,2,3:2:0:0:
278,72,76552,2,0,B|374:80|374:80|414:38,1,132.00000402832,12|0,0:0|0:0,0:0:0:0:
409,46,76886,5,10,0:0:0:0:
487,101,77052,1,0,3:0:0:0:
377,250,77219,5,10,0:0:0:0:
300,196,77385,1,0,3:0:0:0:
480,214,77552,5,12,0:0:0:0:
483,251,77635,1,10,0:2:0:0:
487,289,77718,1,10,0:2:0:0:
491,326,77801,1,10,0:2:0:0:
495,365,77886,6,0,B|458:364|429:382|429:382|414:358|376:345,1,132.00000402832,6|0,3:2|0:0,0:0:0:0:
365,344,78219,2,0,B|324:325|324:325|265:343,1,88.000002685547,10|0,0:0|0:0,0:0:0:0:
127,360,78552,2,0,B|168:379|168:379|227:361,1,88.000002685547,10|0,0:0|3:0,0:0:0:0:
263,184,78886,1,10,0:0:0:0:
67,292,79052,1,0,3:0:0:0:
222,292,79219,5,12,0:0:0:0:
26,184,79385,1,2,0:0:0:0:
146,215,79552,2,0,P|147:165|155:113,1,88.000002685547,8|8,0:0|0:0,0:0:0:0:
23,8,79886,1,0,3:0:0:0:
25,20,79969,1,8,0:0:0:0:
27,32,80052,2,0,P|29:53|30:75,1,44.0000013427735,8|8,0:0|0:0,0:0:0:0:
152,127,80219,1,8,0:0:0:0:
152,114,80302,1,8,0:0:0:0:
152,102,80385,2,0,P|153:80|156:58,1,44.0000013427735,8|8,0:0|0:0,0:0:0:0:
361,20,80552,6,0,B|312:3|266:37|266:37|301:85|280:149,1,200,6|10,3:2|0:0,0:0:0:0:
340,194,81052,1,2,0:0:0:0:
454,11,81219,5,12,0:0:0:0:
507,84,81386,1,8,3:0:0:0:
417,95,81552,1,8,3:0:0:0:
361,20,81719,1,8,3:0:0:0:
471,172,81886,6,0,B|462:218|462:218|468:248|468:248|448:336,1,150,6|0,3:2|0:0,0:0:0:0:
450,336,82219,2,0,B|405:318|405:318|356:339,1,88.000002685547,10|8,0:0|0:0,0:0:0:0:
360,343,82469,1,8,0:0:0:0:
350,351,82552,1,8,0:0:0:0:
200,242,82719,1,0,3:0:0:0:
385,241,82886,1,10,0:0:0:0:
293,174,83052,1,0,3:0:0:0:
236,350,83219,6,0,B|165:341|165:341|136:357|136:357|63:342,1,160,6|2,3:2|0:0,0:0:0:0:
4,171,83719,1,8,0:0:0:0:
82,264,83886,1,8,0:0:0:0:
200,242,84052,1,8,0:0:0:0:
228,121,84219,1,4,3:0:0:0:
78,12,84386,6,0,P|97:73|118:181,1,160,2|0,3:2|3:0,0:0:0:0:
300,328,84886,2,0,P|315:253|337:180,1,150,12|0,0:0|0:0,0:0:0:0:
344,172,85219,1,10,0:0:0:0:
451,288,85386,1,8,0:0:0:0:
498,138,85552,1,2,3:2:0:0:
391,21,85719,1,4,3:0:0:0:
178,125,85886,6,0,B|229:157|229:157|208:83|243:3,1,200,6|8,3:2|0:0,0:0:0:0:
86,126,86386,2,0,B|35:158|35:158|56:84|21:4,1,200,6|0,3:2|3:0,0:0:0:0:
131,55,86886,1,10,0:0:0:0:
89,281,87052,6,0,B|133:254|134:189|134:189|140:254|184:288,1,216.000000823975,6|0,3:2|3:0,0:0:0:0:
136,349,87552,1,10,0:0:0:0:
226,219,87719,1,10,0:0:0:0:
227,207,87802,1,10,0:0:0:0:
227,194,87886,2,0,L|237:108,1,80,10|8,0:0|3:0,0:0:0:0:
134,189,88219,1,8,3:0:0:0:
318,218,88386,1,8,3:0:0:0:
260,24,88552,6,0,B|310:36|325:83|325:83|367:111|432:75,1,200,4|8,3:2|0:0,0:0:0:0:
484,291,89052,2,0,B|437:276|422:229|422:229|380:201|318:217,1,200,4|8,3:2|0:0,0:0:0:0:
309,223,89441,6,0,L|268:218,2,33.3333333333333,0|0|6,3:0|3:0|3:2,0:0:0:0:
256,352,90052,6,0,L|256:376,2,23.9999992675781,2|2|2,0:0|0:0|0:0,0:0:0:0:
