osu file format v14

[General]
AudioFilename: audio.mp3
AudioLeadIn: 0
PreviewTime: 76437
Countdown: 0
SampleSet: Soft
StackLeniency: 0.7
Mode: 3
LetterboxInBreaks: 0
SpecialStyle: 0
WidescreenStoryboard: 1

[Editor]
Bookmarks: 1595,11700,21805,42016,62226,67279,77384,87489,92542,97595,100121,102647,112753
DistanceSpacing: 1.1
BeatDivisor: 4
GridSize: 4
TimelineZoom: 1.9

[Metadata]
Title:Clover Day's (Short Ver.)
TitleUnicode:Clover Day's (Short Ver.)
Artist:Marie
ArtistUnicode:真理絵
Creator:Ulis-
Version:Hard
Source:Clover Day's
Tags:op opening nekonyan eroge novel visual ost galgame cut short ver version japanese j-pop j pop clover days little wing ML-ysg
BeatmapID:3935443
BeatmapSetID:1907605

[Difficulty]
HPDrainRate:7.5
CircleSize:4
OverallDifficulty:7.5
ApproachRate:5
SliderMultiplier:1.4
SliderTickRate:1

[Events]
//Background and Video events
0,0,"Clover Day's BG.jpg",0,0
//Break Periods
//Storyboard Layer 0 (Background)
//Storyboard Layer 1 (Fail)
//Storyboard Layer 2 (Pass)
//Storyboard Layer 3 (Foreground)
//Storyboard Layer 4 (Overlay)
//Storyboard Sound Samples
Sample,46441,0,"Tom3.wav",50
Sample,56546,0,"Tom3.wav",50
Sample,69178,0,"Ride.wav",30
Sample,79599,0,"Hat Open.wav",60
Sample,80546,0,"Hat Open.wav",60
Sample,89072,0,"Hat Open.wav",60
Sample,89388,0,"Hat Open.wav",60
Sample,89704,0,"Hat Open.wav",60
Sample,91599,0,"Hat Open.wav",60
Sample,91914,0,"Tom3.wav",50
Sample,112125,0,"Tom1.wav",50

[TimingPoints]
336,315.78947368421,4,2,1,60,1,0
336,-100,4,2,1,60,0,0
11704,-100,4,2,1,60,0,1
21809,-100,4,2,1,60,0,0
77388,-100,4,2,1,60,0,1
87414,-100,4,2,1,60,0,0
87493,-100,4,2,1,60,0,1
97599,-100,4,2,1,60,0,0
102651,-100,4,2,1,60,0,1
112757,480,4,2,1,40,1,0
112757,-65.78947368,4,2,1,40,0,0
113477,413.793103448276,4,2,1,40,1,0
113477,-76.31578947,4,2,1,40,0,0
113580,342.857142857143,4,2,1,40,1,0
113580,-92.10526316,4,2,1,40,0,0
113665,428.571428571429,4,2,1,40,1,0
113665,-73.68421053,4,2,1,40,0,0
113772,645.161290322581,4,2,1,40,1,0
113772,-48.94736842,4,2,1,40,0,0
113933,437.956204379562,4,2,1,40,1,0
113933,-72.10526316,4,2,1,40,0,0
114151,530.973451327434,4,2,1,40,1,0
114151,-59.47368421,4,2,1,40,0,0
114504,588.235294117647,4,2,1,40,1,0
114504,-53.68421053,4,2,1,40,0,0
114847,444.444444444444,4,2,1,40,1,0
114847,-71.05263158,4,2,1,40,0,0
115291,461.538461538462,4,2,1,40,1,0
115291,-68.42105263,4,2,1,40,0,0
116214,384.615384615385,4,2,1,40,1,0
116214,-82.10526316,4,2,1,40,0,0
116598,631.578947368421,4,2,1,30,1,0
116598,-50,4,2,1,30,0,0
116755,444.444444444444,4,2,1,30,1,0
116755,-71.05263158,4,2,1,30,0,0
116866,500,4,2,1,30,1,0
116866,-63.15789474,4,2,1,30,0,0
116991,555.555555555555,4,2,1,30,1,0
116991,-56.84210526,4,2,1,30,0,0
117129,722.89156626506,4,2,1,30,1,0
117129,-43.68421053,4,2,1,30,0,0
117309,555.555555555556,4,2,1,30,1,0
117309,-56.84210526,4,2,1,30,0,0
117586,774.193548387097,4,2,1,30,1,0
117586,-40.78947368,4,2,1,30,0,0

[HitObjects]
64,192,651,128,0,967:0:0:0:0:
448,192,967,1,0,0:0:0:0:
320,192,1125,128,0,1599:0:0:0:0:
192,192,1283,128,0,1599:0:0:0:0:
64,192,1599,128,0,2546:0:0:0:0:
448,192,1599,128,0,1914:0:0:0:0:
192,192,1914,128,0,2546:0:0:0:0:
448,192,2546,128,0,3493:0:0:0:0:
320,192,2704,128,0,3493:0:0:0:0:
64,192,3493,1,0,0:0:0:0:
192,192,3809,128,0,4125:0:0:0:0:
320,192,4125,1,0,0:0:0:0:
448,192,4125,128,0,4441:0:0:0:0:
64,192,4441,128,0,4757:0:0:0:0:
448,192,4757,1,0,0:0:0:0:
192,192,4914,1,0,0:0:0:0:
320,192,5072,128,0,5388:0:0:0:0:
64,192,5230,1,0,0:0:0:0:
448,192,5388,128,0,6020:0:0:0:0:
192,192,5704,1,0,0:0:0:0:
320,192,6020,1,0,0:0:0:0:
192,192,6178,128,0,6493:0:0:0:0:
64,192,6335,128,0,6493:0:0:0:0:
64,192,6651,128,0,8230:0:0:0:0:
448,192,6651,128,0,6967:0:0:0:0:
192,192,6967,128,0,7283:0:0:0:0:
320,192,7283,1,0,0:0:0:0:
192,192,7599,1,0,0:0:0:0:
320,192,7757,1,0,0:0:0:0:
448,192,7757,128,0,8230:0:0:0:0:
192,192,8441,1,0,0:0:0:0:
64,192,8546,1,0,0:0:0:0:
448,192,8546,1,0,0:0:0:0:
320,192,8862,1,0,0:0:0:0:
192,192,9020,1,0,0:0:0:0:
320,192,9099,1,0,0:0:0:0:
64,192,9178,128,0,9493:0:0:0:0:
448,192,9178,1,0,0:0:0:0:
448,192,9493,128,0,10125:0:0:0:0:
64,192,9809,1,0,0:0:0:0:
192,192,9967,1,0,0:0:0:0:
320,192,10125,1,0,0:0:0:0:
64,192,10283,128,0,11388:0:0:0:0:
448,192,10283,1,0,0:0:0:0:
320,192,10757,1,0,0:0:0:0:
320,192,11388,128,0,11704:0:0:0:40:Snare.wav
64,192,11704,128,4,12020:0:0:0:0:
192,192,11704,1,2,0:0:0:0:
448,192,11704,1,0,0:0:0:0:
192,192,12020,1,8,0:0:0:0:
448,192,12020,1,0,0:0:0:0:
64,192,12178,1,4,0:0:0:0:
320,192,12178,128,2,12493:0:0:0:0:
64,192,12493,1,8,0:0:0:0:
192,192,12493,1,0,0:0:0:0:
320,192,12651,1,2,0:0:0:0:
448,192,12651,128,4,13125:0:0:0:0:
64,192,13125,1,0,0:0:0:50:Tom1.wav
192,192,13125,1,0,0:0:0:0:
320,192,13283,1,0,0:0:0:50:Tom2.wav
448,192,13283,1,0,0:0:0:0:
192,192,13441,1,0,0:0:0:50:Tom3.wav
320,192,13520,1,8,0:0:0:0:
192,192,13599,1,8,0:0:0:0:
448,192,13757,1,0,0:0:0:10:Snare.wav
320,192,13835,1,0,0:0:0:20:Snare.wav
192,192,13914,1,0,0:0:0:30:Snare.wav
64,192,14072,1,0,0:0:0:40:Snare.wav
192,192,14151,1,0,0:0:0:40:Snare.wav
320,192,14230,1,4,0:0:0:0:
448,192,14230,128,2,14546:0:0:0:0:
64,192,14546,1,8,0:0:0:0:
320,192,14546,1,0,0:0:0:0:
192,192,14704,128,2,15020:0:0:0:0:
448,192,14704,1,4,0:0:0:0:
320,192,15020,1,2,0:0:0:0:
448,192,15020,1,0,0:0:0:0:
64,192,15178,128,8,15493:0:0:0:0:
192,192,15178,1,4,0:0:0:0:
320,192,15493,1,8,0:0:0:0:
448,192,15493,1,0,0:0:0:0:
192,192,15651,1,2,0:0:0:0:
64,192,15809,1,0,0:0:0:50:Tom3.wav
448,192,15809,1,0,0:0:0:0:
320,192,15967,1,0,0:0:0:50:Tom3.wav
192,192,16125,1,8,0:0:0:0:
64,192,16204,1,0,0:0:0:0:
448,192,16283,1,0,0:0:0:0:
320,192,16362,1,0,0:0:0:0:
64,192,16441,1,8,0:0:0:0:
192,192,16441,1,4,0:0:0:0:
64,192,16757,128,4,17072:0:0:0:0:
448,192,16757,1,2,0:0:0:0:
192,192,17072,1,8,0:0:0:0:
320,192,17072,1,0,0:0:0:0:
64,192,17230,1,4,0:0:0:0:
448,192,17230,128,2,17546:0:0:0:0:
320,192,17388,1,0,0:0:0:0:
64,192,17546,1,2,0:0:0:0:
192,192,17546,1,0,0:0:0:0:
320,192,17704,128,4,18020:0:0:0:0:
448,192,17704,1,8,0:0:0:0:
64,192,18020,1,2,0:0:0:0:
192,192,18020,1,0,0:0:0:60:Hat Open.wav
448,192,18178,1,8,0:0:0:0:
320,192,18257,1,8,0:0:0:0:
64,192,18335,1,8,0:0:0:0:
192,192,18335,1,0,0:0:0:0:
320,192,18441,1,8,0:0:0:0:
448,192,18546,1,8,0:0:0:0:
64,192,18651,1,0,0:0:0:40:Snare.wav
192,192,18757,1,0,0:0:0:40:Snare.wav
320,192,18862,1,0,0:0:0:50:Tom3.wav
64,192,18967,1,0,0:0:0:50:Tom2.wav
320,192,19283,1,4,0:0:0:0:
448,192,19283,128,2,19599:0:0:0:0:
64,192,19599,1,8,0:0:0:0:
320,192,19599,1,0,0:0:0:0:
192,192,19757,128,2,20072:0:0:0:0:
448,192,19757,1,4,0:0:0:0:
320,192,20072,1,2,0:0:0:0:
448,192,20072,1,0,0:0:0:0:
64,192,20230,128,4,20546:0:0:0:0:
192,192,20230,1,8,0:0:0:0:
192,192,20546,1,0,0:0:0:0:
320,192,20704,1,8,0:0:0:0:
448,192,20704,1,0,0:0:0:0:
192,192,21020,1,0,0:0:0:50:Tom2.wav
320,192,21020,1,0,0:0:0:0:
64,192,21335,1,0,0:0:0:50:Tom3.wav
192,192,21335,1,0,0:0:0:0:
320,192,21493,1,0,0:0:0:50:Tom3.wav
448,192,21493,1,0,0:0:0:0:
192,192,21704,1,0,0:0:0:0:
64,192,21809,1,0,0:0:0:0:
448,192,21809,1,0,0:0:0:0:
192,192,22125,128,0,22283:0:0:0:0:
64,192,22283,128,0,22441:0:0:0:0:
448,192,22441,128,0,22757:0:0:0:0:
64,192,22757,128,0,22914:0:0:0:0:
320,192,22914,128,0,23230:0:0:0:0:
64,192,23072,1,0,0:0:0:0:
192,192,23072,1,0,0:0:0:0:
448,192,23230,128,0,23388:0:0:0:0:
192,192,23388,128,0,23704:0:0:0:0:
448,192,23704,1,0,0:0:0:0:
320,192,23862,1,0,0:0:0:0:
192,192,24020,1,0,0:0:0:0:
64,192,24178,1,0,0:0:0:0:
192,192,24257,1,0,0:0:0:0:
320,192,24335,1,0,0:0:0:0:
448,192,24335,128,0,24651:0:0:0:0:
192,192,24651,128,0,24967:0:0:0:0:
320,192,24809,1,0,0:0:0:0:
448,192,25125,1,0,0:0:0:0:
192,192,25283,1,0,0:0:0:0:
320,192,25441,128,0,25599:0:0:0:0:
64,192,25599,1,0,0:0:0:0:
448,192,25599,128,0,25914:0:0:0:0:
64,192,25914,1,0,0:0:0:0:
192,192,25914,128,0,26230:0:0:0:0:
320,192,26230,128,0,26546:0:0:0:0:
64,192,26546,128,0,26862:0:0:0:0:
320,192,26862,1,0,0:0:0:0:
448,192,26862,1,0,0:0:0:0:
192,192,27178,1,0,0:0:0:0:
448,192,27335,1,0,0:0:0:0:
64,192,27651,1,0,0:0:0:0:
320,192,27809,128,0,27967:0:0:0:0:
192,192,27967,128,0,28283:0:0:0:0:
448,192,28283,1,0,0:0:0:0:
64,192,28441,128,0,28757:0:0:0:0:
192,192,28599,1,0,0:0:0:0:
320,192,28914,1,0,0:0:0:0:
192,192,29230,1,0,0:0:0:0:
320,192,29309,1,0,0:0:0:0:
64,192,29388,1,0,0:0:0:0:
448,192,29388,128,0,29862:0:0:0:0:
192,192,29704,1,0,0:0:0:0:
320,192,29862,1,0,0:0:0:0:
64,192,30020,128,0,30493:0:0:0:0:
448,192,30335,1,0,0:0:0:0:
192,192,30493,1,0,0:0:0:0:
64,192,30651,1,0,0:0:0:0:
320,192,30651,128,0,30967:0:0:0:0:
448,192,30967,1,0,0:0:0:0:
64,192,31125,1,0,0:0:0:0:
320,192,31125,128,0,31441:0:0:0:0:
64,192,31599,128,0,31809:0:0:0:0:
192,192,31809,1,0,0:0:0:0:
320,192,31914,1,0,0:0:0:0:
448,192,31914,1,0,0:0:0:0:
192,192,32230,1,0,0:0:0:0:
64,192,32388,1,0,0:0:0:0:
320,192,32546,1,0,0:0:0:0:
320,192,32704,1,0,0:0:0:0:
192,192,32862,1,0,0:0:0:0:
448,192,33020,128,0,33335:0:0:0:0:
64,192,33178,1,0,0:0:0:0:
320,192,33178,1,0,0:0:0:0:
64,192,33493,128,0,33967:0:0:0:0:
192,192,33651,1,0,0:0:0:0:
448,192,33651,1,0,0:0:0:0:
320,192,33967,1,0,0:0:0:0:
192,192,34283,128,0,34441:0:0:0:0:
320,192,34441,1,0,0:0:0:0:
448,192,34441,128,0,34914:0:0:0:0:
192,192,34599,1,0,0:0:0:0:
64,192,34757,1,0,0:0:0:0:
320,192,34914,1,0,0:0:0:0:
192,192,35072,128,0,35546:0:0:0:0:
64,192,35230,1,0,0:0:0:0:
448,192,35388,1,0,0:0:0:0:
320,192,35546,1,0,0:0:0:0:
64,192,35704,1,0,0:0:0:0:
192,192,35704,1,0,0:0:0:0:
320,192,36020,1,0,0:0:0:0:
448,192,36020,128,0,36335:0:0:0:0:
64,192,36178,1,0,0:0:0:0:
192,192,36178,1,0,0:0:0:0:
320,192,36335,128,0,36651:0:0:0:0:
192,192,36493,1,0,0:0:0:0:
64,192,36651,1,0,0:0:0:0:
192,192,36809,1,0,0:0:0:0:
320,192,36888,1,0,0:0:0:0:
64,192,36967,1,0,0:0:0:0:
448,192,36967,1,0,0:0:0:0:
320,192,37283,128,0,37757:0:0:0:0:
448,192,37283,1,0,0:0:0:0:
192,192,37441,1,0,0:0:0:0:
64,192,37757,1,0,0:0:0:0:
192,192,37757,1,0,0:0:0:0:
448,192,37914,1,0,0:0:0:0:
320,192,38072,128,0,38388:0:0:0:0:
64,192,38230,1,0,0:0:0:0:
448,192,38230,1,0,0:0:0:0:
192,192,38388,1,0,0:0:0:0:
64,192,38546,128,0,38862:0:0:0:0:
192,192,38704,1,0,0:0:0:0:
448,192,38704,1,0,0:0:0:0:
320,192,39020,1,0,0:0:0:0:
448,192,39335,128,0,39493:0:0:0:0:
64,192,39493,128,0,39967:0:0:0:0:
192,192,39493,1,0,0:0:0:0:
320,192,39493,1,0,0:0:0:0:
320,192,40125,128,0,40599:0:0:0:0:
448,192,40283,1,0,0:0:0:0:
64,192,40599,1,0,0:0:0:0:
192,192,40678,1,0,0:0:0:0:
320,192,40757,1,0,0:0:0:0:
448,192,40757,128,0,41230:0:0:0:0:
192,192,40914,1,0,0:0:0:0:
64,192,41072,1,0,0:0:0:0:
320,192,41230,1,0,0:0:0:0:
192,192,41388,128,0,41704:0:0:0:30:Hat Close.wav
64,192,41546,1,0,0:0:0:30:Hat Close.wav
448,192,41704,1,0,0:0:0:60:Hat Open.wav
192,192,41862,1,0,0:0:0:0:
320,192,41941,1,0,0:0:0:0:
64,192,42020,1,4,0:0:0:0:
448,192,42020,1,2,0:0:0:0:
192,192,42335,1,0,0:0:0:30:Hat Close.wav
64,192,42493,1,8,0:0:0:0:
448,192,42493,1,0,0:0:0:0:
320,192,42651,128,0,42967:0:0:0:30:Hat Close.wav
64,192,42967,1,2,0:0:0:0:
192,192,42967,1,0,0:0:0:30:Hat Close.wav
448,192,43125,128,0,43441:0:0:0:0:
192,192,43283,1,0,0:0:0:30:Hat Close.wav
320,192,43441,1,0,0:0:0:0:
64,192,43599,128,0,43914:0:0:0:30:Hat Close.wav
320,192,43914,1,0,0:0:0:30:Hat Close.wav
320,192,44230,1,2,0:0:0:0:
448,192,44230,1,0,0:0:0:30:Hat Close.wav
64,192,44546,1,2,0:0:0:0:
448,192,44546,128,0,44862:0:0:0:30:Hat Close.wav
192,192,44862,128,0,45178:0:0:0:30:Hat Close.wav
320,192,45020,1,8,0:0:0:0:
448,192,45020,1,0,0:0:0:0:
64,192,45178,1,0,0:0:0:30:Hat Close.wav
64,192,45493,1,2,0:0:0:0:
192,192,45493,1,0,0:0:0:30:Hat Close.wav
320,192,45651,1,0,0:0:0:0:
448,192,45809,128,0,46125:0:0:0:30:Hat Close.wav
192,192,46125,128,0,46441:0:0:0:30:Hat Close.wav
448,192,46283,1,0,0:0:0:0:
64,192,46441,1,2,0:0:0:0:
320,192,46441,128,0,46757:0:0:0:30:Hat Close.wav
192,192,46599,1,0,0:0:0:0:
64,192,46757,128,0,47072:0:0:0:60:Hat Open.wav
448,192,46757,1,0,0:0:0:0:
192,192,46914,1,0,0:0:0:0:
320,192,47072,1,2,0:0:0:0:
448,192,47072,1,0,0:0:0:30:Hat Close.wav
192,192,47388,1,0,0:0:0:30:Hat Close.wav
320,192,47546,1,8,0:0:0:0:
448,192,47546,1,0,0:0:0:0:
64,192,47704,1,0,0:0:0:30:Hat Close.wav
64,192,48020,1,2,0:0:0:0:
192,192,48020,1,0,0:0:0:30:Hat Close.wav
320,192,48178,128,0,48493:0:0:0:0:
64,192,48335,1,0,0:0:0:30:Hat Close.wav
448,192,48335,1,0,0:0:0:0:
192,192,48651,128,0,48967:0:0:0:30:Hat Close.wav
320,192,48967,1,0,0:0:0:30:Hat Close.wav
64,192,49283,1,2,0:0:0:0:
448,192,49283,1,0,0:0:0:30:Hat Close.wav
320,192,49441,1,0,0:0:0:0:
64,192,49599,128,2,49914:0:0:0:0:
192,192,49599,1,0,0:0:0:30:Hat Close.wav
320,192,49914,1,0,0:0:0:30:Hat Close.wav
64,192,50072,1,8,0:0:0:0:
448,192,50072,1,0,0:0:0:0:
192,192,50230,128,0,50546:0:0:0:30:Hat Close.wav
320,192,50546,1,2,0:0:0:0:
448,192,50546,1,0,0:0:0:30:Hat Close.wav
64,192,50862,128,0,51178:0:0:0:30:Hat Close.wav
192,192,51020,1,0,0:0:0:0:
320,192,51178,1,2,0:0:0:0:
448,192,51178,1,0,0:0:0:60:Hat Open.wav
192,192,51335,1,0,0:0:0:0:
64,192,51493,1,8,0:0:0:0:
448,192,51493,1,0,0:0:0:0:
64,192,51651,1,8,0:0:0:0:
448,192,51651,1,0,0:0:0:0:
320,192,51809,1,0,0:0:0:60:Hat Open.wav
192,192,51967,1,0,0:0:0:0:
64,192,52125,1,4,0:0:0:0:
448,192,52125,1,2,0:0:0:0:
320,192,52441,1,0,0:0:0:30:Hat Close.wav
64,192,52599,1,8,0:0:0:0:
192,192,52599,1,0,0:0:0:0:
448,192,52757,1,0,0:0:0:30:Hat Close.wav
320,192,52914,1,0,0:0:0:0:
64,192,53072,1,2,0:0:0:0:
192,192,53072,1,0,0:0:0:30:Hat Close.wav
448,192,53230,128,0,53546:0:0:0:0:
64,192,53388,1,0,0:0:0:30:Hat Close.wav
320,192,53388,1,0,0:0:0:0:
192,192,53704,128,0,54020:0:0:0:30:Hat Close.wav
320,192,54020,1,0,0:0:0:30:Hat Close.wav
64,192,54335,1,2,0:0:0:0:
448,192,54335,1,0,0:0:0:30:Hat Close.wav
192,192,54493,1,0,0:0:0:0:
320,192,54651,128,2,55125:0:0:0:0:
448,192,54651,1,0,0:0:0:30:Hat Close.wav
192,192,54967,1,0,0:0:0:30:Hat Close.wav
64,192,55125,1,8,0:0:0:0:
448,192,55125,1,0,0:0:0:0:
192,192,55283,128,0,55757:0:0:0:30:Hat Close.wav
448,192,55599,1,2,0:0:0:0:
320,192,55599,1,0,0:0:0:30:Hat Close.wav
64,192,55914,1,0,0:0:0:30:Hat Close.wav
320,192,56230,128,0,56546:0:0:0:30:Hat Close.wav
448,192,56230,128,0,56546:0:0:0:0:
64,192,56546,128,2,56862:0:0:0:0:
192,192,56546,128,0,56862:0:0:0:30:Hat Close.wav
448,192,56862,128,0,57335:0:0:0:60:Hat Open.wav
320,192,57020,128,0,57335:0:0:0:0:
64,192,57178,1,2,0:0:0:0:
192,192,57178,1,0,0:0:0:30:Hat Close.wav
320,192,57493,128,0,57967:0:0:0:30:Hat Close.wav
448,192,57493,128,0,57967:0:0:0:0:
64,192,57651,1,8,0:0:0:0:
192,192,57651,1,0,0:0:0:0:
64,192,58125,128,2,58599:0:0:0:0:
448,192,58125,128,0,58283:0:0:0:30:Hat Close.wav
192,192,58283,128,0,58599:0:0:0:0:
320,192,58441,1,0,0:0:0:30:Hat Close.wav
448,192,58441,1,0,0:0:0:0:
64,192,58757,128,0,59072:0:0:0:30:Hat Close.wav
192,192,58757,128,0,59072:0:0:0:0:
320,192,59072,1,0,0:0:0:30:Hat Close.wav
64,192,59388,1,2,0:0:0:0:
448,192,59388,1,0,0:0:0:30:Hat Close.wav
192,192,59546,1,0,0:0:0:0:
320,192,59704,128,2,60178:0:0:0:0:
448,192,59704,1,0,0:0:0:30:Hat Close.wav
64,192,60020,1,0,0:0:0:30:Hat Close.wav
192,192,60178,1,8,0:0:0:0:
448,192,60178,1,0,0:0:0:0:
64,192,60335,128,0,60809:0:0:0:30:Hat Close.wav
192,192,60651,1,2,0:0:0:0:
448,192,60651,1,0,0:0:0:30:Hat Close.wav
320,192,60809,1,0,0:0:0:0:
192,192,60888,1,0,0:0:0:0:
64,192,60967,1,0,0:0:0:30:Hat Close.wav
448,192,60967,128,0,61283:0:0:0:0:
192,192,61283,1,0,0:0:0:60:Hat Open.wav
320,192,61441,1,8,0:0:0:10:soft-hitclap.wav
192,192,61520,1,8,0:0:0:25:soft-hitclap.wav
320,192,61599,1,8,0:0:0:0:
64,192,61757,1,0,0:0:0:50:Tom2.wav
192,192,61757,1,0,0:0:0:0:
320,192,61914,1,0,0:0:0:50:Tom3.wav
448,192,61914,1,0,0:0:0:0:
64,192,62230,1,4,0:0:0:0:
320,192,62230,128,2,62388:0:0:0:0:
448,192,62230,128,0,62388:0:0:0:0:
64,192,62546,128,0,63020:0:0:0:30:Ride.wav
192,192,62704,128,0,63020:0:0:0:30:Ride.wav
448,192,63020,1,0,0:0:0:30:Ride.wav
320,192,63178,1,0,0:0:0:0:
192,192,63335,128,0,63493:0:0:0:30:Ride.wav
64,192,63493,1,0,0:0:0:30:Ride.wav
448,192,63493,1,0,0:0:0:0:
192,192,63651,128,0,63809:0:0:0:0:
448,192,63809,128,0,64757:0:0:0:0:
320,192,64441,128,0,64757:0:0:0:0:
64,192,64757,128,0,65230:0:0:0:30:Ride.wav
192,192,64757,1,0,0:0:0:0:
448,192,65230,1,0,0:0:0:30:Ride.wav
64,192,65388,128,0,65862:0:0:0:0:
192,192,65388,128,0,65862:0:0:0:0:
320,192,66020,1,0,0:0:0:0:
448,192,66020,128,0,66493:0:0:0:0:
192,192,66335,1,0,0:0:0:0:
64,192,66493,1,0,0:0:0:30:Ride.wav
320,192,66651,128,0,66967:0:0:0:30:Ride.wav
448,192,66651,128,0,66967:0:0:0:0:
192,192,66967,1,0,0:0:0:30:Ride.wav
64,192,67125,1,4,0:0:0:30:soft-hitfinish.wav
448,192,67125,1,0,0:0:0:0:
64,192,67283,128,4,67599:0:0:0:30:soft-hitfinish.wav
448,192,67283,128,0,67599:0:0:0:0:
192,192,67599,128,0,67914:0:0:0:0:
320,192,67757,128,0,67914:0:0:0:0:
64,192,67914,1,2,0:0:0:0:
448,192,67914,1,0,0:0:0:30:Ride.wav
192,192,68072,1,0,0:0:0:0:
192,192,68230,1,0,0:0:0:0:
448,192,68388,128,0,68546:0:0:0:30:Ride.wav
64,192,68546,128,0,68862:0:0:0:0:
192,192,68704,128,0,68862:0:0:0:30:Ride.wav
448,192,68862,128,0,69493:0:0:0:30:Ride.wav
320,192,69178,1,2,0:0:0:0:
64,192,69493,128,0,69809:0:0:0:0:
192,192,69651,128,0,69809:0:0:0:0:
320,192,69809,128,0,70441:0:0:0:30:Ride.wav
448,192,69809,1,0,0:0:0:0:
64,192,70441,128,2,71493:0:0:0:0:
192,192,70441,1,0,0:0:0:30:Ride.wav
448,192,71020,1,0,0:0:0:0:
320,192,71493,1,0,0:0:0:0:
64,192,71704,1,2,0:0:0:0:
448,192,71704,1,0,0:0:0:30:Ride.wav
192,192,71941,1,0,0:0:0:0:
320,192,72178,128,0,72335:0:0:0:0:
64,192,72335,1,0,0:0:0:30:Ride.wav
448,192,72335,1,0,0:0:0:0:
192,192,72651,1,0,0:0:0:0:
448,192,72809,1,0,0:0:0:0:
64,192,72967,1,2,0:0:0:0:
192,192,72967,1,0,0:0:0:30:Ride.wav
448,192,73125,128,0,73441:0:0:0:0:
192,192,73441,1,0,0:0:0:30:Ride.wav
320,192,73520,1,0,0:0:0:0:
64,192,73599,128,0,73914:0:0:0:0:
448,192,73599,1,0,0:0:0:0:
320,192,73914,128,0,74230:0:0:0:0:
64,192,74230,1,2,0:0:0:0:
192,192,74230,128,0,74546:0:0:0:30:Ride.wav
448,192,74546,128,0,74704:0:0:0:0:
320,192,74704,1,0,0:0:0:0:
192,192,74783,1,0,0:0:0:0:
64,192,74862,128,0,75651:0:0:0:30:Ride.wav
448,192,74862,1,0,0:0:0:0:
320,192,75493,1,2,0:0:0:0:
448,192,75493,1,0,0:0:0:30:Ride.wav
64,192,75809,1,8,0:0:0:0:
192,192,75809,1,0,0:0:0:0:
320,192,75967,1,2,0:0:0:0:
448,192,75967,1,0,0:0:0:40:Hat Open2.wav
64,192,76441,1,0,0:0:0:30:Hat Close.wav
192,192,76599,1,0,0:0:0:40:Snare.wav
320,192,76678,1,0,0:0:0:0:
64,192,76757,1,8,0:0:0:0:
448,192,76757,1,0,0:0:0:0:
192,192,76914,128,0,77230:0:0:0:50:Tom2.wav
64,192,77072,128,0,77230:0:0:0:50:Tom3.wav
64,192,77388,1,4,0:0:0:0:
320,192,77388,1,2,0:0:0:0:
448,192,77388,128,0,77546:0:0:0:0:
320,192,77704,1,8,0:0:0:0:
448,192,77704,128,0,78178:0:0:0:60:Hat Open.wav
64,192,78020,1,2,0:0:0:0:
192,192,78020,1,0,0:0:0:60:Hat Open.wav
320,192,78178,1,2,0:0:0:0:
64,192,78335,1,8,0:0:0:0:
448,192,78335,1,0,0:0:0:60:Hat Open.wav
192,192,78493,1,2,0:0:0:0:
320,192,78493,128,0,78809:0:0:0:0:
192,192,78809,1,2,0:0:0:0:
448,192,78809,1,0,0:0:0:0:
64,192,78967,128,8,79283:0:0:0:0:
320,192,78967,1,0,0:0:0:60:Hat Open.wav
192,192,79283,1,2,0:0:0:0:
448,192,79283,1,0,0:0:0:60:Hat Open.wav
320,192,79441,1,2,0:0:0:0:
192,192,79599,128,8,79914:0:0:0:0:
64,192,79599,1,0,0:0:0:30:Hat Close.wav
320,192,79914,1,2,0:0:0:0:
448,192,79914,1,0,0:0:0:60:Hat Open.wav
64,192,80230,1,8,0:0:0:0:
320,192,80230,1,0,0:0:0:60:Hat Open.wav
192,192,80388,1,0,0:0:0:0:
320,192,80546,128,2,80862:0:0:0:0:
192,192,80704,1,2,0:0:0:0:
64,192,80862,1,8,0:0:0:0:
448,192,80862,1,0,0:0:0:60:Hat Open.wav
192,192,81020,128,2,81335:0:0:0:0:
320,192,81020,1,0,0:0:0:0:
320,192,81335,1,2,0:0:0:0:
448,192,81335,1,0,0:0:0:0:
64,192,81493,1,8,0:0:0:0:
192,192,81493,128,0,81809:0:0:0:60:Hat Open.wav
320,192,81809,1,2,0:0:0:0:
448,192,81809,1,0,0:0:0:60:Hat Open.wav
192,192,81967,1,2,0:0:0:0:
64,192,82125,1,8,0:0:0:0:
448,192,82125,1,0,0:0:0:60:Hat Open.wav
64,192,82441,1,2,0:0:0:0:
320,192,82441,1,4,0:0:0:0:
448,192,82441,1,0,0:0:0:0:
64,192,82757,1,8,0:0:0:0:
320,192,82757,1,0,0:0:0:60:Hat Open.wav
64,192,83072,1,2,0:0:0:0:
192,192,83072,1,0,0:0:0:60:Hat Open.wav
320,192,83230,1,2,0:0:0:0:
64,192,83388,1,8,0:0:0:0:
448,192,83388,1,0,0:0:0:60:Hat Open.wav
192,192,83546,1,2,0:0:0:0:
320,192,83546,1,0,0:0:0:0:
448,192,83704,128,0,84020:0:0:0:60:Hat Open.wav
192,192,83862,1,2,0:0:0:0:
64,192,84020,1,8,0:0:0:0:
320,192,84020,128,0,84335:0:0:0:60:Hat Open.wav
192,192,84335,128,2,84651:0:0:0:0:
448,192,84335,1,0,0:0:0:60:Hat Open.wav
320,192,84493,1,2,0:0:0:0:
64,192,84651,128,8,84967:0:0:0:0:
448,192,84651,1,0,0:0:0:60:Hat Open.wav
192,192,84967,1,2,0:0:0:0:
320,192,84967,1,4,0:0:0:0:
448,192,84967,128,0,85283:0:0:0:0:
64,192,85283,1,8,0:0:0:0:
320,192,85283,1,0,0:0:0:50:Tom2.wav
64,192,85441,1,4,0:0:0:0:
192,192,85441,128,2,85757:0:0:0:0:
448,192,85441,1,0,0:0:0:0:
320,192,85757,1,0,0:0:0:50:Tom1.wav
448,192,85757,1,0,0:0:0:0:
64,192,85914,1,8,0:0:0:0:
192,192,85914,1,0,0:0:0:0:
64,192,86072,1,4,0:0:0:0:
320,192,86072,1,2,0:0:0:0:
448,192,86072,128,0,86388:0:0:0:0:
64,192,86388,1,2,0:0:0:0:
192,192,86388,1,0,0:0:0:0:
320,192,86546,1,8,0:0:0:0:
448,192,86546,1,2,0:0:0:0:
192,192,86704,1,8,0:0:0:0:
320,192,86783,1,8,0:0:0:0:
448,192,86862,1,8,0:0:0:0:
64,192,87020,1,0,0:0:0:50:Tom2.wav
192,192,87020,1,0,0:0:0:0:
320,192,87178,1,0,0:0:0:50:Tom2.wav
448,192,87178,1,0,0:0:0:0:
192,192,87335,1,0,0:0:0:50:Tom3.wav
64,192,87493,1,4,0:0:0:0:
320,192,87493,1,2,0:0:0:0:
448,192,87493,128,0,87809:0:0:0:0:
64,192,87809,128,8,88125:0:0:0:0:
192,192,87809,1,0,0:0:0:60:Hat Open.wav
320,192,88125,1,2,0:0:0:0:
448,192,88125,1,0,0:0:0:60:Hat Open.wav
192,192,88283,1,2,0:0:0:0:
64,192,88441,1,8,0:0:0:0:
448,192,88441,1,0,0:0:0:60:Hat Open.wav
192,192,88599,1,2,0:0:0:0:
320,192,88599,128,0,88914:0:0:0:0:
64,192,88914,1,2,0:0:0:0:
192,192,88914,1,0,0:0:0:0:
448,192,89072,128,8,89388:0:0:0:0:
320,192,89230,128,0,89388:0:0:0:0:
64,192,89388,128,2,89862:0:0:0:0:
192,192,89546,128,2,89862:0:0:0:0:
448,192,89704,128,8,89862:0:0:0:0:
320,192,89862,1,0,0:0:0:0:
64,192,90020,1,2,0:0:0:0:
192,192,90020,1,4,0:0:0:0:
448,192,90020,1,0,0:0:0:0:
64,192,90335,1,8,0:0:0:0:
448,192,90335,1,0,0:0:0:60:Hat Open.wav
320,192,90493,1,0,0:0:0:0:
64,192,90651,128,2,90967:0:0:0:0:
448,192,90651,1,0,0:0:0:60:Hat Open.wav
192,192,90809,1,2,0:0:0:0:
320,192,90967,1,8,0:0:0:0:
448,192,90967,1,0,0:0:0:60:Hat Open.wav
192,192,91125,128,2,91441:0:0:0:0:
64,192,91125,1,0,0:0:0:0:
320,192,91441,1,2,0:0:0:0:
448,192,91441,1,0,0:0:0:0:
64,192,91599,128,8,92230:0:0:0:0:
448,192,91599,1,0,0:0:0:60:Hat Open.wav
320,192,91757,128,0,92072:0:0:0:0:
192,192,91914,128,2,92230:0:0:0:0:
448,192,92072,1,8,0:0:0:0:
320,192,92230,1,8,0:0:0:0:
448,192,92309,1,8,0:0:0:0:
192,192,92388,1,8,0:0:0:0:
320,192,92467,1,8,0:0:0:0:
64,192,92546,128,4,92704:0:0:0:0:
192,192,92546,128,2,92704:0:0:0:0:
448,192,92546,1,0,0:0:0:0:
64,192,92862,1,8,0:0:0:0:
448,192,92862,1,0,0:0:0:30:Ride.wav
320,192,93020,1,2,0:0:0:0:
192,192,93178,1,8,0:0:0:0:
448,192,93178,1,0,0:0:0:30:Ride.wav
64,192,93335,1,2,0:0:0:0:
320,192,93493,1,8,0:0:0:0:
448,192,93493,1,0,0:0:0:30:Ride.wav
192,192,93651,1,2,0:0:0:0:
64,192,93809,1,8,0:0:0:0:
448,192,93809,1,0,0:0:0:30:Ride.wav
320,192,93967,1,2,0:0:0:0:
64,192,94125,1,8,0:0:0:0:
192,192,94125,1,0,0:0:0:30:Ride.wav
448,192,94283,1,2,0:0:0:0:
64,192,94441,1,8,0:0:0:0:
320,192,94441,1,0,0:0:0:30:Ride.wav
192,192,94599,1,2,0:0:0:0:
64,192,94757,1,8,0:0:0:0:
448,192,94757,1,0,0:0:0:30:Ride.wav
320,192,94914,1,2,0:0:0:0:
64,192,95072,128,8,96020:0:0:0:0:
192,192,95072,1,0,0:0:0:30:Ride.wav
448,192,95072,1,0,0:0:0:0:
448,192,95230,1,0,0:0:0:0:
192,192,95388,1,8,0:0:0:0:
320,192,95388,1,0,0:0:0:30:Ride.wav
192,192,95546,1,2,0:0:0:0:
448,192,95704,1,8,0:0:0:0:
320,192,95704,1,0,0:0:0:30:Ride.wav
320,192,95862,1,2,0:0:0:0:
192,192,96020,1,8,0:0:0:0:
448,192,96020,1,0,0:0:0:30:Ride.wav
192,192,96178,1,2,0:0:0:0:
64,192,96335,1,8,0:0:0:0:
320,192,96335,1,0,0:0:0:30:Ride.wav
448,192,96335,128,0,96809:0:0:0:0:
64,192,96493,1,0,0:0:0:0:
192,192,96651,1,8,0:0:0:0:
320,192,96651,1,0,0:0:0:30:Ride.wav
192,192,96809,1,2,0:0:0:0:
64,192,96967,1,0,0:0:0:0:
320,192,97125,1,8,0:0:0:0:
448,192,97125,1,0,0:0:0:50:Tom3.wav
64,192,97283,1,8,0:0:0:0:
192,192,97283,1,0,0:0:0:50:Tom3.wav
320,192,97441,1,8,0:0:0:0:
448,192,97441,1,0,0:0:0:50:Tom3.wav
64,192,97599,1,4,0:0:0:0:
192,192,97599,1,0,0:0:0:0:
320,192,97914,1,0,0:0:0:0:
192,192,98072,128,0,98546:0:0:0:0:
448,192,98230,1,0,0:0:0:0:
64,192,98546,1,0,0:0:0:0:
448,192,98704,1,0,0:0:0:0:
192,192,98862,128,0,99178:0:0:0:0:
448,192,99178,128,0,99493:0:0:0:0:
64,192,99493,1,0,0:0:0:0:
320,192,99651,1,2,0:0:0:0:
448,192,99651,1,0,0:0:0:0:
64,192,99809,1,8,0:0:0:0:
192,192,99809,1,0,0:0:0:50:Tom3.wav
320,192,99967,1,0,0:0:0:0:
192,192,100046,1,0,0:0:0:0:
64,192,100125,128,4,101072:0:0:0:0:
320,192,100125,1,2,0:0:0:0:
448,192,100125,1,0,0:0:0:0:
192,192,100441,128,0,101072:0:0:0:0:
320,192,101072,1,8,0:0:0:0:
448,192,101072,1,0,0:0:0:0:
192,192,101230,1,0,0:0:0:50:Tom1.wav
64,192,101388,128,4,101862:0:0:0:0:
448,192,101388,128,2,101862:0:0:0:0:
192,192,101862,1,0,0:0:0:40:Snare.wav
320,192,102020,128,8,102178:0:0:0:0:
448,192,102020,1,0,0:0:0:0:
64,192,102178,128,0,102335:0:0:0:50:Tom2.wav
448,192,102335,128,0,102493:0:0:0:50:Tom3.wav
192,192,102493,128,0,102651:0:0:0:50:Tom3.wav
320,192,102651,1,4,0:0:0:0:
448,192,102651,128,2,102967:0:0:0:0:
64,192,102967,1,8,0:0:0:0:
320,192,102967,1,0,0:0:0:0:
192,192,103125,128,4,103441:0:0:0:0:
448,192,103125,1,2,0:0:0:0:
320,192,103441,1,2,0:0:0:0:
448,192,103441,1,0,0:0:0:0:
64,192,103599,128,8,103914:0:0:0:0:
192,192,103599,1,4,0:0:0:0:
192,192,103914,1,0,0:0:0:30:Ride.wav
320,192,104072,1,2,0:0:0:0:
64,192,104230,1,8,0:0:0:0:
448,192,104230,1,0,0:0:0:30:Ride.wav
192,192,104388,1,0,0:0:0:50:Tom3.wav
320,192,104546,1,8,0:0:0:0:
448,192,104625,1,0,0:0:0:50:Tom1.wav
64,192,104704,1,0,0:0:0:50:Tom2.wav
192,192,104783,1,2,0:0:0:0:
320,192,104862,1,4,0:0:0:0:
448,192,104862,1,8,0:0:0:0:
192,192,105020,1,0,0:0:0:0:
64,192,105178,128,4,105493:0:0:0:0:
320,192,105178,1,2,0:0:0:0:
448,192,105178,1,0,0:0:0:0:
192,192,105493,1,8,0:0:0:0:
448,192,105493,1,0,0:0:0:0:
64,192,105651,1,2,0:0:0:0:
320,192,105651,128,4,105967:0:0:0:0:
64,192,105967,1,2,0:0:0:0:
192,192,105967,1,0,0:0:0:0:
320,192,106125,1,8,0:0:0:0:
448,192,106125,128,4,106441:0:0:0:0:
64,192,106441,1,8,0:0:0:0:
320,192,106441,1,0,0:0:0:50:Tom1.wav
192,192,106599,1,2,0:0:0:0:
448,192,106757,1,0,0:0:0:50:Tom1.wav
448,192,106914,1,0,0:0:0:50:Tom3.wav
64,192,107072,1,8,0:0:0:0:
192,192,107072,1,0,0:0:0:0:
320,192,107178,1,8,0:0:0:0:
448,192,107283,1,0,0:0:0:50:Tom3.wav
64,192,107388,1,0,0:0:0:50:Tom2.wav
192,192,107493,1,0,0:0:0:50:Tom2.wav
320,192,107599,1,0,0:0:0:50:Tom3.wav
64,192,107704,128,4,108020:0:0:0:0:
448,192,107704,1,2,0:0:0:0:
192,192,108020,1,8,0:0:0:0:
448,192,108020,1,0,0:0:0:0:
64,192,108178,1,4,0:0:0:0:
320,192,108178,128,2,108493:0:0:0:0:
448,192,108335,1,0,0:0:0:0:
64,192,108493,1,2,0:0:0:0:
192,192,108493,1,0,0:0:0:0:
320,192,108651,1,4,0:0:0:0:
448,192,108651,128,8,108967:0:0:0:0:
64,192,108967,1,8,0:0:0:0:
320,192,108967,1,0,0:0:0:0:
192,192,109125,1,2,0:0:0:0:
448,192,109125,1,0,0:0:0:40:Hat Open2.wav
320,192,109283,1,0,0:0:0:0:
64,192,109441,1,2,0:0:0:0:
192,192,109599,1,8,0:0:0:0:
448,192,109599,1,0,0:0:0:50:Tom2.wav
64,192,109757,1,2,0:0:0:0:
320,192,109757,1,0,0:0:0:40:Hat Open2.wav
192,192,109914,1,0,0:0:0:50:Tom1.wav
64,192,110072,1,2,0:0:0:0:
320,192,110230,1,2,0:0:0:0:
448,192,110230,128,4,110546:0:0:0:0:
64,192,110546,1,8,0:0:0:0:
320,192,110546,1,0,0:0:0:0:
192,192,110704,128,4,111020:0:0:0:0:
448,192,110704,1,2,0:0:0:0:
320,192,111020,1,2,0:0:0:0:
448,192,111020,1,0,0:0:0:0:
64,192,111178,128,8,111493:0:0:0:0:
192,192,111178,1,4,0:0:0:0:
320,192,111493,1,2,0:0:0:0:
448,192,111493,1,4,0:0:0:0:
192,192,111599,1,8,0:0:0:0:
64,192,111704,1,8,0:0:0:0:
448,192,111809,1,8,0:0:0:0:
320,192,111914,1,8,0:0:0:0:
192,192,112020,1,8,0:0:0:0:
64,192,112125,1,8,0:0:0:0:
320,192,112230,1,8,0:0:0:0:
192,192,112335,1,0,0:0:0:50:Tom3.wav
448,192,112441,1,0,0:0:0:50:Tom2.wav
192,192,112546,1,0,0:0:0:50:Tom2.wav
320,192,112651,1,0,0:0:0:50:Tom3.wav
64,192,112757,128,4,116598:0:0:0:0:
192,192,112757,1,2,0:0:0:0:
448,192,112757,1,0,0:0:0:0:
448,192,113477,1,0,0:0:0:0:
320,192,113580,1,0,0:0:0:0:
192,192,113665,1,0,0:0:0:0:
448,192,113772,1,0,0:0:0:0:
320,192,113933,1,0,0:0:0:0:
192,192,114151,1,0,0:0:0:0:
320,192,114460,1,0,0:0:0:0:
448,192,114847,1,0,0:0:0:0:
192,192,115291,1,0,0:0:0:0:
320,192,116214,1,0,0:0:0:0:
448,192,116598,1,0,0:0:0:0:
320,192,116755,1,0,0:0:0:0:
192,192,116866,1,0,0:0:0:0:
64,192,116991,1,0,0:0:0:0:
448,192,117129,1,0,0:0:0:0:
320,192,117309,1,0,0:0:0:0:
192,192,117586,1,0,0:0:0:0:
64,192,117973,1,0,0:0:0:0:
