osu file format v14

[General]
AudioFilename: audio.mp3
AudioLeadIn: 0
PreviewTime: 76437
Countdown: 0
SampleSet: Soft
StackLeniency: 0.7
Mode: 3
LetterboxInBreaks: 0
SpecialStyle: 0
WidescreenStoryboard: 1

[Editor]
Bookmarks: 1595,11700,21805,42016,62226,67279,77384,87489,92542,97595,100121,102647,112753
DistanceSpacing: 1.1
BeatDivisor: 4
GridSize: 4
TimelineZoom: 2.5

[Metadata]
Title:Clover Day's (Short Ver.)
TitleUnicode:Clover Day's (Short Ver.)
Artist:Marie
ArtistUnicode:真理絵
Creator:Ulis-
Version:Easy
Source:Clover Day's
Tags:op opening nekonyan eroge novel visual ost galgame cut short ver version japanese j-pop j pop clover days little wing ML-ysg
BeatmapID:3937073
BeatmapSetID:1907605

[Difficulty]
HPDrainRate:6.5
CircleSize:4
OverallDifficulty:6.5
ApproachRate:5
SliderMultiplier:1.4
SliderTickRate:1

[Events]
//Background and Video events
0,0,"Clover Day's BG.jpg",0,0
//Break Periods
//Storyboard Layer 0 (Background)
//Storyboard Layer 1 (Fail)
//Storyboard Layer 2 (Pass)
//Storyboard Layer 3 (Foreground)
//Storyboard Layer 4 (Overlay)
//Storyboard Sound Samples
Sample,18020,0,"Hat Open.wav",60
Sample,42967,0,"Hat Close.wav",30
Sample,44230,0,"Hat Close.wav",30
Sample,45493,0,"Hat Close.wav",30
Sample,46441,0,"Hat Close.wav",30
Sample,46441,0,"Tom3.wav",50
Sample,47072,0,"Hat Close.wav",30
Sample,48020,0,"Hat Close.wav",30
Sample,49283,0,"Hat Close.wav",30
Sample,49599,0,"Hat Close.wav",30
Sample,50546,0,"Hat Close.wav",30
Sample,51178,0,"Hat Open.wav",60
Sample,53072,0,"Hat Close.wav",30
Sample,54335,0,"Hat Close.wav",30
Sample,55599,0,"Hat Close.wav",30
Sample,56546,0,"Hat Close.wav",30
Sample,56546,0,"Tom3.wav",50
Sample,57178,0,"Hat Close.wav",30
Sample,58125,0,"Hat Close.wav",30
Sample,59388,0,"Hat Close.wav",30
Sample,60651,0,"Hat Close.wav",30
Sample,70441,0,"Ride.wav",30
Sample,74230,0,"Ride.wav",30
Sample,79283,0,"Hat Open.wav",60
Sample,80546,0,"Hat Open.wav",60
Sample,81809,0,"Hat Open.wav",60
Sample,83388,0,"Hat Open.wav",60
Sample,84335,0,"Hat Open.wav",60
Sample,89388,0,"Hat Open.wav",60
Sample,89704,0,"Hat Open.wav",60
Sample,90651,0,"Hat Open.wav",60
Sample,91914,0,"Tom3.wav",50
Sample,93178,0,"Ride.wav",30
Sample,93809,0,"Ride.wav",30
Sample,94441,0,"Ride.wav",30
Sample,95072,0,"Ride.wav",30
Sample,95388,0,"Ride.wav",30
Sample,95704,0,"Ride.wav",30
Sample,96020,0,"Ride.wav",30
Sample,96651,0,"Ride.wav",30
Sample,97125,0,"Tom3.wav",50
Sample,97283,0,"Tom3.wav",50
Sample,97441,0,"Tom3.wav",50
Sample,104230,0,"Ride.wav",30
Sample,106441,0,"Tom1.wav",50
Sample,109599,0,"Tom2.wav",50
Sample,112125,0,"Tom1.wav",50

[TimingPoints]
336,315.78947368421,4,2,1,60,1,0
336,-100,4,2,1,60,0,0
11704,-100,4,2,1,60,0,1
21809,-100,4,2,1,60,0,0
77388,-100,4,2,1,60,0,1
87414,-100,4,2,1,60,0,0
87493,-100,4,2,1,60,0,1
97599,-100,4,2,1,60,0,0
102651,-100,4,2,1,60,0,1
112757,480,4,2,1,40,1,0
112757,-65.78947368,4,2,1,40,0,0
113477,413.793103448276,4,2,1,40,1,0
113477,-76.31578947,4,2,1,40,0,0
113580,342.857142857143,4,2,1,40,1,0
113580,-92.10526316,4,2,1,40,0,0
113665,428.571428571429,4,2,1,40,1,0
113665,-73.68421053,4,2,1,40,0,0
113772,645.161290322581,4,2,1,40,1,0
113772,-48.94736842,4,2,1,40,0,0
113933,437.956204379562,4,2,1,40,1,0
113933,-72.10526316,4,2,1,40,0,0
114151,530.973451327434,4,2,1,40,1,0
114151,-59.47368421,4,2,1,40,0,0
114504,588.235294117647,4,2,1,40,1,0
114504,-53.68421053,4,2,1,40,0,0
114847,444.444444444444,4,2,1,40,1,0
114847,-71.05263158,4,2,1,40,0,0
115291,461.538461538462,4,2,1,40,1,0
115291,-68.42105263,4,2,1,40,0,0
116214,384.615384615385,4,2,1,40,1,0
116214,-82.10526316,4,2,1,40,0,0
116598,631.578947368421,4,2,1,30,1,0
116598,-50,4,2,1,30,0,0
116755,444.444444444444,4,2,1,30,1,0
116755,-71.05263158,4,2,1,30,0,0
116866,500,4,2,1,30,1,0
116866,-63.15789474,4,2,1,30,0,0
116991,555.555555555555,4,2,1,30,1,0
116991,-56.84210526,4,2,1,30,0,0
117129,722.89156626506,4,2,1,30,1,0
117129,-43.68421053,4,2,1,30,0,0
117309,555.555555555556,4,2,1,30,1,0
117309,-56.84210526,4,2,1,30,0,0
117586,774.193548387097,4,2,1,30,1,0
117586,-40.78947368,4,2,1,30,0,0

[HitObjects]
64,192,651,128,0,967:0:0:0:0:
448,192,967,1,0,0:0:0:0:
320,192,1125,1,0,0:0:0:0:
192,192,1283,128,0,1599:0:0:0:0:
320,192,1599,1,0,0:0:0:0:
448,192,1599,1,0,0:0:0:0:
64,192,1914,128,0,2546:0:0:0:0:
192,192,2546,1,0,0:0:0:0:
448,192,2704,128,0,3493:0:0:0:0:
64,192,3493,1,0,0:0:0:0:
320,192,3809,128,0,4125:0:0:0:0:
448,192,4125,128,0,4441:0:0:0:0:
64,192,4441,128,0,4757:0:0:0:0:
192,192,5072,128,0,5388:0:0:0:0:
320,192,5388,128,0,6020:0:0:0:0:
448,192,6020,128,0,6651:0:0:0:0:
64,192,6651,128,0,7599:0:0:0:0:
192,192,6651,1,0,0:0:0:0:
448,192,6967,1,0,0:0:0:0:
192,192,7599,1,0,0:0:0:0:
448,192,7757,128,0,8546:0:0:0:0:
320,192,7757,1,0,0:0:0:0:
64,192,8546,1,0,0:0:0:0:
448,192,8862,1,0,0:0:0:0:
320,192,9020,128,0,9493:0:0:0:0:
192,192,9493,128,0,11388:0:0:0:0:
64,192,9809,1,0,0:0:0:0:
448,192,10283,1,0,0:0:0:0:
448,192,11388,128,0,11704:0:0:0:40:Snare.wav
64,192,11704,128,4,12020:0:0:0:0:
192,192,11704,1,2,0:0:0:0:
192,192,12178,128,4,12493:0:0:0:0:
320,192,12178,1,2,0:0:0:0:
320,192,12651,128,2,13125:0:0:0:0:
448,192,12651,1,4,0:0:0:0:
192,192,13125,1,0,0:0:0:50:Tom1.wav
64,192,13283,1,0,0:0:0:50:Tom2.wav
448,192,13441,1,0,0:0:0:50:Tom3.wav
320,192,13599,1,8,0:0:0:0:
192,192,13757,128,0,14230:0:0:0:10:Snare.wav
320,192,14230,1,4,0:0:0:0:
448,192,14230,128,2,14546:0:0:0:0:
192,192,14704,1,2,0:0:0:0:
320,192,14704,128,4,15020:0:0:0:0:
64,192,15178,1,8,0:0:0:0:
192,192,15178,128,4,15493:0:0:0:0:
448,192,15493,1,8,0:0:0:0:
320,192,15651,1,2,0:0:0:0:
64,192,15809,1,0,0:0:0:50:Tom3.wav
192,192,15967,1,0,0:0:0:50:Tom3.wav
448,192,16125,128,8,16441:0:0:0:0:
64,192,16441,1,8,0:0:0:0:
320,192,16441,1,4,0:0:0:0:
64,192,16757,128,4,17072:0:0:0:0:
192,192,16757,1,2,0:0:0:0:
192,192,17230,128,4,17546:0:0:0:0:
320,192,17230,1,2,0:0:0:0:
320,192,17704,128,4,18020:0:0:0:0:
448,192,17704,1,8,0:0:0:0:
64,192,18020,1,2,0:0:0:0:
448,192,18178,1,8,0:0:0:0:
192,192,18335,128,8,18651:0:0:0:0:
320,192,18651,128,0,18967:0:0:0:40:Snare.wav
64,192,18967,128,0,19283:0:0:0:50:Tom2.wav
320,192,19283,1,4,0:0:0:0:
448,192,19283,128,2,19599:0:0:0:0:
192,192,19757,1,2,0:0:0:0:
320,192,19757,128,4,20072:0:0:0:0:
64,192,20230,1,4,0:0:0:0:
192,192,20230,128,8,20546:0:0:0:0:
448,192,20546,1,0,0:0:0:0:
320,192,20704,1,8,0:0:0:0:
192,192,21020,1,0,0:0:0:50:Tom2.wav
64,192,21335,1,0,0:0:0:50:Tom3.wav
320,192,21493,1,0,0:0:0:50:Tom3.wav
192,192,21809,1,0,0:0:0:0:
320,192,22125,1,0,0:0:0:0:
192,192,22283,1,0,0:0:0:0:
448,192,22441,128,0,22757:0:0:0:0:
64,192,22757,1,0,0:0:0:0:
320,192,22914,128,0,23230:0:0:0:0:
64,192,23230,1,0,0:0:0:0:
192,192,23388,128,0,23704:0:0:0:0:
64,192,24178,1,0,0:0:0:0:
320,192,24335,1,0,0:0:0:0:
448,192,24335,128,0,24651:0:0:0:0:
192,192,24651,128,0,24967:0:0:0:0:
64,192,25441,1,0,0:0:0:0:
448,192,25599,128,0,25914:0:0:0:0:
192,192,25914,128,0,26230:0:0:0:0:
320,192,26230,128,0,26546:0:0:0:0:
64,192,26546,128,0,26862:0:0:0:0:
448,192,26862,1,0,0:0:0:0:
320,192,27335,1,0,0:0:0:0:
64,192,27809,1,0,0:0:0:0:
192,192,27967,128,0,28283:0:0:0:0:
448,192,28441,128,0,28757:0:0:0:0:
64,192,29230,1,0,0:0:0:0:
320,192,29388,1,0,0:0:0:0:
448,192,29388,128,0,29704:0:0:0:0:
64,192,30020,128,0,30493:0:0:0:0:
448,192,30651,128,0,30967:0:0:0:0:
192,192,30967,1,0,0:0:0:0:
320,192,31125,128,0,31441:0:0:0:0:
192,192,31599,128,0,31914:0:0:0:0:
448,192,31914,1,0,0:0:0:0:
64,192,32546,1,0,0:0:0:0:
320,192,32704,1,0,0:0:0:0:
192,192,32862,1,0,0:0:0:0:
448,192,33020,128,0,33335:0:0:0:0:
64,192,33493,128,0,33967:0:0:0:0:
192,192,34283,1,0,0:0:0:0:
64,192,34441,1,0,0:0:0:0:
448,192,34441,128,0,34914:0:0:0:0:
192,192,35072,128,0,35546:0:0:0:0:
64,192,35704,1,0,0:0:0:0:
448,192,36020,128,0,36335:0:0:0:0:
320,192,36335,128,0,36651:0:0:0:0:
64,192,36651,1,0,0:0:0:0:
192,192,36809,128,0,37125:0:0:0:0:
320,192,37283,128,0,37757:0:0:0:0:
448,192,37914,1,0,0:0:0:0:
320,192,38072,128,0,38388:0:0:0:0:
192,192,38546,128,0,39020:0:0:0:0:
448,192,39335,1,0,0:0:0:0:
64,192,39493,128,0,39967:0:0:0:0:
192,192,39493,1,0,0:0:0:0:
192,192,40125,128,0,40599:0:0:0:0:
320,192,40599,1,0,0:0:0:0:
64,192,40757,1,0,0:0:0:0:
448,192,40757,128,0,41230:0:0:0:0:
192,192,41388,128,0,41704:0:0:0:30:Hat Close.wav
64,192,42020,1,4,0:0:0:0:
448,192,42020,1,2,0:0:0:0:
192,192,42335,1,0,0:0:0:30:Hat Close.wav
448,192,42493,1,8,0:0:0:0:
320,192,42651,128,0,42967:0:0:0:30:Hat Close.wav
64,192,42967,1,2,0:0:0:0:
448,192,43125,128,0,43441:0:0:0:0:
320,192,43441,1,0,0:0:0:0:
64,192,43599,128,0,43914:0:0:0:30:Hat Close.wav
320,192,44230,1,2,0:0:0:0:
192,192,44546,1,2,0:0:0:0:
448,192,44546,128,0,44862:0:0:0:30:Hat Close.wav
64,192,44862,1,0,0:0:0:30:Hat Close.wav
320,192,45020,1,8,0:0:0:0:
192,192,45493,1,2,0:0:0:0:
64,192,45651,1,0,0:0:0:0:
448,192,45809,128,0,46125:0:0:0:30:Hat Close.wav
192,192,46125,128,0,46441:0:0:0:30:Hat Close.wav
320,192,46441,128,2,46757:0:0:0:0:
64,192,46757,128,0,47072:0:0:0:60:Hat Open.wav
448,192,47072,1,2,0:0:0:0:
320,192,47546,1,8,0:0:0:0:
192,192,48020,1,2,0:0:0:0:
320,192,48178,128,0,48493:0:0:0:0:
192,192,48651,128,0,48967:0:0:0:30:Hat Close.wav
448,192,49283,1,2,0:0:0:0:
64,192,49599,128,2,49914:0:0:0:0:
320,192,50072,1,8,0:0:0:0:
192,192,50230,128,0,50546:0:0:0:30:Hat Close.wav
448,192,50546,1,2,0:0:0:0:
64,192,50862,1,0,0:0:0:30:Hat Close.wav
192,192,51020,1,0,0:0:0:0:
320,192,51178,1,2,0:0:0:0:
64,192,51493,1,8,0:0:0:0:
448,192,51651,1,8,0:0:0:0:
192,192,51809,128,0,52125:0:0:0:60:Hat Open.wav
64,192,52125,1,4,0:0:0:0:
448,192,52125,1,2,0:0:0:0:
320,192,52599,1,8,0:0:0:0:
64,192,52757,1,0,0:0:0:30:Hat Close.wav
448,192,52914,1,0,0:0:0:0:
192,192,53072,1,2,0:0:0:0:
448,192,53230,128,0,53546:0:0:0:0:
192,192,53704,128,0,54020:0:0:0:30:Hat Close.wav
64,192,54335,1,2,0:0:0:0:
192,192,54493,1,0,0:0:0:0:
320,192,54651,128,2,55125:0:0:0:0:
448,192,54651,1,0,0:0:0:30:Hat Close.wav
64,192,55125,1,8,0:0:0:0:
448,192,55283,128,0,55914:0:0:0:30:Hat Close.wav
64,192,55599,1,2,0:0:0:0:
320,192,56230,1,0,0:0:0:30:Hat Close.wav
448,192,56230,128,0,56546:0:0:0:0:
64,192,56546,128,2,56862:0:0:0:0:
448,192,56862,1,0,0:0:0:60:Hat Open.wav
320,192,57020,128,0,57493:0:0:0:0:
64,192,57178,1,2,0:0:0:0:
448,192,57493,128,0,58125:0:0:0:30:Hat Close.wav
64,192,57651,1,8,0:0:0:0:
320,192,58125,1,2,0:0:0:0:
192,192,58283,128,0,58757:0:0:0:0:
64,192,58757,128,0,59072:0:0:0:30:Hat Close.wav
320,192,59388,1,2,0:0:0:0:
64,192,59704,1,2,0:0:0:0:
448,192,59704,128,0,60178:0:0:0:30:Hat Close.wav
192,192,60335,128,0,60809:0:0:0:30:Hat Close.wav
64,192,60651,1,2,0:0:0:0:
448,192,60967,128,0,61441:0:0:0:30:Hat Close.wav
64,192,61441,1,8,0:0:0:10:soft-hitclap.wav
192,192,61599,1,8,0:0:0:0:
448,192,61757,1,0,0:0:0:50:Tom2.wav
320,192,61914,1,0,0:0:0:50:Tom3.wav
64,192,62230,1,4,0:0:0:0:
448,192,62230,1,2,0:0:0:0:
192,192,62546,1,0,0:0:0:30:Ride.wav
64,192,62704,128,0,63020:0:0:0:30:Ride.wav
448,192,63020,1,0,0:0:0:30:Ride.wav
320,192,63178,1,0,0:0:0:0:
192,192,63335,1,0,0:0:0:30:Ride.wav
192,192,63651,1,0,0:0:0:0:
448,192,63809,128,0,64757:0:0:0:0:
192,192,64441,1,0,0:0:0:0:
64,192,64757,128,0,65230:0:0:0:30:Ride.wav
192,192,65388,128,0,65862:0:0:0:0:
448,192,66020,128,0,66493:0:0:0:0:
320,192,66651,128,0,66967:0:0:0:30:Ride.wav
64,192,67125,1,4,0:0:0:30:soft-hitfinish.wav
320,192,67283,1,4,0:0:0:30:soft-hitfinish.wav
448,192,67283,128,0,67599:0:0:0:0:
192,192,67599,1,0,0:0:0:0:
320,192,67757,128,0,68072:0:0:0:0:
64,192,68072,1,0,0:0:0:0:
192,192,68230,1,0,0:0:0:0:
320,192,68546,1,0,0:0:0:0:
192,192,68704,1,0,0:0:0:30:Ride.wav
448,192,68862,128,0,69809:0:0:0:30:Ride.wav
64,192,69493,1,0,0:0:0:0:
320,192,69809,128,0,70441:0:0:0:30:Ride.wav
64,192,70441,128,2,71072:0:0:0:0:
320,192,71072,1,0,0:0:0:0:
192,192,71493,1,0,0:0:0:0:
320,192,71914,1,0,0:0:0:0:
64,192,72335,1,0,0:0:0:30:Ride.wav
448,192,72335,1,0,0:0:0:0:
192,192,72651,1,0,0:0:0:0:
320,192,72809,1,0,0:0:0:0:
192,192,73125,128,0,73441:0:0:0:0:
64,192,73599,128,0,73914:0:0:0:0:
320,192,73914,128,0,74230:0:0:0:0:
192,192,74230,128,2,74546:0:0:0:0:
64,192,74546,1,0,0:0:0:0:
448,192,74862,128,0,75651:0:0:0:30:Ride.wav
64,192,75809,1,8,0:0:0:0:
192,192,75809,1,0,0:0:0:0:
320,192,75967,1,2,0:0:0:0:
448,192,75967,1,0,0:0:0:40:Hat Open2.wav
192,192,76441,128,0,76757:0:0:0:30:Hat Close.wav
64,192,76757,1,8,0:0:0:0:
448,192,76757,1,0,0:0:0:0:
320,192,76914,1,0,0:0:0:50:Tom2.wav
192,192,77072,128,0,77388:0:0:0:50:Tom3.wav
320,192,77388,1,4,0:0:0:0:
448,192,77388,1,2,0:0:0:0:
320,192,77704,128,8,78335:0:0:0:0:
448,192,77704,1,0,0:0:0:60:Hat Open.wav
192,192,78335,1,8,0:0:0:0:
448,192,78335,1,0,0:0:0:60:Hat Open.wav
64,192,78493,128,2,78809:0:0:0:0:
192,192,78809,1,2,0:0:0:0:
320,192,78967,1,8,0:0:0:0:
448,192,78967,128,0,79283:0:0:0:60:Hat Open.wav
192,192,79283,128,2,79599:0:0:0:0:
64,192,79599,128,8,79914:0:0:0:0:
448,192,79599,1,0,0:0:0:60:Hat Open.wav
64,192,80230,1,8,0:0:0:0:
192,192,80230,1,0,0:0:0:60:Hat Open.wav
448,192,80388,1,0,0:0:0:0:
320,192,80546,128,2,80862:0:0:0:0:
64,192,80862,1,8,0:0:0:0:
448,192,80862,1,0,0:0:0:60:Hat Open.wav
192,192,81020,128,2,81493:0:0:0:0:
64,192,81493,1,8,0:0:0:0:
448,192,81493,128,0,81809:0:0:0:60:Hat Open.wav
320,192,81809,128,2,82125:0:0:0:0:
64,192,82125,1,8,0:0:0:0:
192,192,82125,1,0,0:0:0:60:Hat Open.wav
64,192,82441,1,2,0:0:0:0:
448,192,82441,1,4,0:0:0:0:
320,192,82757,1,8,0:0:0:0:
448,192,82757,1,0,0:0:0:60:Hat Open.wav
192,192,83230,1,2,0:0:0:0:
64,192,83388,1,8,0:0:0:0:
320,192,83546,1,2,0:0:0:0:
448,192,83704,128,0,84020:0:0:0:60:Hat Open.wav
64,192,84020,1,8,0:0:0:0:
192,192,84020,128,0,84335:0:0:0:60:Hat Open.wav
320,192,84335,1,2,0:0:0:0:
64,192,84651,1,8,0:0:0:0:
192,192,84651,128,0,84967:0:0:0:60:Hat Open.wav
320,192,84967,1,2,0:0:0:0:
448,192,84967,128,4,85283:0:0:0:0:
64,192,85283,1,8,0:0:0:0:
192,192,85441,1,4,0:0:0:0:
320,192,85441,128,2,85757:0:0:0:0:
64,192,85757,1,0,0:0:0:50:Tom1.wav
448,192,85914,1,8,0:0:0:0:
64,192,86072,1,4,0:0:0:0:
192,192,86072,128,2,86546:0:0:0:0:
320,192,86546,1,8,0:0:0:0:
448,192,86546,1,2,0:0:0:0:
192,192,87020,1,0,0:0:0:50:Tom2.wav
448,192,87178,1,0,0:0:0:50:Tom2.wav
64,192,87335,1,0,0:0:0:50:Tom3.wav
320,192,87493,1,4,0:0:0:0:
448,192,87493,128,2,87809:0:0:0:0:
64,192,87809,1,8,0:0:0:0:
192,192,87809,128,0,88125:0:0:0:60:Hat Open.wav
64,192,88441,1,8,0:0:0:0:
448,192,88441,1,0,0:0:0:60:Hat Open.wav
320,192,88599,128,2,88914:0:0:0:0:
64,192,89072,1,8,0:0:0:0:
192,192,89072,128,0,89388:0:0:0:60:Hat Open.wav
448,192,89388,128,2,90020:0:0:0:0:
320,192,89704,128,8,90020:0:0:0:0:
64,192,90020,1,2,0:0:0:0:
192,192,90020,1,4,0:0:0:0:
320,192,90335,1,8,0:0:0:0:
448,192,90335,1,0,0:0:0:60:Hat Open.wav
64,192,90493,1,0,0:0:0:0:
192,192,90651,128,2,90967:0:0:0:0:
64,192,90967,1,8,0:0:0:0:
448,192,90967,1,0,0:0:0:60:Hat Open.wav
320,192,91125,128,2,91441:0:0:0:0:
64,192,91599,1,8,0:0:0:0:
192,192,91599,128,0,91914:0:0:0:60:Hat Open.wav
320,192,91914,128,2,92230:0:0:0:0:
448,192,92230,128,8,92546:0:0:0:0:
64,192,92546,128,4,92862:0:0:0:0:
192,192,92546,1,2,0:0:0:0:
320,192,92862,1,8,0:0:0:0:
448,192,92862,1,0,0:0:0:30:Ride.wav
192,192,93178,1,8,0:0:0:0:
64,192,93493,1,8,0:0:0:0:
448,192,93493,1,0,0:0:0:30:Ride.wav
320,192,93809,1,8,0:0:0:0:
64,192,94125,1,8,0:0:0:0:
192,192,94125,1,0,0:0:0:30:Ride.wav
320,192,94441,1,8,0:0:0:0:
192,192,94757,1,8,0:0:0:0:
448,192,94757,1,0,0:0:0:30:Ride.wav
64,192,95072,128,8,96020:0:0:0:0:
192,192,95388,1,8,0:0:0:0:
448,192,95704,1,8,0:0:0:0:
320,192,96020,1,8,0:0:0:0:
64,192,96335,1,8,0:0:0:0:
448,192,96335,128,0,96967:0:0:0:30:Ride.wav
192,192,96651,1,8,0:0:0:0:
320,192,96967,1,0,0:0:0:0:
64,192,97125,1,8,0:0:0:0:
192,192,97283,1,8,0:0:0:0:
320,192,97441,1,8,0:0:0:0:
64,192,97599,1,4,0:0:0:0:
448,192,97599,1,0,0:0:0:0:
192,192,98230,1,0,0:0:0:0:
320,192,98862,1,0,0:0:0:0:
448,192,99493,1,0,0:0:0:0:
64,192,99809,1,8,0:0:0:0:
192,192,99809,1,0,0:0:0:50:Tom3.wav
320,192,100125,128,4,100441:0:0:0:0:
448,192,100125,1,2,0:0:0:0:
64,192,100441,128,0,100757:0:0:0:0:
192,192,101072,128,8,101388:0:0:0:0:
64,192,101388,1,4,0:0:0:0:
448,192,101388,128,2,101704:0:0:0:0:
192,192,101862,1,0,0:0:0:40:Snare.wav
64,192,102020,1,8,0:0:0:0:
320,192,102178,1,0,0:0:0:50:Tom2.wav
192,192,102335,1,0,0:0:0:50:Tom3.wav
64,192,102493,1,0,0:0:0:50:Tom3.wav
320,192,102651,1,4,0:0:0:0:
448,192,102651,128,2,102967:0:0:0:0:
192,192,103125,1,4,0:0:0:0:
320,192,103125,128,2,103441:0:0:0:0:
64,192,103599,1,8,0:0:0:0:
192,192,103599,128,4,103914:0:0:0:0:
448,192,103914,1,0,0:0:0:30:Ride.wav
320,192,104072,1,2,0:0:0:0:
64,192,104230,1,8,0:0:0:0:
192,192,104388,1,0,0:0:0:50:Tom3.wav
448,192,104546,128,8,104862:0:0:0:0:
64,192,104862,1,4,0:0:0:0:
320,192,104862,1,8,0:0:0:0:
64,192,105178,128,4,105493:0:0:0:0:
192,192,105178,1,2,0:0:0:0:
192,192,105651,128,2,105967:0:0:0:0:
320,192,105651,1,4,0:0:0:0:
320,192,106125,128,8,106441:0:0:0:0:
448,192,106125,1,4,0:0:0:0:
64,192,106441,1,8,0:0:0:0:
192,192,106599,1,2,0:0:0:0:
448,192,106757,1,0,0:0:0:50:Tom1.wav
320,192,106914,1,0,0:0:0:50:Tom3.wav
192,192,107072,128,8,107388:0:0:0:0:
64,192,107388,128,0,107704:0:0:0:50:Tom2.wav
320,192,107704,1,4,0:0:0:0:
448,192,107704,128,2,108020:0:0:0:0:
192,192,108178,1,4,0:0:0:0:
320,192,108178,128,2,108493:0:0:0:0:
64,192,108651,1,4,0:0:0:0:
192,192,108651,128,8,108967:0:0:0:0:
448,192,108967,1,8,0:0:0:0:
64,192,109125,1,2,0:0:0:0:
320,192,109125,1,0,0:0:0:40:Hat Open2.wav
64,192,109599,1,8,0:0:0:0:
192,192,109757,1,2,0:0:0:0:
448,192,109757,1,0,0:0:0:40:Hat Open2.wav
192,192,110230,1,2,0:0:0:0:
64,192,110230,128,4,110546:0:0:0:0:
320,192,110704,1,4,0:0:0:0:
192,192,110704,128,2,111020:0:0:0:0:
448,192,111178,1,8,0:0:0:0:
320,192,111178,128,4,111493:0:0:0:0:
64,192,111493,1,6,0:0:0:0:
192,192,111704,1,8,0:0:0:0:
320,192,111914,1,8,0:0:0:0:
448,192,112125,128,8,112441:0:0:0:0:
192,192,112441,128,0,112757:0:0:0:50:Tom2.wav
64,192,112757,128,4,117973:0:0:0:0:
448,192,112757,1,2,0:0:0:0:
