osu file format v14

[General]
AudioFilename: audio.mp3
AudioLeadIn: 0
PreviewTime: 76260
Countdown: 0
SampleSet: Soft
StackLeniency: 0.7
Mode: 0
LetterboxInBreaks: 0
WidescreenStoryboard: 1

[Editor]
Bookmarks: 11681,21786,31891,41997,52102,62207,72313,77365,87470,97576,102628,112734
DistanceSpacing: 1.4
BeatDivisor: 4
GridSize: 32
TimelineZoom: 1.9

[Metadata]
Title:Clover Day's (Short Ver.)
TitleUnicode:Clover Day's (Short Ver.)
Artist:Marie
ArtistUnicode:真理絵
Creator:Melae
Version:Take's Hard
Source:Clover Day's
Tags:eroge opening op visual novel vn galgame japanese female vocals 三輪学 teratani tomomi 寺谷知己 days video game amats take sanayui not your kitty not_your_kitty celektus jpop j pop j-pop
BeatmapID:4366666
BeatmapSetID:2080113

[Difficulty]
HPDrainRate:4
CircleSize:3.8
OverallDifficulty:6
ApproachRate:8
SliderMultiplier:1.35
SliderTickRate:1

[Events]
//Background and Video events
0,0,"bg.jpg",0,0
//Break Periods
2,62410,66513
//Storyboard Layer 0 (Background)
//Storyboard Layer 1 (Fail)
//Storyboard Layer 2 (Pass)
//Storyboard Layer 3 (Foreground)
//Storyboard Layer 4 (Overlay)
//Storyboard Sound Samples

[TimingPoints]
316,315.789473684211,4,2,1,35,1,0
11052,-100,4,2,1,10,0,0
11210,-100,4,2,1,20,0,0
11368,-100,4,2,1,30,0,0
11447,-100,4,2,1,40,0,0
11526,-100,4,2,1,50,0,0
11605,-100,4,2,1,60,0,0
11684,-111.111111111111,4,2,1,70,0,0
14684,-111.111111111111,4,2,2,70,0,0
15000,-111.111111111111,4,2,1,70,0,0
15947,-111.111111111111,4,2,2,70,0,0
16421,-111.111111111111,4,2,1,70,0,0
17210,-111.111111111111,4,2,2,70,0,0
17526,-111.111111111111,4,2,1,70,0,0
19158,-111.111111111111,4,2,2,70,0,0
19263,-111.111111111111,4,2,1,70,0,0
19737,-111.111111111111,4,2,2,70,0,0
20210,-111.111111111111,4,2,1,70,0,0
21473,-111.111111111111,4,2,3,70,0,0
21579,-111.111111111111,4,2,2,70,0,0
21789,-111.111111111111,4,2,2,35,0,0
22105,-166.666666666667,4,2,2,35,0,0
41684,-166.666666666667,4,2,1,40,0,0
42000,-125,4,2,2,50,0,0
42473,-125,4,2,1,50,0,0
46421,-125,4,2,2,50,0,0
46737,-125,4,2,1,50,0,0
51158,-125,4,2,3,50,0,0
51473,-125,4,2,1,50,0,0
52105,-125,4,2,2,50,0,0
52579,-125,4,2,1,50,0,0
56526,-125,4,2,2,50,0,0
56842,-125,4,2,1,50,0,0
62210,-125,4,2,1,30,0,0
62684,-125,4,2,4,30,0,0
63158,-125,4,2,1,30,0,0
63316,-125,4,2,4,30,0,0
63631,-125,4,2,1,30,0,0
64421,-125,4,2,4,15,0,0
64579,-125,4,2,4,20,0,0
64737,-125,4,2,4,30,0,0
65368,-125,4,2,1,30,0,0
66316,-125,4,2,4,15,0,0
66631,-125,4,2,4,30,0,0
67105,-125,4,2,2,30,0,0
67263,-125,4,2,2,40,0,0
68210,-125,4,2,4,40,0,0
68526,-125,4,2,1,40,0,0
68684,-125,4,2,4,40,0,0
69158,-125,4,2,1,40,0,0
70105,-125,4,2,4,40,0,0
70421,-125,4,2,1,40,0,0
72789,-125,4,2,4,40,0,0
72947,-125,4,2,1,40,0,0
73421,-125,4,2,4,40,0,0
73500,-125,4,2,1,40,0,0
73737,-125,4,2,4,40,0,0
73894,-125,4,2,1,40,0,0
74052,-125,4,2,4,40,0,0
74210,-125,4,2,1,40,0,0
75158,-125,4,2,4,40,0,0
75473,-125,4,2,1,40,0,0
75789,-125,4,2,1,60,0,0
75947,-125,4,2,3,60,0,0
76579,-125,4,2,1,60,0,0
77210,-125,4,2,2,60,0,0
77368,-100,4,2,1,90,0,0
78000,-100,4,2,3,90,0,0
78158,-100,4,2,1,90,0,0
79263,-100,4,2,3,90,0,0
79421,-100,4,2,1,90,0,0
79894,-100,4,2,3,90,0,0
80210,-100,4,2,1,90,0,0
80526,-100,4,2,3,90,0,0
80684,-100,4,2,1,90,0,0
81789,-100,4,2,3,90,0,0
81947,-100,4,2,1,90,0,0
82421,-100,4,2,2,90,0,0
82737,-100,4,2,1,90,0,0
83052,-100,4,2,3,90,0,0
83210,-100,4,2,1,90,0,0
83684,-100,4,2,2,90,0,0
84000,-100,4,2,1,90,0,0
84316,-100,4,2,3,90,0,0
84473,-100,4,2,1,90,0,0
85263,-100,4,2,2,90,0,0
85421,-100,4,2,1,90,0,0
87158,-100,4,2,2,90,0,0
87473,-100,4,2,1,90,0,0
88105,-100,4,2,3,90,0,0
88263,-100,4,2,1,90,0,0
89368,-100,4,2,3,90,0,0
89526,-100,4,2,1,90,0,0
90631,-100,4,2,3,90,0,0
90789,-100,4,2,1,90,0,0
92842,-100,4,2,2,90,0,0
97105,-100,4,2,2,50,0,0
97263,-100,4,2,2,70,0,0
97421,-100,4,2,2,90,0,0
97579,-142.857142857143,4,2,2,50,0,0
100105,-117.647058823529,4,2,1,80,0,0
102473,-117.647058823529,4,2,2,80,0,0
102631,-111.111111111111,4,2,1,80,0,0
103105,-111.111111111111,4,2,2,80,0,0
103421,-111.111111111111,4,2,1,80,0,0
105631,-111.111111111111,4,2,2,80,0,0
105947,-111.111111111111,4,2,1,80,0,0
108158,-111.111111111111,4,2,2,80,0,0
108473,-111.111111111111,4,2,1,80,0,0
109263,-111.111111111111,4,2,2,80,0,0
109737,-111.111111111111,4,2,1,80,0,0
109894,-111.111111111111,4,2,2,80,0,0
110210,-111.111111111111,4,2,1,80,0,0
110684,-111.111111111111,4,2,2,80,0,0
111000,-111.111111111111,4,2,1,80,0,0
111579,-111.111111111111,4,2,1,40,0,0
111684,-111.111111111111,4,2,1,60,0,0
111789,-111.111111111111,4,2,1,80,0,0
112631,-111.111111111111,4,2,2,80,0,0
112737,480,4,2,1,30,1,0
113457,413.793103448276,4,2,1,30,1,0
113560,342.857142857143,4,2,1,30,1,0
113645,428.571428571429,4,2,1,30,1,0
113752,645.161290322581,4,2,1,30,1,0
113913,437.956204379562,4,2,1,30,1,0
114131,530.973451327434,4,2,1,30,1,0
114484,588.235294117647,4,2,1,30,1,0
114827,444.444444444444,4,2,1,30,1,0
115271,461.538461538462,4,2,1,30,1,0
116194,384.615384615385,4,2,1,30,1,0
116578,631.578947368421,4,2,1,30,1,0
116735,444.444444444444,4,2,1,30,1,0
116846,500,4,2,1,30,1,0
116971,555.555555555555,4,2,1,30,1,0
117109,722.89156626506,4,2,1,30,1,0
117289,555.555555555556,4,2,1,30,1,0
117566,774.193548387097,4,2,1,30,1,0

[Colours]
Combo1 : 240,166,121
Combo2 : 248,222,199
Combo3 : 170,173,234
Combo4 : 253,252,169

[HitObjects]
55,124,11684,6,1,P|110:106|153:145,1,121.499996292114,6|8,3:2|2:1,0:0:0:0:
235,125,12158,1,6,3:2:0:0:
209,208,12316,1,2,2:2:0:0:
209,208,12473,1,8,2:1:0:0:
295,184,12631,2,1,P|337:176|375:289,1,182.249994438172,6|8,3:2|2:3,0:0:0:0:
326,358,13263,6,1,L|386:369,1,60.7499981460572,4|4,2:3|2:3,0:0:0:0:
415,378,13500,1,8,2:1:0:0:
415,378,13579,1,0,1:1:0:0:
504,349,13737,2,1,L|499:319,5,30.3749990730286,8|0|0|0|0|0,2:1|0:0|1:1|1:1|1:1|1:1,0:0:0:0:
488,283,14210,6,1,L|428:272,2,60.7499981460572,6|2|8,3:2|2:2|2:1,0:0:0:0:
481,194,14684,1,6,3:2:0:0:
481,194,14842,2,1,L|470:134,1,60.7499981460572,2|8,2:2|2:1,0:0:0:0:
455,43,15158,1,6,3:2:0:0:
294,0,15473,5,8,2:1:0:0:
294,0,15631,1,0,3:3:0:0:
332,80,15789,2,1,P|338:109|331:138,1,60.7499981460572,4|4,2:3|2:3,0:0:0:0:
257,191,16105,2,1,L|252:221,2,30.3749990730286,4|4|4,1:3|2:3|2:3,0:0:0:0:
196,123,16421,2,1,P|165:125|120:85,1,91.1249972190858,12|0,2:1|0:0,0:0:0:0:
95,66,16737,6,1,P|64:66|37:79,2,60.7499981460572,6|0|8,3:2|0:0|2:1,0:0:0:0:
65,156,17210,2,1,L|45:276,1,121.499996292114,6|8,3:2|2:1,0:0:0:0:
10,361,17684,1,6,3:2:0:0:
170,323,18000,6,1,P|214:329|272:269,1,121.499996292114,0|8,3:3|2:1,0:0:0:0:
313,245,18421,2,1,P|305:222|290:203,1,40.4999987640381,8|8,2:1|2:1,0:0:0:0:
249,176,18631,2,1,P|229:181|209:180,2,40.4999987640381,0|0|0,1:1|1:1|1:1,0:0:0:0:
295,142,18947,2,1,P|314:147|334:146,2,40.4999987640381,4|4|4,2:3|2:3|2:3,0:0:0:0:
273,89,19263,5,6,3:2:0:0:
454,42,19579,1,8,2:1:0:0:
454,42,19737,2,1,P|506:57|518:136,1,121.499996292114,6|0,3:2|3:3,0:0:0:0:
497,201,20210,1,8,2:2:0:0:
398,325,20684,6,1,P|457:333|510:365,2,121.499996292114,8|8|4,2:3|2:3|2:3,0:0:0:0:
311,346,21473,1,4,2:3:0:0:
271,205,21789,1,2,2:2:0:0:
323,59,22105,6,1,B|259:34|244:60|224:91|168:65,1,161.999995056153,2|2,2:2|2:2,0:0:0:0:
100,24,22894,2,1,P|66:29|30:77,1,80.9999975280763,2|2,2:2|2:2,0:0:0:0:
0,133,23368,1,2,2:2:0:0:
14,245,23684,1,2,2:2:0:0:
180,296,24158,5,2,2:2:0:0:
180,296,24316,1,2,2:2:0:0:
140,189,24631,2,1,P|214:159|280:255,1,202.499993820191,2|2,2:2|2:2,0:0:0:0:
258,317,25579,2,1,P|293:336|335:335,1,80.9999975280763,2|2,2:2|2:2,0:0:0:0:
442,368,26210,1,2,2:2:0:0:
512,277,26526,1,2,2:2:0:0:
466,136,26842,5,2,2:2:0:0:
466,136,27789,1,2,2:2:0:0:
512,70,27947,2,1,P|500:32|467:11,1,80.9999975280763,2|0,2:2|0:0,0:0:0:0:
391,28,28421,2,1,B|403:77|382:86|357:98|371:142,1,121.499996292114,2|0,2:2|0:0,0:0:0:0:
415,252,29210,1,2,2:2:0:0:
415,252,29368,6,1,P|346:288|279:248,1,161.999995056153,2|2,2:2|2:2,0:0:0:0:
279,248,30631,1,2,2:2:0:0:
192,320,30947,1,2,2:2:0:0:
192,320,31105,2,1,P|133:327|90:287,1,121.499996292114,2|2,2:2|2:2,0:0:0:0:
33,144,31894,6,1,P|72:137|128:189,1,121.499996292114,2|0,2:2|0:0,0:0:0:0:
171,251,32526,2,1,P|212:246|245:220,1,80.9999975280763,2|2,2:2|2:2,0:0:0:0:
294,162,33000,2,1,P|351:153|391:196,1,121.499996292114,2|2,2:2|2:2,0:0:0:0:
375,272,33631,1,2,0:2:0:0:
474,329,33947,1,2,2:2:0:0:
512,221,34263,1,2,2:2:0:0:
512,221,34421,6,1,P|503:160|493:100,1,121.499996292114,2|0,2:2|0:0,0:0:0:0:
480,23,35052,2,1,P|440:18|384:79,1,121.499996292114,2|0,2:2|0:0,0:0:0:0:
347,140,35684,1,2,2:2:0:0:
283,235,36000,2,1,P|312:262|351:269,2,80.9999975280763,2|2|2,2:2|2:2|2:2,0:0:0:0:
232,175,36789,1,2,2:2:0:0:
232,175,36947,6,1,P|191:170|151:163,1,80.9999975280763,2|2,2:2|2:2,0:0:0:0:
87,123,37421,2,1,P|47:120|18:147,1,80.9999975280763,2|0,2:2|0:0,0:0:0:0:
0,231,37894,1,2,2:2:0:0:
0,231,38052,1,2,2:2:0:0:
25,308,38210,5,2,0:2:0:0:
141,286,38526,1,2,2:2:0:0:
141,286,38684,2,1,P|177:308|215:309,2,80.9999975280763,2|2|2,0:2|2:2|2:2,0:0:0:0:
101,211,39473,6,1,B|165:186|180:212|200:243|255:217,2,161.999995056153,2|2|2,2:2|2:2|2:2,0:0:0:0:
101,211,41368,2,1,L|113:169,1,40.4999987640381,2|0,2:2|0:0,0:0:0:0:
131,95,41684,1,2,2:3:0:0:
258,13,42000,6,1,P|269:75|275:132,1,108,4|2,3:2|2:2,0:0:0:0:
341,177,42473,1,10,2:1:0:0:
341,177,42631,2,1,P|367:181|395:171,1,54,2|0,2:2|0:0,0:0:0:0:
483,142,42947,1,2,3:2:0:0:
483,142,43105,2,1,P|503:191|488:242,1,108,2|2,2:2|2:2,0:0:0:0:
505,322,43579,2,1,P|452:331|400:342,1,108,2|0,2:2|0:0,0:0:0:0:
324,376,44052,1,0,2:2:0:0:
161,330,44368,1,2,2:2:0:0:
161,330,44526,6,1,P|108:338|64:309,1,108,2|2,3:2|2:2,0:0:0:0:
0,255,45000,1,8,2:1:0:0:
0,255,45158,2,1,P|15:200|24:148,1,108,0|0,0:0|3:3,0:0:0:0:
3,65,45631,1,2,2:2:0:0:
3,65,45789,2,1,P|55:62|96:96,2,108,2|2|4,2:2|2:2|2:3,0:0:0:0:
23,149,46579,1,0,0:0:0:0:
23,149,46737,1,2,2:3:0:0:
178,82,47052,6,1,P|230:71|284:61,1,108,0|0,3:3|2:2,0:0:0:0:
358,18,47526,2,1,P|411:27|464:38,1,108,8|0,2:1|0:0,0:0:0:0:
504,127,48000,1,2,3:2:0:0:
504,127,48158,2,1,B|480:134|457:117|457:117|430:101|400:111,1,108,2|0,2:2|0:0,0:0:0:0:
319,117,48631,2,1,P|280:152|281:204,1,108,2|0,2:2|0:0,0:0:0:0:
302,288,49105,1,0,0:0:0:0:
160,367,49421,1,2,2:2:0:0:
160,367,49579,6,1,L|54:347,1,108,2|0,3:2|0:0,0:0:0:0:
1,278,50052,1,8,2:1:0:0:
0,277,50210,2,1,P|-1:250|10:226,1,54,2|0,2:2|0:0,0:0:0:0:
86,177,50526,1,0,3:3:0:0:
225,248,50842,6,1,L|331:227,1,108,2|2,2:2|3:2,0:0:0:0:
417,247,51316,1,2,2:2:0:0:
454,171,51473,1,8,2:1:0:0:
454,171,51631,1,8,2:1:0:0:
404,96,51789,1,2,2:3:0:0:
233,78,52105,6,1,P|182:94|132:76,1,108,4|0,3:2|0:0,0:0:0:0:
63,31,52579,1,8,2:1:0:0:
63,31,52737,1,2,2:2:0:0:
0,88,52894,2,1,P|-4:114|4:139,1,54,2|2,2:2|3:2,0:0:0:0:
35,218,53210,2,1,P|26:272|7:322,1,108,2|0,2:2|0:0,0:0:0:0:
85,365,53684,1,2,2:2:0:0:
85,365,53842,2,1,P|104:314|112:261,1,108,0|0,0:0|0:0,0:0:0:0:
163,121,54473,1,2,2:2:0:0:
163,121,54631,6,1,P|213:106|261:129,1,108,2|0,3:2|0:0,0:0:0:0:
336,185,55105,1,8,2:1:0:0:
336,185,55263,2,1,P|387:166|440:158,2,108,2|0|0,2:2|3:3|0:0,0:0:0:0:
286,314,56210,2,1,L|297:367,1,54,2|0,2:2|0:0,0:0:0:0:
384,356,56526,2,1,P|435:360|471:322,1,108,4|2,2:3|2:3,0:0:0:0:
508,244,57000,1,2,2:2:0:0:
508,244,57158,6,1,P|454:235|404:216,1,108,0|2,3:3|2:2,0:0:0:0:
341,160,57631,2,1,P|287:169|237:188,1,108,8|0,2:1|0:0,0:0:0:0:
169,234,58105,2,1,P|159:259|155:286,1,54,2|2,3:2|2:2,0:0:0:0:
89,338,58421,1,2,0:2:0:0:
11,215,58737,1,2,2:2:0:0:
11,215,58894,2,1,P|30:164|38:111,1,108,0|0,0:0|0:0,0:0:0:0:
6,35,59368,2,1,P|32:26|58:21,1,54,0|2,3:3|2:2,0:0:0:0:
148,10,59684,6,1,P|199:16|227:65,1,108,2|0,3:2|0:0,0:0:0:0:
288,133,60158,1,8,2:1:0:0:
288,133,60316,2,1,P|268:183|260:236,1,108,2|0,2:2|3:3,0:0:0:0:
365,363,60947,2,1,P|416:372|458:341,1,108,2|2,2:2|2:3,0:0:0:0:
512,276,61421,1,0,1:1:0:0:
512,276,61579,2,1,L|499:219,2,54,10|8|4,2:1|2:3|2:3,0:0:0:0:
355,264,62210,5,6,3:2:0:0:
273,263,67263,6,1,P|339:288|438:194,1,216,6|2,2:2|3:2,0:0:0:0:
512,87,68526,2,1,P|446:112|347:18,1,216,2|2,2:2|3:2,0:0:0:0:
184,25,69631,1,0,2:2:0:0:
184,25,69710,1,0,2:2:0:0:
184,25,69789,6,1,P|218:127|231:234,1,216,2|2,2:2|3:2,0:0:0:0:
127,356,71052,2,1,P|80:372|5:299,1,162,2|2,2:2|0:2,0:0:0:0:
42,226,71684,2,1,P|96:217|147:202,1,108,0|2,3:3|2:2,0:0:0:0:
217,81,72316,6,1,P|319:115|426:128,1,216,2|0,2:2|3:3,0:0:0:0:
512,256,73579,2,1,P|410:290|303:303,1,216,2|2,2:2|3:2,0:0:0:0:
217,364,74526,1,2,2:2:0:0:
134,292,74842,6,1,P|33:285|7:188,1,216,2|0,2:2|3:3,0:0:0:0:
140,92,75789,1,10,2:1:0:0:
218,158,75947,1,0,3:3:0:0:
218,158,77368,6,1,B|275:145|275:145|288:128|288:128|342:116,1,135,6|10,3:2|2:2,0:0:0:0:
416,47,77842,1,0,0:0:0:0:
416,47,78000,2,1,L|481:61,1,67.5,0|0,3:3|3:3,0:0:0:0:
431,153,78316,1,10,2:2:0:0:
507,224,78473,6,1,L|376:254,1,135,2|0,3:2|3:3,0:0:0:0:
312,331,78947,2,1,P|278:333|250:315,1,67.5,10|0,2:2|0:0,0:0:0:0:
162,266,79263,2,1,P|168:233|194:211,1,67.5,2|0,3:2|3:3,0:0:0:0:
287,168,79579,2,1,P|306:121|301:71,1,101.25,10|0,2:2|2:2,0:0:0:0:
290,34,79894,6,1,L|356:19,2,67.5,0|0|8,3:3|0:0|2:2,0:0:0:0:
198,5,80368,1,2,2:2:0:0:
155,91,80526,2,1,B|110:70|93:95|81:117|27:96,1,135,2|10,3:2|2:2,0:0:0:0:
66,188,81000,2,1,L|131:173,1,67.5,2|2,3:2|2:3,0:0:0:0:
232,135,81316,1,0,3:3:0:0:
232,135,81473,2,1,L|297:149,1,67.5,10|0,2:2|0:0,0:0:0:0:
389,101,81789,5,2,3:2:0:0:
475,153,81947,1,2,3:2:0:0:
484,256,82105,2,1,P|434:251|396:289,1,101.25,10|0,2:2|2:2,0:0:0:0:
386,324,82421,6,1,B|424:355|447:335|464:316|511:350,2,135,4|8|0,3:2|2:2|3:3,0:0:0:0:
303,381,83210,1,2,3:2:0:0:
229,302,83368,1,10,2:2:0:0:
229,302,83526,1,2,3:2:0:0:
278,224,83684,6,1,P|295:195|293:162,1,67.5,2|0,2:3|3:3,0:0:0:0:
370,99,84000,2,1,P|354:69|324:55,1,67.5,10|0,2:2|0:0,0:0:0:0:
242,0,84316,1,0,3:3:0:0:
242,0,84473,1,0,3:3:0:0:
156,53,84631,1,10,2:2:0:0:
278,224,84947,6,1,L|343:209,1,67.5,6|0,3:2|0:0,0:0:0:0:
249,305,85263,1,4,2:3:0:0:
249,305,85421,2,1,L|177:289,1,67.5,6|0,3:2|0:0,0:0:0:0:
109,350,85737,1,8,2:3:0:0:
37,263,85894,1,10,2:1:0:0:
108,196,86052,6,1,B|137:157|137:157|120:72,1,135,14|0,2:1|3:3,0:0:0:0:
200,12,86526,2,1,P|232:18|255:42,1,67.5,10|8,2:1|2:1,0:0:0:0:
271,74,86763,1,8,2:1:0:0:
271,74,86842,1,8,2:1:0:0:
229,167,87000,1,4,2:3:0:0:
285,247,87158,2,1,P|318:248|346:231,1,67.5,4|4,2:3|2:3,0:0:0:0:
443,196,87473,6,1,L|410:344,2,135,6|10|0,3:2|2:2|3:3,0:0:0:0:
512,135,88263,1,0,3:3:0:0:
475,38,88421,1,10,2:2:0:0:
389,76,88579,2,1,P|324:85|275:41,1,135,2|0,3:2|3:3,0:0:0:0:
178,6,89052,2,1,L|193:77,1,67.5,10|0,2:2|0:0,0:0:0:0:
256,160,89368,5,2,3:2:0:0:
256,160,89526,1,0,3:3:0:0:
156,141,89684,2,1,P|105:142|58:160,1,101.25,10|0,2:2|2:2,0:0:0:0:
22,179,90000,6,1,L|50:310,1,135,4|8,3:2|2:2,0:0:0:0:
113,380,90473,1,2,2:2:0:0:
198,319,90631,2,1,P|229:309|261:318,1,67.5,2|0,3:2|3:3,0:0:0:0:
348,370,90947,1,10,2:2:0:0:
431,296,91105,2,1,B|395:291|369:261|369:261|335:272|308:256,1,135,2|0,3:2|3:3,0:0:0:0:
342,173,91579,2,1,L|407:159,1,67.5,10|0,2:2|0:0,0:0:0:0:
490,209,91894,5,4,2:3:0:0:
512,111,92052,1,8,2:1:0:0:
508,98,92131,1,8,2:1:0:0:
504,85,92210,2,1,L|497:52,3,33.75,10|8|8|8,2:1|2:1|2:1|2:1,0:0:0:0:
486,19,92526,6,1,B|447:27|447:27|437:40|437:40|393:50,1,101.25,6|0,3:2|0:0,0:0:0:0:
362,60,92842,2,1,L|297:46,1,67.5,10|0,2:2|3:3,0:0:0:0:
208,0,93158,1,8,2:2:0:0:
208,0,93316,1,0,3:3:0:0:
128,61,93473,2,1,L|142:126,1,67.5,8|0,2:2|3:3,0:0:0:0:
207,209,93789,6,1,P|157:209|117:239,1,101.25,8|0,2:2|0:0,0:0:0:0:
94,267,94105,2,1,L|108:332,1,67.5,8|0,2:2|3:3,0:0:0:0:
196,381,94421,1,8,2:2:0:0:
269,306,94579,1,2,3:2:0:0:
362,357,94737,2,1,P|395:358|423:341,1,67.5,8|2,2:2|3:2,0:0:0:0:
502,261,95052,6,1,L|403:239,1,101.25,10|0,2:2|0:0,0:0:0:0:
366,235,95368,2,1,P|341:212|334:179,1,67.5,10|0,2:2|3:3,0:0:0:0:
390,91,95684,1,8,2:2:0:0:
390,91,95842,1,0,3:3:0:0:
321,15,96000,2,1,L|246:31,1,67.5,10|0,2:2|3:3,0:0:0:0:
150,10,96316,6,1,B|142:46|158:57|171:65|164:107,1,101.25,10|0,2:2|0:0,0:0:0:0:
155,144,96631,2,1,P|121:142|93:159,2,67.5,8|0|2,2:2|3:3|2:2,0:0:0:0:
259,184,97105,1,4,2:3:0:0:
350,138,97263,1,4,2:3:0:0:
424,212,97421,1,4,2:3:0:0:
373,303,97579,6,1,B|264:248|240:301|208:368|109:322,1,283.499991348267,6|0,2:2|0:0,0:0:0:0:
35,296,98684,1,2,2:2:0:0:
6,221,98842,2,1,P|50:205|93:222,2,94.4999971160889,2|2|2,2:2|2:2|2:2,0:0:0:0:
54,125,99631,1,0,3:3:0:0:
155,173,99789,1,12,2:3:0:0:
234,42,100105,6,1,P|263:182|282:324,1,286.875005471707,6|0,3:2|0:0,0:0:0:0:
364,374,101052,1,10,2:1:0:0:
364,374,101210,1,8,2:3:0:0:
452,346,101368,2,1,B|480:285|444:266|416:251|441:181,1,172.125003283024,2|0,3:2|1:1,0:0:0:0:
458,156,101921,1,0,1:1:0:0:
458,156,102000,5,0,1:1:0:0:
512,83,102158,1,8,2:3:0:0:
512,83,102316,2,1,L|499:27,1,57.3750010943413,4|4,2:3|2:3,0:0:0:0:
402,0,102631,6,1,P|371:0|344:13,2,60.7499981460572,4|0|8,3:2|0:0|2:1,0:0:0:0:
374,99,103105,1,4,3:2:0:0:
374,99,103263,2,1,L|314:85,1,60.7499981460572,0|8,0:0|2:1,0:0:0:0:
223,40,103579,2,1,L|92:70,1,121.499996292114,4|8,3:2|2:1,0:0:0:0:
29,103,104052,6,1,P|15:129|14:160,2,60.7499981460572,2|0|0,3:3|0:0|3:3,0:0:0:0:
98,164,104526,1,8,2:1:0:0:
98,164,104684,1,8,2:3:0:0:
76,244,104842,2,1,L|62:303,1,60.7499981460572,4|8,2:3|2:1,0:0:0:0:
137,372,105158,5,4,3:2:0:0:
137,372,105316,2,1,P|166:379|195:373,1,60.7499981460572,0|8,0:0|2:1,0:0:0:0:
267,309,105631,1,4,3:2:0:0:
267,309,105789,2,1,P|296:302|325:308,1,60.7499981460572,0|8,0:0|2:1,0:0:0:0:
403,360,106105,1,4,3:2:0:0:
501,228,106421,6,1,L|494:195,3,30.3749990730286,8|0|0|8,2:1|1:1|1:1|2:1,0:0:0:0:
478,174,106737,2,1,L|490:114,1,60.7499981460572,8|0,2:1|1:1,0:0:0:0:
464,21,107052,1,8,2:1:0:0:
464,21,107210,1,4,2:3:0:0:
373,0,107368,2,1,P|346:13|331:39,1,60.7499981460572,8|8,2:1|2:1,0:0:0:0:
336,76,107605,1,8,2:1:0:0:
336,76,107684,6,1,L|396:88,2,60.7499981460572,4|0|8,3:2|0:0|2:1,0:0:0:0:
268,145,108158,1,4,3:2:0:0:
189,94,108316,2,1,P|181:64|189:35,1,60.7499981460572,0|8,0:0|2:1,0:0:0:0:
106,0,108631,1,4,3:2:0:0:
0,102,108947,5,8,2:1:0:0:
0,102,109105,1,4,2:3:0:0:
22,186,109263,2,1,L|36:246,1,60.7499981460572,4|0,2:3|1:1,0:0:0:0:
48,276,109500,1,0,1:1:0:0:
48,276,109579,2,1,P|103:295|154:265,1,121.499996292114,0|4,1:1|2:3,0:0:0:0:
22,186,110210,5,4,3:2:0:0:
22,186,110368,2,1,L|82:172,1,60.7499981460572,0|8,0:0|2:1,0:0:0:0:
158,111,110684,2,1,P|142:84|116:69,2,60.7499981460572,4|0|8,3:2|0:0|2:1,0:0:0:0:
211,189,111158,2,1,P|266:169|317:199,1,121.499996292114,4|0,3:2|3:3,0:0:0:0:
367,225,111579,6,1,P|364:245|359:264,1,40.4999987640381,8|8,2:1|2:1,0:0:0:0:
335,316,111789,2,1,P|314:317|295:323,2,40.4999987640381,8|8|8,2:1|2:1|2:1,0:0:0:0:
384,344,112105,2,1,P|379:363|377:383,2,40.4999987640381,8|8|8,2:1|2:1|2:1,0:0:0:0:
436,322,112421,1,4,2:3:0:0:
512,193,112737,5,4,3:2:0:0:
256,192,113457,12,2,117566,2:2:0:0:
