osu file format v14

[General]
AudioFilename: audio.mp3
AudioLeadIn: 0
PreviewTime: 76260
Countdown: 0
SampleSet: Soft
StackLeniency: 0.7
Mode: 0
LetterboxInBreaks: 0
WidescreenStoryboard: 0

[Editor]
DistanceSpacing: 0.4
BeatDivisor: 4
GridSize: 32
TimelineZoom: 2.3

[Metadata]
Title:Clover Day's (Short Ver.)
TitleUnicode:Clover Day's (Short Ver.)
Artist:Marie
ArtistUnicode:真理絵
Creator:Melae
Version:Four-leaf Clover Promise
Source:Clover Day's
Tags:eroge opening op visual novel vn galgame japanese female vocals 三輪学 teratani tomomi 寺谷知己 days video game amats take sanayui not your kitty not_your_kitty celektus jpop j pop j-pop
BeatmapID:4360600
BeatmapSetID:2080113

[Difficulty]
HPDrainRate:6
CircleSize:3.8
OverallDifficulty:9
ApproachRate:9.2
SliderMultiplier:1.8
SliderTickRate:1

[Events]
//Background and Video events
0,0,"bg.jpg",0,0
//Break Periods
2,62410,66535
//Storyboard Layer 0 (Background)
//Storyboard Layer 1 (Fail)
//Storyboard Layer 2 (Pass)
//Storyboard Layer 3 (Foreground)
//Storyboard Layer 4 (Overlay)
//Storyboard Sound Samples

[TimingPoints]
316,315.789473684211,4,2,1,35,1,0
1579,-200,4,2,1,35,0,0
1816,-200,4,2,1,5,0,0
1894,-200,4,2,1,35,0,0
11052,-200,4,2,1,10,0,0
11210,-200,4,2,1,20,0,0
11368,-200,4,2,1,30,0,0
11447,-200,4,2,1,40,0,0
11526,-200,4,2,1,50,0,0
11605,-200,4,2,1,60,0,0
11684,-100,4,2,1,70,0,0
14684,-100,4,2,2,70,0,0
15000,-100,4,2,1,70,0,0
15947,-100,4,2,2,70,0,0
16421,-100,4,2,1,70,0,0
16737,-90.9090909090909,4,2,1,70,0,0
17210,-90.9090909090909,4,2,2,70,0,0
17526,-90.9090909090909,4,2,1,70,0,0
19158,-90.9090909090909,4,2,2,70,0,0
19263,-90.9090909090909,4,2,1,70,0,0
19737,-90.9090909090909,4,2,2,70,0,0
20210,-90.9090909090909,4,2,1,70,0,0
21473,-90.9090909090909,4,2,3,70,0,0
21579,-90.9090909090909,4,2,2,70,0,0
21789,-90.9090909090909,4,2,2,35,0,0
22105,-166.666666666667,4,2,2,35,0,0
36947,-153.846153846154,4,2,2,35,0,0
41684,-153.846153846154,4,2,1,40,0,0
42000,-117.647058823529,4,2,2,50,0,0
42473,-117.647058823529,4,2,1,50,0,0
46421,-117.647058823529,4,2,2,50,0,0
46737,-117.647058823529,4,2,1,50,0,0
51158,-117.647058823529,4,2,3,50,0,0
51473,-117.647058823529,4,2,1,50,0,0
52105,-111.111111111111,4,2,2,50,0,0
52579,-111.111111111111,4,2,1,50,0,0
56526,-111.111111111111,4,2,2,50,0,0
56842,-111.111111111111,4,2,1,50,0,0
62210,-111.111111111111,4,2,1,30,0,0
62684,-111.111111111111,4,2,4,30,0,0
63158,-111.111111111111,4,2,1,30,0,0
63316,-111.111111111111,4,2,4,30,0,0
63631,-111.111111111111,4,2,1,30,0,0
64421,-111.111111111111,4,2,4,15,0,0
64579,-111.111111111111,4,2,4,20,0,0
64737,-111.111111111111,4,2,4,30,0,0
65368,-111.111111111111,4,2,1,30,0,0
66316,-111.111111111111,4,2,4,15,0,0
66631,-111.111111111111,4,2,4,30,0,0
67105,-111.111111111111,4,2,2,30,0,0
67263,-153.846153846154,4,2,2,40,0,0
68210,-153.846153846154,4,2,4,40,0,0
68526,-153.846153846154,4,2,1,40,0,0
68684,-153.846153846154,4,2,4,40,0,0
69158,-153.846153846154,4,2,1,40,0,0
70105,-153.846153846154,4,2,4,40,0,0
70421,-153.846153846154,4,2,1,40,0,0
72789,-153.846153846154,4,2,4,40,0,0
72947,-153.846153846154,4,2,1,40,0,0
73421,-153.846153846154,4,2,4,40,0,0
73500,-153.846153846154,4,2,1,40,0,0
73737,-153.846153846154,4,2,4,40,0,0
73894,-153.846153846154,4,2,1,40,0,0
74052,-153.846153846154,4,2,4,40,0,0
74210,-153.846153846154,4,2,1,40,0,0
75158,-153.846153846154,4,2,4,40,0,0
75473,-153.846153846154,4,2,1,40,0,0
75789,-153.846153846154,4,2,1,60,0,0
75947,-153.846153846154,4,2,3,60,0,0
76579,-153.846153846154,4,2,1,60,0,0
76737,-125,4,2,1,60,0,0
77210,-125,4,2,2,60,0,0
77368,-83.3333333333333,4,2,1,90,0,1
78000,-83.3333333333333,4,2,3,90,0,1
78158,-83.3333333333333,4,2,1,90,0,1
79263,-83.3333333333333,4,2,3,90,0,1
79421,-83.3333333333333,4,2,1,90,0,1
79894,-83.3333333333333,4,2,3,90,0,1
80210,-83.3333333333333,4,2,1,90,0,1
80526,-83.3333333333333,4,2,3,90,0,1
80684,-83.3333333333333,4,2,1,90,0,1
81789,-83.3333333333333,4,2,3,90,0,1
81947,-83.3333333333333,4,2,1,90,0,1
82421,-83.3333333333333,4,2,2,90,0,1
82737,-83.3333333333333,4,2,1,90,0,1
83052,-83.3333333333333,4,2,3,90,0,1
83210,-83.3333333333333,4,2,1,90,0,1
83684,-83.3333333333333,4,2,2,90,0,1
84000,-83.3333333333333,4,2,1,90,0,1
84316,-83.3333333333333,4,2,3,90,0,1
84473,-83.3333333333333,4,2,1,90,0,1
85263,-83.3333333333333,4,2,2,90,0,1
85421,-83.3333333333333,4,2,1,90,0,1
87158,-83.3333333333333,4,2,2,90,0,1
87473,-83.3333333333333,4,2,1,90,0,1
88105,-83.3333333333333,4,2,3,90,0,1
88263,-83.3333333333333,4,2,1,90,0,1
89368,-83.3333333333333,4,2,3,90,0,1
89526,-83.3333333333333,4,2,1,90,0,1
90631,-83.3333333333333,4,2,3,90,0,1
90789,-83.3333333333333,4,2,1,90,0,1
92842,-83.3333333333333,4,2,2,90,0,1
97105,-83.3333333333333,4,2,2,50,0,1
97263,-83.3333333333333,4,2,2,70,0,1
97421,-83.3333333333333,4,2,2,90,0,1
97579,-142.857142857143,4,2,2,50,0,0
100105,-125,4,2,1,80,0,0
101052,-117.647058823529,4,2,1,80,0,0
102473,-117.647058823529,4,2,2,80,0,0
102632,-90.9090909090909,4,2,1,80,0,0
103105,-90.9090909090909,4,2,2,80,0,0
103421,-90.9090909090909,4,2,1,80,0,0
105631,-90.9090909090909,4,2,2,80,0,0
105947,-90.9090909090909,4,2,1,80,0,0
108158,-90.9090909090909,4,2,2,80,0,0
108473,-90.9090909090909,4,2,1,80,0,0
109263,-90.9090909090909,4,2,2,80,0,0
109737,-90.9090909090909,4,2,1,80,0,0
109894,-90.9090909090909,4,2,2,80,0,0
110210,-111.111111111111,4,2,1,80,0,0
110684,-111.111111111111,4,2,2,80,0,0
111000,-111.111111111111,4,2,1,80,0,0
111579,-111.111111111111,4,2,1,40,0,0
111684,-111.111111111111,4,2,1,60,0,0
111789,-111.111111111111,4,2,1,80,0,0
112631,-111.111111111111,4,2,2,80,0,0
112737,480,4,2,1,30,1,0
113457,413.793103448276,4,2,1,30,1,0
113560,342.857142857143,4,2,1,30,1,0
113645,428.571428571429,4,2,1,30,1,0
113752,645.161290322581,4,2,1,30,1,0
113913,437.956204379562,4,2,1,30,1,0
114131,530.973451327434,4,2,1,30,1,0
114484,588.235294117647,4,2,1,30,1,0
114827,444.444444444444,4,2,1,30,1,0
115271,461.538461538462,4,2,1,30,1,0
116194,384.615384615385,4,2,1,30,1,0
116578,631.578947368421,4,2,1,30,1,0
116735,444.444444444444,4,2,1,30,1,0
116846,500,4,2,1,30,1,0
116971,555.555555555555,4,2,1,30,1,0
117109,722.89156626506,4,2,1,30,1,0
117289,555.555555555556,4,2,1,30,1,0
117566,774.193548387097,4,2,1,30,1,0

[Colours]
Combo1 : 240,166,121
Combo2 : 248,222,199
Combo3 : 170,173,234
Combo4 : 253,252,169

[HitObjects]
59,72,1579,6,0,P|81:73|145:80,1,67.5,2|0,2:2|0:0,0:0:0:0:
156,83,1894,2,0,P|158:107|156:185,1,90,2|0,2:2|0:0,0:0:0:0:
353,308,2526,5,2,2:2:0:0:
353,308,2684,2,0,P|357:240|353:173,1,135,2|0,2:2|0:0,0:0:0:0:
493,18,3473,2,0,P|505:64|472:115,1,90,2|2,2:2|2:2,0:0:0:0:
217,216,4105,6,0,P|215:240|217:318,1,90,2|2,2:2|2:2,0:0:0:0:
215,305,5052,2,0,P|237:306|278:308,1,45,2|0,2:2|0:0,0:0:0:0:
338,312,5367,2,0,P|339:267|336:222,1,90,2|0,2:2|0:0,0:0:0:0:
218,48,6000,2,0,P|216:72|218:150,1,90,2|0,2:2|0:0,0:0:0:0:
182,360,6631,6,0,P|158:362|-7:351,1,180,2|0,2:2|0:0,0:0:0:0:
0,182,7579,1,2,2:2:0:0:
0,182,7737,2,0,P|-2:158|6:39,1,135,2|0,2:2|0:0,0:0:0:0:
190,86,8526,2,0,P|203:119|182:164,1,67.5,2|0,2:2|0:0,0:0:0:0:
186,182,8842,6,0,L|280:190,1,90,2|0,2:2|0:0,0:0:0:0:
501,298,9473,1,2,2:2:0:0:
501,298,9789,2,0,B|441:301|442:301,1,45,2|2,2:2|2:2,0:0:0:0:
363,307,10105,1,2,2:2:0:0:
407,223,10263,1,2,2:2:0:0:
150,122,10737,1,2,2:2:0:0:
150,122,11052,6,0,L|150:153,3,22.5,0|0|0|0,1:1|1:1|1:1|1:1,0:0:0:0:
51,252,11368,1,2,1:2:0:0:
48,274,11446,1,0,1:1:0:0:
46,296,11525,1,0,1:1:0:0:
46,319,11604,1,0,1:1:0:0:
48,341,11684,6,0,P|98:354|205:370,1,135,6|0,3:2|0:0,0:0:0:0:
270,342,12000,1,8,2:1:0:0:
161,158,12158,2,0,B|69:141,2,90,6|2|8,3:2|2:2|2:1,0:0:0:0:
350,25,12631,6,0,P|336:75|315:212,1,180,6|0,3:2|0:0,0:0:0:0:
390,345,13105,1,8,2:3:0:0:
222,269,13263,1,4,2:3:0:0:
404,185,13421,5,4,2:3:0:0:
404,185,13500,1,8,2:1:0:0:
404,185,13579,2,0,L|316:200,1,90,0|8,1:1|2:1,0:0:0:0:
152,345,13894,1,0,1:1:0:0:
136,310,13972,1,0,1:1:0:0:
130,273,14051,1,0,1:1:0:0:
132,235,14130,1,0,1:1:0:0:
144,200,14210,6,0,P|154:113|112:12,1,180,6|8,3:2|2:1,0:0:0:0:
380,142,14684,2,0,P|349:225|359:314,1,180,6|8,3:2|2:1,0:0:0:0:
247,114,15158,2,0,P|312:129|379:141,1,135,6|0,3:2|0:0,0:0:0:0:
467,229,15474,5,8,2:1:0:0:
383,42,15631,1,0,3:3:0:0:
512,128,15789,1,4,2:3:0:0:
372,226,15947,1,4,2:3:0:0:
270,27,16105,6,0,P|261:71|247:113,1,90,4|4,1:3|2:3,0:0:0:0:
52,195,16421,1,12,2:1:0:0:
30,155,16499,1,0,3:3:0:0:
19,112,16578,1,0,3:3:0:0:
20,67,16657,1,0,3:3:0:0:
29,23,16737,6,0,P|73:35|177:51,1,148.50000453186,6|0,3:2|0:0,0:0:0:0:
268,11,17053,1,8,2:1:0:0:
328,285,17210,6,0,P|309:239|299:190,1,99.0000030212403,6|2,3:2|2:2,0:0:0:0:
405,107,17525,1,8,2:1:0:0:
483,358,17684,6,0,P|496:296|510:155,1,198.000006042481,6|0,3:2|3:3,0:0:0:0:
445,26,18210,5,8,2:1:0:0:
408,38,18316,5,8,2:1:0:0:
379,67,18421,5,8,2:1:0:0:
361,107,18526,5,8,2:1:0:0:
357,147,18631,6,0,L|350:229,1,66.0000020141602,0|0,1:1|1:1,0:0:0:0:
301,331,18842,5,0,1:1:0:0:
277,350,18947,5,4,2:3:0:0:
244,367,19052,5,4,2:3:0:0:
206,370,19158,5,4,2:3:0:0:
168,361,19263,6,0,P|170:316|198:185,1,148.50000453186,6|0,3:2|0:0,0:0:0:0:
262,178,19579,1,8,2:1:0:0:
65,50,19737,6,0,P|80:122|86:196,1,148.50000453186,6|0,3:2|0:0,0:0:0:0:
44,269,20052,1,0,3:3:0:0:
349,117,20211,6,0,P|283:101|203:89,1,148.50000453186,8|0,2:2|0:0,0:0:0:0:
177,75,20526,5,2,2:2:0:0:
204,291,20684,1,8,2:3:0:0:
448,133,21000,5,8,2:3:0:0:
258,178,21316,5,4,2:3:0:0:
412,309,21473,5,4,2:3:0:0:
431,316,21579,5,4,2:3:0:0:
422,333,21684,5,4,2:3:0:0:
442,338,21789,5,2,2:2:0:0:
442,338,22105,2,0,L|436:276,1,53.9999983520508,2|2,2:2|2:2,0:0:0:0:
348,203,22421,2,0,L|341:129,1,53.9999983520508,2|0,2:2|0:0,0:0:0:0:
274,35,22737,1,2,2:2:0:0:
274,35,22894,2,0,L|334:40,1,53.9999983520508,2|0,2:2|0:0,0:0:0:0:
436,83,23210,1,2,2:2:0:0:
436,83,23368,2,0,L|446:214,1,107.999996704102,2|0,2:2|0:0,0:0:0:0:
172,349,24158,5,2,2:2:0:0:
172,349,24237,1,0,2:2:0:0:
172,349,24316,2,0,L|178:283,1,53.9999983520508,2|0,2:2|0:0,0:0:0:0:
87,165,24632,2,0,L|74:297,1,107.999996704102,2|0,2:2|0:0,0:0:0:0:
76,290,25421,5,2,2:2:0:0:
76,290,25578,2,0,L|141:285,1,53.9999983520508,2|0,2:2|0:0,0:0:0:0:
236,200,25894,2,0,L|171:194,1,53.9999983520508,2|0,2:2|0:0,0:0:0:0:
76,106,26210,2,0,L|141:101,1,53.9999983520508,2|0,2:2|0:0,0:0:0:0:
282,45,26526,2,0,L|221:39,1,53.9999983520508,2|0,2:2|0:0,0:0:0:0:
152,18,26763,1,0,2:2:0:0:
152,18,26842,5,2,2:2:0:0:
141,245,27158,1,2,2:2:0:0:
272,162,27316,1,2,2:2:0:0:
276,166,27789,5,2,2:2:0:0:
276,166,27947,2,0,L|145:175,1,107.999996704102,2|0,2:2|0:0,0:0:0:0:
59,187,28421,2,0,L|65:263,1,53.9999983520508,2|2,2:2|0:2,0:0:0:0:
102,52,28894,1,2,0:2:0:0:
287,276,29210,5,2,2:2:0:0:
287,276,29289,1,0,0:0:0:0:
287,276,29368,2,0,L|418:285,1,107.999996704102,2|0,2:2|0:0,0:0:0:0:
154,375,30000,2,0,L|162:267,1,107.999996704102,2|0,2:2|0:0,0:0:0:0:
269,72,30631,5,2,2:2:0:0:
87,104,30947,1,2,2:2:0:0:
87,104,31105,2,0,L|152:99,1,53.9999983520508,2|0,2:2|0:0,0:0:0:0:
360,228,31579,2,0,L|295:223,1,53.9999983520508,2|0,2:2|0:0,0:0:0:0:
229,219,31816,1,0,2:2:0:0:
229,219,31894,1,2,2:2:0:0:
367,132,32210,2,0,L|372:67,1,53.9999983520508,2|0,2:2|0:0,0:0:0:0:
438,24,32526,5,2,2:2:0:0:
463,97,32684,1,2,2:2:0:0:
439,172,32842,1,2,2:2:0:0:
371,213,33000,2,0,L|381:344,1,107.999996704102,2|0,2:2|0:0,0:0:0:0:
284,333,33473,2,0,L|279:279,1,53.9999983520508,2|2,2:2|0:2,0:0:0:0:
163,85,33947,1,2,2:2:0:0:
367,107,34263,5,2,2:2:0:0:
367,107,34421,2,0,L|235:117,1,107.999996704102,2|0,2:2|0:0,0:0:0:0:
70,182,35052,2,0,L|201:192,1,107.999996704102,2|0,2:2|0:0,0:0:0:0:
367,246,35684,1,2,2:2:0:0:
152,355,36000,6,0,L|159:274,1,80.9999975280763,2|0,2:2|0:0,0:0:0:0:
190,256,36316,2,0,L|197:175,1,80.9999975280763,2|0,2:2|0:0,0:0:0:0:
224,156,36631,2,0,L|231:81,1,53.9999983520508,2|2,2:2|2:2,0:0:0:0:
308,29,36868,1,0,2:2:0:0:
316,34,36947,2,0,L|395:40,1,58.4999973220826,2|0,2:2|0:0,0:0:0:0:
486,92,37263,1,2,2:2:0:0:
486,92,37421,2,0,L|476:229,1,116.999994644165,2|0,2:2|0:0,0:0:0:0:
469,319,37894,5,2,2:2:0:0:
358,362,38052,2,0,L|368:225,1,116.999994644165,2|0,2:2|0:0,0:0:0:0:
386,147,38526,2,0,L|327:141,1,58.4999973220826,2|2,2:2|0:2,0:0:0:0:
80,50,39000,1,2,2:2:0:0:
80,50,39316,5,2,2:2:0:0:
80,50,39473,2,0,P|90:102|71:166,1,116.999994644165,2|0,2:2|0:0,0:0:0:0:
231,340,40105,2,0,P|214:284|224:227,1,116.999994644165,2|0,2:2|0:0,0:0:0:0:
306,120,40658,1,0,2:2:0:0:
306,120,40737,2,0,P|250:103|193:113,1,116.999994644165,2|0,2:2|0:0,0:0:0:0:
51,261,41368,2,0,P|68:266|130:276,1,58.4999973220826,2|0,2:2|0:0,0:0:0:0:
449,152,41842,5,0,0:0:0:0:
449,152,41921,1,0,0:0:0:0:
449,152,42000,2,0,P|414:152|303:126,1,114.750002188683,4|0,3:2|0:0,0:0:0:0:
261,109,42316,1,2,2:2:0:0:
182,181,42473,1,10,2:1:0:0:
100,48,42631,6,0,P|135:48|245:22,1,114.750002188683,2|0,2:2|0:0,0:0:0:0:
288,5,42947,1,2,3:2:0:0:
335,138,43105,2,0,P|334:160|317:236,1,76.5000014591217,2|0,2:2|0:0,0:0:0:0:
230,267,43421,1,2,2:2:0:0:
230,267,43579,2,0,P|237:304|239:342,1,76.5000014591217,2|0,2:2|0:0,0:0:0:0:
30,140,44052,6,0,B|11:28|11:28|55:71,1,153.000002918243,0|2,2:2|2:2,0:0:0:0:
121,107,44447,1,0,2:2:0:0:
127,113,44526,6,0,P|165:115|202:122,1,76.5000014591217,2|0,3:2|0:0,0:0:0:0:
338,139,44842,2,0,P|333:117|323:39,2,76.5000014591217,2|8|0,2:2|2:1|0:0,0:0:0:0:
260,232,45316,2,0,P|267:269|273:307,1,76.5000014591217,0|0,0:0|3:3,0:0:0:0:
458,324,45631,5,2,2:2:0:0:
458,324,45789,2,0,P|419:321|382:314,1,76.5000014591217,2|0,2:2|0:0,0:0:0:0:
260,232,46105,2,0,P|298:229|335:222,1,76.5000014591217,2|0,2:2|0:0,0:0:0:0:
471,154,46421,2,0,P|432:151|395:144,1,76.5000014591217,4|0,2:3|0:0,0:0:0:0:
240,69,46737,2,0,P|278:66|315:59,1,76.5000014591217,2|0,2:3|0:0,0:0:0:0:
354,43,46973,1,0,2:2:0:0:
360,47,47052,1,0,3:3:0:0:
353,270,47368,5,0,2:2:0:0:
260,232,47526,2,0,B|148:251|148:251|173:237|194:203,1,153.000002918243,8|0,2:1|0:0,0:0:0:0:
15,147,48000,5,2,3:2:0:0:
113,175,48158,2,0,P|111:98|126:23,1,153.000002918243,2|0,2:2|0:0,0:0:0:0:
358,122,48631,2,0,P|281:123|206:108,1,153.000002918243,2|0,2:2|0:0,0:0:0:0:
206,108,49421,5,2,2:2:0:0:
110,81,49579,2,0,P|111:157|96:232,1,153.000002918243,2|0,3:2|0:0,0:0:0:0:
55,319,50052,1,8,2:1:0:0:
219,360,50210,2,0,P|217:283|232:208,1,153.000002918243,2|0,2:2|3:3,0:0:0:0:
449,115,50842,2,0,P|410:112|373:105,1,76.5000014591217,2|0,2:2|0:0,0:0:0:0:
236,47,51158,5,2,3:2:0:0:
316,211,51316,1,2,2:2:0:0:
352,37,51473,1,8,2:1:0:0:
215,164,51631,1,8,2:1:0:0:
407,145,51789,1,2,2:3:0:0:
405,132,51867,1,0,2:2:0:0:
406,120,51946,1,0,2:2:0:0:
408,109,52025,1,0,2:2:0:0:
411,102,52105,6,0,B|523:121|523:121|478:75,1,161.999995056153,4|0,3:2|0:0,0:0:0:0:
333,76,52579,1,8,2:1:0:0:
214,89,52737,5,2,2:2:0:0:
157,145,52894,1,2,2:2:0:0:
77,157,53052,1,2,3:2:0:0:
0,114,53210,6,0,B|-18:9|-18:9|40:63,1,161.999995056153,2|0,2:2|0:0,0:0:0:0:
157,145,53684,2,0,B|175:249|175:249|116:195,1,161.999995056153,2|0,2:2|0:0,0:0:0:0:
312,74,54473,5,2,2:2:0:0:
312,74,54631,2,0,B|407:39|407:39|442:60|451:109,1,161.999995056153,2|0,3:2|0:0,0:0:0:0:
380,162,55105,5,8,2:1:0:0:
380,162,55263,2,0,B|475:197|475:197|510:176|519:127,2,161.999995056153,2|0|0,2:2|3:3|0:0,0:0:0:0:
173,384,56210,6,0,P|172:351|181:301,1,80.9999975280763,2|0,2:2|0:0,0:0:0:0:
108,215,56526,2,0,P|109:182|100:132,1,80.9999975280763,4|0,2:3|0:0,0:0:0:0:
81,15,56842,1,2,2:3:0:0:
214,117,57000,1,2,2:2:0:0:
214,117,57078,1,0,2:2:0:0:
214,117,57158,2,0,B|318:135|318:135|264:76,1,161.999995056153,0|2,3:3|2:2,0:0:0:0:
459,57,57631,2,0,B|355:39|355:39|409:98,1,161.999995056153,8|0,2:1|0:0,0:0:0:0:
412,221,58105,5,2,3:2:0:0:
342,330,58263,2,0,B|437:365|437:365|472:344|481:295,1,161.999995056153,2|0,2:2|0:0,0:0:0:0:
491,205,58737,2,0,P|470:206|411:220,1,80.9999975280763,2|0,2:2|0:0,0:0:0:0:
274,177,59052,5,0,2:2:0:0:
157,278,59368,1,0,3:3:0:0:
157,278,59684,2,0,B|252:313|252:313|287:292|296:243,1,161.999995056153,2|0,3:2|0:0,0:0:0:0:
197,127,60158,1,8,2:1:0:0:
197,127,60316,2,0,B|92:108|92:108|126:120|146:167,1,161.999995056153,2|0,2:2|3:3,0:0:0:0:
58,192,60789,5,0,2:2:0:0:
58,192,60868,1,0,2:2:0:0:
58,192,60947,2,0,B|40:296|40:296|57:268|99:242,1,161.999995056153,2|2,2:2|2:3,0:0:0:0:
126,333,61421,1,0,1:1:0:0:
126,333,61500,1,0,1:1:0:0:
126,333,61579,5,10,2:1:0:0:
202,324,61737,1,8,2:3:0:0:
252,264,61894,1,4,2:3:0:0:
256,32,62210,5,6,3:2:0:0:
476,28,67105,5,4,2:2:0:0:
476,28,67184,1,0,0:0:0:0:
476,28,67263,2,0,L|463:171,1,116.999994644165,6|2,2:2|2:2,0:0:0:0:
442,278,67737,2,0,L|500:284,1,58.4999973220826,2|0,2:2|3:3,0:0:0:0:
384,343,68052,5,2,2:2:0:0:
319,283,68210,1,2,2:2:0:0:
380,220,68368,1,2,2:2:0:0:
380,220,68526,2,0,L|388:134,1,58.4999973220826,2|2,2:2|2:2,0:0:0:0:
289,41,68842,2,0,L|276:184,1,116.999994644165,2|0,2:2|3:3,0:0:0:0:
35,242,69473,5,2,2:2:0:0:
152,229,69631,1,0,2:2:0:0:
152,229,69710,1,0,2:2:0:0:
152,229,69789,2,0,L|162:112,1,116.999994644165,2|0,2:2|2:2,0:0:0:0:
50,15,70421,2,0,L|37:158,1,116.999994644165,2|0,3:2|0:0,0:0:0:0:
41,330,71052,5,2,2:2:0:0:
383,203,71473,5,2,2:2:0:0:
80,22,72000,5,2,2:2:0:0:
157,129,72158,1,2,2:2:0:0:
157,129,72237,1,0,2:2:0:0:
157,129,72316,2,0,L|218:134,1,58.4999973220826,2|0,2:2|0:0,0:0:0:0:
297,205,72631,1,2,2:2:0:0:
297,205,72789,2,0,L|355:209,1,58.4999973220826,2|0,2:2|3:3,0:0:0:0:
472,256,73105,2,0,L|461:372,1,116.999994644165,2|0,2:2|2:2,0:0:0:0:
414,382,73500,5,0,2:2:0:0:
398,383,73579,2,0,L|312:374,1,58.4999973220826,2|0,2:2|2:2,0:0:0:0:
172,284,73894,2,0,L|230:290,1,58.4999973220826,2|0,2:2|2:2,0:0:0:0:
397,186,74210,2,0,L|311:177,1,58.4999973220826,2|0,3:2|0:0,0:0:0:0:
188,51,74526,2,0,L|274:60,1,58.4999973220826,2|0,2:2|0:0,0:0:0:0:
380,25,74763,5,0,2:2:0:0:
380,25,74842,1,2,2:2:0:0:
380,25,75473,5,0,3:3:0:0:
263,358,75789,5,10,2:1:0:0:
494,264,75947,1,0,3:3:0:0:
494,264,76421,5,2,2:2:0:0:
391,143,76579,1,0,1:1:0:0:
391,143,76658,1,0,1:1:0:0:
391,143,76737,2,0,L|303:150,1,72,8|8,2:1|2:3,0:0:0:0:
164,146,77052,1,4,2:3:0:0:
148,183,77130,1,4,2:3:0:0:
141,221,77209,1,4,2:3:0:0:
142,261,77288,1,4,2:3:0:0:
151,300,77368,6,0,L|271:268,1,107.999996704102,6|0,3:2|0:0,0:0:0:0:
347,50,77684,2,0,L|242:77,1,107.999996704102,10|0,2:2|0:0,0:0:0:0:
62,107,78000,1,0,3:3:0:0:
238,196,78158,1,0,3:3:0:0:
216,1,78316,1,10,2:2:0:0:
30,222,78473,2,0,P|50:214|134:194,1,107.999996704102,2|2,3:2|2:3,0:0:0:0:
238,196,78789,5,0,3:3:0:0:
204,369,78947,2,0,P|186:318|175:265,1,107.999996704102,10|0,2:2|0:0,0:0:0:0:
303,75,79263,2,0,P|311:95|330:179,1,107.999996704102,2|0,3:2|3:3,0:0:0:0:
302,317,79579,2,0,B|378:333|378:333|359:322|343:304,1,107.999996704102,10|0,2:2|0:0,0:0:0:0:
209,188,79816,5,0,2:2:0:0:
209,188,79894,2,0,B|132:171|132:171|152:183|168:201,1,107.999996704102,0|0,3:3|0:0,0:0:0:0:
154,348,80210,1,8,2:2:0:0:
329,217,80368,1,2,2:2:0:0:
56,114,80525,6,0,P|38:164|28:217,1,107.999996704102,2|0,3:2|3:3,0:0:0:0:
138,331,80842,1,10,2:2:0:0:
260,108,81000,2,0,P|242:57|232:4,1,107.999996704102,2|2,3:2|2:3,0:0:0:0:
417,38,81316,1,0,3:3:0:0:
252,193,81473,2,0,P|234:243|224:296,1,107.999996704102,10|0,2:2|0:0,0:0:0:0:
286,384,81789,5,2,3:2:0:0:
222,204,81947,1,2,3:2:0:0:
428,151,82105,2,0,P|408:201|395:253,1,107.999996704102,10|0,2:2|0:0,0:0:0:0:
368,346,82342,5,0,2:2:0:0:
368,346,82421,2,0,P|277:298|200:374,2,215.999993408203,4|8|0,3:2|2:2|3:3,0:0:0:0:
512,283,83210,5,2,3:2:0:0:
309,204,83368,1,10,2:2:0:0:
511,133,83526,1,2,3:2:0:0:
429,284,83684,2,0,P|416:231|396:181,1,107.999996704102,2|0,2:3|3:3,0:0:0:0:
359,6,84000,2,0,P|339:56|326:108,1,107.999996704102,10|0,2:2|0:0,0:0:0:0:
173,276,84316,2,0,P|188:224|196:170,1,107.999996704102,0|0,3:3|3:3,0:0:0:0:
117,86,84631,5,10,2:2:0:0:
309,204,84789,1,0,2:2:0:0:
24,304,84947,2,0,P|38:252|46:199,1,107.999996704102,6|0,3:2|0:0,0:0:0:0:
271,338,85263,5,4,2:3:0:0:
124,127,85421,2,0,P|74:107|21:94,1,107.999996704102,6|0,3:2|0:0,0:0:0:0:
433,94,85737,5,8,2:3:0:0:
240,216,85894,1,10,2:1:0:0:
97,6,86052,2,0,B|239:30|239:30|195:31|165:79,1,215.999993408203,14|0,2:1|3:3,0:0:0:0:
374,183,86526,6,0,L|309:194,1,54.0000000000032,10|0,2:1|0:0,0:0:0:0:
197,144,86684,2,0,L|250:134,1,54.0000000000032,8|8,2:1|2:1,0:0:0:0:
324,55,86842,2,0,L|333:108,1,54.0000000000032,8|0,2:1|0:0,0:0:0:0:
249,269,87000,2,0,L|239:215,1,54.0000000000032,4|0,2:3|0:0,0:0:0:0:
240,51,87157,1,4,2:3:0:0:
207,28,87236,1,4,2:3:0:0:
169,15,87315,1,4,2:3:0:0:
130,14,87394,1,4,2:3:0:0:
91,24,87473,6,0,P|75:75|67:128,1,107.999996704102,6|0,3:2|0:0,0:0:0:0:
226,374,87789,2,0,P|233:320|249:268,1,107.999996704102,10|0,2:2|0:0,0:0:0:0:
387,135,88105,1,0,3:3:0:0:
349,333,88263,1,0,3:3:0:0:
201,140,88421,1,10,2:2:0:0:
456,249,88579,2,0,P|402:241|350:225,1,107.999996704102,2|2,3:2|2:3,0:0:0:0:
196,118,88894,5,0,3:3:0:0:
126,264,89052,2,0,P|118:210|102:158,1,107.999996704102,10|0,2:2|0:0,0:0:0:0:
317,0,89368,2,0,P|301:51|293:105,1,107.999996704102,2|0,3:2|3:3,0:0:0:0:
243,356,89684,2,0,P|296:348|348:332,1,107.999996704102,10|0,2:2|0:0,0:0:0:0:
462,187,89921,1,0,2:2:0:0:
462,187,90000,2,0,B|438:329|438:329|437:285|389:255,1,215.999993408203,4|8,3:2|2:2,0:0:0:0:
160,92,90473,5,2,2:2:0:0:
243,356,90631,2,0,P|250:302|266:250,1,107.999996704102,2|0,3:2|3:3,0:0:0:0:
353,172,90947,1,10,2:2:0:0:
142,116,91105,2,0,P|126:167|118:221,1,107.999996704102,2|2,3:2|2:3,0:0:0:0:
50,98,91421,1,0,3:3:0:0:
264,127,91579,2,0,P|256:73|240:21,1,107.999996704102,10|0,2:2|0:0,0:0:0:0:
384,172,91895,5,4,2:3:0:0:
355,217,91972,1,8,2:1:0:0:
308,242,92051,1,8,2:1:0:0:
255,237,92131,1,8,2:1:0:0:
206,215,92209,1,10,2:1:0:0:
157,193,92288,1,8,2:1:0:0:
104,184,92367,1,8,2:1:0:0:
52,198,92446,1,8,2:1:0:0:
12,233,92526,6,0,P|43:237|124:265,1,107.999996704102,6|0,3:2|0:0,0:0:0:0:
289,145,92842,5,10,2:2:0:0:
182,332,93000,1,0,3:3:0:0:
397,299,93158,5,8,2:2:0:0:
206,215,93316,1,0,3:3:0:0:
448,178,93473,5,8,2:2:0:0:
295,329,93631,1,0,3:3:0:0:
371,110,93789,5,8,2:2:0:0:
494,317,93947,1,0,3:3:0:0:
290,240,94105,5,8,2:2:0:0:
456,96,94263,1,0,3:3:0:0:
465,315,94421,1,8,2:2:0:0:
176,149,94579,6,0,P|225:129|279:119,1,107.999996704102,2|8,3:2|2:2,0:0:0:0:
384,203,94894,1,2,3:2:0:0:
79,122,95052,6,0,P|83:153|111:234,1,107.999996704102,10|0,2:2|3:3,0:0:0:0:
197,340,95368,5,10,2:2:0:0:
310,109,95526,1,0,3:3:0:0:
383,310,95684,5,8,2:2:0:0:
106,225,95842,1,0,3:3:0:0:
396,54,96000,5,10,2:2:0:0:
293,285,96158,1,0,3:3:0:0:
100,18,96316,6,0,P|118:70|125:123,1,107.999996704102,10|0,2:2|3:3,0:0:0:0:
359,224,96631,2,0,P|341:172|334:119,1,107.999996704102,8|0,2:2|3:3,0:0:0:0:
34,101,96947,5,2,2:2:0:0:
222,244,97105,1,4,2:3:0:0:
277,21,97263,1,4,2:3:0:0:
226,263,97421,1,4,2:3:0:0:
430,164,97579,6,0,L|441:39,1,125.999996154785,6|2,2:2|2:2,0:0:0:0:
233,118,98052,2,0,L|222:243,1,125.999996154785,2|0,2:2|0:0,0:0:0:0:
69,67,98684,5,2,2:2:0:0:
69,67,98842,2,0,L|58:192,1,125.999996154785,2|2,2:2|2:2,0:0:0:0:
118,336,99473,2,0,L|123:273,1,62.9999980773926,2|0,2:2|3:3,0:0:0:0:
191,100,99789,1,12,2:3:0:0:
272,247,99947,5,0,2:2:0:0:
272,247,100026,1,0,2:2:0:0:
272,247,100105,2,0,L|381:258,1,108,6|0,3:2|0:0,0:0:0:0:
413,269,100421,1,2,2:2:0:0:
488,18,101052,6,0,L|480:113,1,76.5000014591217,10|8,2:1|2:3,0:0:0:0:
477,125,101289,1,0,2:2:0:0:
477,125,101368,1,2,3:2:0:0:
199,129,101842,5,0,1:1:0:0:
368,145,102000,1,0,1:1:0:0:
243,255,102158,1,8,2:3:0:0:
255,55,102316,1,4,2:3:0:0:
228,36,102395,1,4,2:3:0:0:
196,25,102474,1,4,2:3:0:0:
164,25,102553,1,4,2:3:0:0:
132,33,102632,6,0,P|122:63|111:185,1,148.50000453186,4|0,3:2|0:0,0:0:0:0:
179,235,102947,1,8,2:1:0:0:
348,156,103105,2,0,P|276:137|202:134,1,148.50000453186,4|0,3:2|0:0,0:0:0:0:
110,178,103420,1,8,2:1:0:0:
280,384,103579,2,0,B|261:250|261:250|254:296|216:319,1,198.000006042481,4|8,3:2|2:1,0:0:0:0:
460,225,104052,2,0,B|479:91|479:91|486:137|524:160,1,198.000006042481,2|0,3:3|3:3,0:0:0:0:
289,93,104526,5,8,2:1:0:0:
320,167,104684,1,8,2:3:0:0:
382,216,104842,1,4,2:3:0:0:
460,225,105000,1,8,2:1:0:0:
446,20,105158,6,0,P|436:50|428:161,1,99.0000030212403,4|0,3:2|0:0,0:0:0:0:
460,225,105473,1,8,2:1:0:0:
357,34,105631,2,0,P|285:15|222:12,1,99.0000030212403,4|0,3:2|0:0,0:0:0:0:
167,59,105946,1,8,2:1:0:0:
253,249,106105,2,0,B|238:176|238:176|222:223,1,99.0000030212403,4|0,3:2|0:0,0:0:0:0:
76,149,106421,6,0,L|76:99,2,49.5000015106202,8|0|0,2:1|1:1|1:1,0:0:0:0:
151,213,106658,1,8,2:1:0:0:
151,213,106737,2,0,L|151:283,2,49.5000015106202,8|0|0,2:1|1:1|1:1,0:0:0:0:
253,249,106973,5,8,2:1:0:0:
253,249,107052,1,8,2:1:0:0:
222,323,107210,1,4,2:3:0:0:
160,372,107368,1,8,2:1:0:0:
78,382,107526,1,8,2:1:0:0:
78,382,107605,1,8,2:1:0:0:
78,382,107684,6,0,P|68:352|57:230,1,148.50000453186,4|0,3:2|0:0,0:0:0:0:
108,151,107999,1,8,2:1:0:0:
253,249,108157,6,0,P|256:175|275:103,1,148.50000453186,4|0,3:2|0:0,0:0:0:0:
354,33,108472,1,8,2:1:0:0:
475,208,108631,2,0,B|341:189|341:189|387:182|410:144,1,198.000006042481,4|8,3:2|2:1,0:0:0:0:
468,105,109105,5,4,2:3:0:0:
401,72,109263,1,4,2:3:0:0:
327,69,109421,1,0,1:1:0:0:
327,69,109500,1,0,1:1:0:0:
327,69,109579,1,0,1:1:0:0:
280,144,109737,1,4,2:3:0:0:
182,165,109894,1,4,2:3:0:0:
98,129,110052,1,4,2:3:0:0:
220,372,110210,6,0,P|230:342|239:231,1,121.499996292114,4|0,3:2|0:0,0:0:0:0:
182,165,110525,1,8,2:1:0:0:
8,301,110683,6,0,P|80:282|142:278,1,121.499996292114,4|0,3:2|0:0,0:0:0:0:
141,361,111000,1,8,2:1:0:0:
271,171,111157,2,0,B|365:188|365:188|333:199,1,121.499996292114,4|0,3:2|0:0,0:0:0:0:
327,328,111473,5,0,3:3:0:0:
316,305,111579,5,8,2:1:0:0:
288,309,111684,5,8,2:1:0:0:
280,280,111789,5,8,2:1:0:0:
244,286,111894,5,8,2:1:0:0:
224,264,112000,5,8,2:1:0:0:
199,270,112105,5,8,2:1:0:0:
189,248,112210,5,8,2:1:0:0:
167,253,112316,5,8,2:1:0:0:
159,235,112421,5,4,2:3:0:0:
138,243,112526,5,4,2:3:0:0:
127,225,112631,5,4,2:3:0:0:
93,211,112737,5,4,3:2:0:0:
256,192,112857,12,2,117566,2:2:0:0:
