osu file format v14

[General]
AudioFilename: audio.mp3
AudioLeadIn: 0
PreviewTime: 147156
Countdown: 0
SampleSet: Soft
StackLeniency: 0.7
Mode: 0
LetterboxInBreaks: 0
WidescreenStoryboard: 1

[Editor]
Bookmarks: 92840,95050,95682,163577,165787,166103,167366,206524,208735,227050,230208
DistanceSpacing: 0.6
BeatDivisor: 4
GridSize: 8
TimelineZoom: 1.7

[Metadata]
Title:Clover Day's
TitleUnicode:Clover Day's
Artist:Marie
ArtistUnicode:真理絵
Creator:Rage Quit
Version:Rio's Extra
Source:Clover Day's
Tags:eroge opening visual novel galgame alcot yeti MANYO Little Wing Fushimi Rio Imouto san Misure Firika Oiso Bellicose full version japanese vocals fushimi_rio imouto_san MANACK 三輪学 Teratani Tomomi 寺谷知己 days video game rock jrock Affirmation Dored
BeatmapID:2322888
BeatmapSetID:911995

[Difficulty]
HPDrainRate:8
CircleSize:4
OverallDifficulty:9.2
ApproachRate:9.3
SliderMultiplier:2.4
SliderTickRate:1

[Events]
//Background and Video events
0,0,"tsubame.jpg",0,0
//Break Periods
2,168514,177865
2,191050,194917
2,231670,232970
//Storyboard Layer 0 (Background)
//Storyboard Layer 1 (Fail)
//Storyboard Layer 2 (Pass)
//Storyboard Layer 3 (Foreground)
Sprite,Foreground,TopLeft,"Other\Fushimi Rio.png",320,240 M,0,247576,248523,335,400,340,400 F,0,247576,248523,0,1 S,0,247576,252641,0.5 M,0,251365,252641,340,400,345,400 F,0,251365,252641,1,0
//Storyboard Layer 4 (Overlay)
//Storyboard Sound Samples

[TimingPoints]
314,315.789473684211,4,2,1,30,1,0
314,-200,4,2,1,30,0,0
11050,-200,4,2,3,50,0,0
11682,-133.333333333333,4,2,3,70,0,0
21787,-200,4,2,6,45,0,0
22103,-200,4,2,20,45,0,0
41682,-200,4,2,3,45,0,0
41998,-133.333333333333,4,2,21,55,0,0
46735,-133.333333333333,4,2,3,55,0,0
47050,-133.333333333333,4,2,21,55,0,0
51156,-133.333333333333,4,2,3,55,0,0
51314,-133.333333333333,4,2,21,55,0,0
61261,-133.333333333333,4,2,3,55,0,0
61419,-133.333333333333,4,2,21,55,0,0
62208,-200,4,2,8,45,0,0
64735,-200,4,2,8,45,0,0
67103,-200,4,2,8,50,0,0
69471,-200,4,2,8,50,0,0
75787,-200,4,2,3,60,0,0
76419,-133.333333333333,4,2,3,60,0,0
77366,-133.333333333333,4,2,5,80,0,1
92050,-133.333333333333,4,2,5,80,0,0
92524,-100,4,2,5,80,0,1
97577,-200,4,2,51,50,0,0
99471,-133.333333333333,4,2,51,50,0,0
99629,-133.333333333333,4,2,5,80,0,0
102629,-133.333333333333,4,2,3,70,0,0
112735,-133.333333333333,4,2,3,55,0,0
132945,-200,4,2,3,45,0,0
145577,-133.333333333333,4,2,3,50,0,0
145892,-133.333333333333,4,2,3,60,0,0
146208,-133.333333333333,4,2,3,70,0,0
147156,-133.333333333333,4,2,3,70,0,0
148103,-133.333333333333,4,2,5,80,0,1
162787,-133.333333333333,4,2,5,80,0,0
163261,-100,4,2,5,80,0,1
168314,-200,4,2,5,80,0,0
178419,-200,4,2,31,55,0,0
188524,-200,4,2,31,45,0,0
189787,-200,4,2,31,45,0,0
191050,-200,4,2,31,35,0,0
195471,-200,4,2,3,60,0,0
196103,-133.333333333333,4,2,3,60,0,1
196182,-133.333333333333,4,2,3,60,0,0
201156,-133.333333333333,4,2,5,80,0,1
205735,-133.333333333333,4,2,5,80,0,0
206208,-133.333333333333,4,2,5,80,0,1
209998,-133.333333333333,4,2,5,80,0,0
211261,-133.333333333333,4,2,3,75,0,1
221366,-133.333333333333,4,2,5,80,0,1
225945,-133.333333333333,4,2,5,80,0,0
226419,-100,4,2,5,80,0,1
231156,-200,4,2,5,80,0,1
231471,-133.333333333333,4,2,51,50,0,0
233524,-133.333333333333,4,2,5,50,0,0
236366,-500,4,2,5,50,0,0
237471,315.789473684211,4,2,3,70,1,0
237471,-133.333333333333,4,2,3,70,0,0
247576,-133.333333333333,4,2,3,70,0,1
251365,319.148936170213,4,2,3,70,1,1
251365,-133.333333333333,4,2,3,70,0,1
252641,314.13612565445,4,2,3,70,1,1
252641,-133.333333333333,4,2,3,70,0,1
253897,315.789473684211,4,2,3,70,1,1
255160,-133.333333333333,4,2,3,70,0,0
257760,-133.333333333333,4,2,3,70,0,0

[Colours]
Combo1 : 250,180,240
Combo2 : 110,190,225
Combo3 : 255,230,130
Combo4 : 150,230,140

[HitObjects]
315,197,629,5,0,0:0:0:0:
315,197,945,2,0,L|235:197,1,60,0|0,0:0|0:0,0:0:0:0:
189,133,1261,2,0,P|150:112|103:112,1,90,0|0,0:0|0:0,0:0:0:0:
76,121,1577,6,0,B|52:182|52:182|79:240,1,120,2|0,0:0|0:0,0:0:0:0:
126,320,2208,1,2,0:0:0:0:
213,258,2524,2,0,L|273:258,1,60,0|2,0:0|0:0,0:0:0:0:
350,289,2840,2,0,L|230:289,1,120,0|0,0:0|0:0,0:0:0:0:
323,75,3471,2,0,B|345:124|345:124|321:185,1,120,2|0,0:0|0:0,0:0:0:0:
215,128,4103,5,2,0:0:0:0:
215,128,4419,2,0,L|156:128,1,60,0|0,0:0|0:0,0:0:0:0:
18,177,4735,2,0,L|78:177,1,60,2|0,0:0|0:0,0:0:0:0:
160,225,5050,1,0,0:0:0:0:
160,225,5208,1,0,0:0:0:0:
154,308,5366,2,0,B|229:320|238:230|313:246,1,180,2|0,0:0|0:0,0:0:0:0:
398,292,5998,2,0,P|446:280|483:210,1,120,2|0,0:0|0:0,0:0:0:0:
416,81,6629,6,0,P|368:93|331:163,1,120,2|0,0:0|0:0,0:0:0:0:
456,202,7261,1,2,0:0:0:0:
348,287,7577,1,0,0:0:0:0:
348,287,7735,2,0,L|201:287,1,120,2|0,0:0|0:0,0:0:0:0:
137,311,8208,2,0,L|120:378,1,60,0|0,0:0|0:0,0:0:0:0:
168,227,8524,2,0,P|156:179|86:142,1,120,2|0,0:0|0:0,0:0:0:0:
11,162,9156,5,2,0:0:0:0:
99,142,9471,1,0,0:0:0:0:
187,122,9787,5,2,0:0:0:0:
207,210,9945,1,0,0:0:0:0:
227,298,10103,1,0,0:0:0:0:
315,278,10261,1,2,0:0:0:0:
471,150,10735,5,0,0:0:0:0:
377,115,11050,6,0,L|371:71,3,30,0|0|0|0,3:0|3:0|3:0|3:0,0:0:0:0:
377,120,11366,1,0,1:0:0:0:
378,126,11445,1,0,1:0:0:0:
379,132,11524,1,0,1:0:0:0:
380,138,11603,1,0,1:0:0:0:
381,144,11682,6,0,P|295:206|226:189,1,180.000006866455,4|0,3:1|3:0,0:0:0:0:
55,221,12156,2,0,P|35:273|45:323,1,90.0000034332277,4|0,1:2|0:0,0:0:0:0:
140,173,12471,1,0,3:0:0:0:
132,349,12629,2,0,P|218:287|287:304,1,180.000006866455,4|0,1:1|0:0,0:0:0:0:
366,361,13103,5,8,0:3:0:0:
287,200,13261,1,4,0:3:0:0:
448,125,13419,1,0,0:0:0:0:
439,145,13498,1,4,0:3:0:0:
430,166,13577,2,0,L|335:125,1,90.0000034332277,0|0,3:0|3:0,0:0:0:0:
95,118,13892,1,0,3:0:0:0:
87,153,13971,1,0,1:0:0:0:
91,188,14050,1,0,1:0:0:0:
107,221,14129,1,0,1:0:0:0:
134,246,14208,6,0,P|220:256|286:199,1,180.000006866455,4|0,3:1|3:0,0:0:0:0:
380,85,14682,2,0,P|398:125|396:170,1,90.0000034332277,4|0,1:2|0:0,0:0:0:0:
291,40,14998,1,0,3:0:0:0:
403,258,15156,2,0,P|430:175|511:141,1,180.000006866455,4|0,1:1|1:0,0:0:0:0:
321,277,15629,5,0,3:0:0:0:
342,154,15787,1,0,3:0:0:0:
225,198,15945,1,0,3:0:0:0:
246,75,16103,1,0,1:0:0:0:
246,75,16182,1,0,3:0:0:0:
246,75,16261,1,0,3:0:0:0:
101,176,16419,2,0,P|77:138|73:94,1,90.0000034332277,4|0,1:1|0:0,0:0:0:0:
143,278,16735,6,0,P|229:216|298:233,1,180.000006866455,4|0,3:1|3:0,0:0:0:0:
78,337,17208,2,0,P|59:296|61:251,1,90.0000034332277,4|0,1:2|0:0,0:0:0:0:
209,344,17524,1,0,3:0:0:0:
354,170,17682,2,0,L|444:170,1,90.0000034332277,4|0,1:1|0:0,0:0:0:0:
398,266,17998,5,0,3:0:0:0:
282,126,18156,1,0,0:0:0:0:
282,126,18235,1,0,0:0:0:0:
282,126,18314,2,0,P|271:160|272:185,2,60.0000022888184,0|0|0,1:0|1:0|1:0,0:0:0:0:
188,186,18629,2,0,P|195:220|208:242,2,60.0000022888184,0|0|0,3:0|3:0|3:0,0:0:0:0:
135,283,18945,2,0,P|158:309|181:321,2,60.0000022888184,0|0|0,3:0|3:0|3:0,0:0:0:0:
261,352,19261,6,0,B|346:354|329:281|422:283,1,180.000006866455,4|0,3:1|3:0,0:0:0:0:
269,262,19735,2,0,P|251:222|253:177,1,90.0000034332277,4|0,1:2|0:0,0:0:0:0:
406,194,20050,1,0,3:0:0:0:
401,15,20208,2,0,P|419:55|417:100,1,90.0000034332277,4|0,1:1|0:0,0:0:0:0:
264,83,20524,5,4,0:1:0:0:
256,192,20682,12,0,21787,0:0:0:0:
36,213,22103,6,0,L|96:213,1,60
163,149,22419,1,0,3:2:0:0:
163,149,22577,1,0,0:0:0:0:
208,251,22735,1,0,0:0:0:0:
208,251,22892,2,0,P|258:255|268:252,1,60,0|2,0:0|0:0,0:0:0:0:
127,297,23208,2,0,P|123:347|126:357,1,60
239,174,23682,1,8,0:0:0:0:
344,296,23998,2,0,L|404:296,1,60
436,300,24235,1,0,0:0:0:0:
436,300,24314,6,0,P|484:276|507:217,1,120,2|0,0:0|0:0,0:0:0:0:
469,101,24945,1,0,3:0:0:0:
469,101,25103,1,0,0:0:0:0:
418,175,25261,1,0,0:0:0:0:
344,124,25419,1,2,0:0:0:0:
394,48,25577,2,0,P|337:35|283:58,1,120,2|2,0:0|0:0,0:0:0:0:
291,199,26208,2,0,P|343:214|403:190,1,120,8|0,0:2|0:0,0:0:0:0:
210,134,26840,5,2,0:0:0:0:
303,302,27156,2,0,L|241:302,1,60
170,257,27471,1,0,3:0:0:0:
170,257,27629,1,0,0:0:0:0:
71,298,27787,1,0,0:0:0:0:
147,368,27945,1,0,0:0:0:0:
71,298,28103,2,0,P|40:329|8:340,1,60,2|0,0:0|0:0,0:0:0:0:
27,223,28419,1,2,0:0:0:0:
80,285,28577,1,2,0:0:0:0:
156,312,28735,1,10,0:2:0:0:
236,297,28892,1,2,0:0:0:0:
236,297,29208,1,0,0:0:0:0:
311,271,29366,6,0,P|366:290|394:341,1,120,2|0,0:0|0:0,0:0:0:0:
512,166,29998,2,0,L|448:166,1,60,0|0,3:2|0:0,0:0:0:0:
374,196,30314,1,0,0:0:0:0:
374,196,30471,1,0,0:0:0:0:
306,133,30629,1,2,0:0:0:0:
253,195,30787,1,0,0:0:0:0:
177,222,30945,1,0,0:0:0:0:
97,207,31103,2,0,P|41:226|13:277,1,120,2|0,0:0|0:0,0:0:0:0:
94,288,31577,2,0,P|90:248|68:216,1,60
46,357,31892,5,2,0:0:0:0:
172,240,32208,2,0,L|232:240,1,60,0|2,0:0|0:0,0:0:0:0:
315,252,32524,1,0,3:2:0:0:
366,191,32682,1,0,0:0:0:0:
289,177,32840,1,0,0:0:0:0:
341,327,32998,1,0,0:0:0:0:
415,288,33156,2,0,P|471:307|499:358,1,120,2|0,0:0|0:0,0:0:0:0:
326,342,33787,1,8,0:0:0:0:
326,342,33945,2,0,P|281:303|223:304,1,120,2|0,0:0|0:0,0:0:0:0:
157,347,34419,5,2,0:0:0:0:
116,205,34735,1,0,0:0:0:0:
157,347,35050,1,0,3:2:0:0:
96,288,35208,1,2,0:0:0:0:
116,205,35366,1,2,0:0:0:0:
116,205,35524,1,0,0:0:0:0:
0,325,35682,2,0,P|37:286|95:288,1,120,2|0,0:0|0:0,0:0:0:0:
162,336,36156,1,2,0:0:0:0:
212,231,36314,2,0,L|272:231,1,60,8|2,0:2|0:0,0:0:0:0:
260,315,36629,2,0,L|320:315,1,60
352,319,36866,1,0,0:0:0:0:
352,319,36945,6,0,P|400:295|423:236,1,120,2|2,0:0|0:0,0:0:0:0:
409,152,37419,2,0,P|361:176|338:235,1,120,2|2,0:0|0:0,0:0:0:0:
339,313,37892,1,2,0:0:0:0:
423,235,38050,1,2,0:0:0:0:
423,235,38208,2,0,P|399:187|340:164,1,120,2|0,0:0|0:0,0:0:0:0:
265,189,38682,1,2,0:0:0:0:
188,175,38840,1,8,0:0:0:0:
129,124,38998,1,2,0:0:0:0:
129,124,39314,1,2,0:0:0:0:
108,205,39471,6,0,P|55:230|-1:213,1,120,2|0,0:0|0:0,0:0:0:0:
8,84,40103,2,0,P|65:73|115:103,1,120,2|0,3:2|0:0,0:0:0:0:
263,254,40735,1,2,0:0:0:0:
330,215,40892,1,0,0:0:0:0:
291,147,41050,1,0,0:0:0:0:
224,186,41208,1,0,0:0:0:0:
262,253,41366,6,0,P|319:270|372:245,1,120,10|2,0:2|0:0,0:0:0:0:
396,170,41840,1,0,0:0:0:0:
512,293,41998,6,0,P|451:355|365:343,1,180.000006866455,4|2,3:2|0:0,0:0:0:0:
238,238,42471,1,2,1:2:0:0:
237,238,42629,2,0,P|219:278|221:323,1,90.0000034332277,2|0,0:0|0:0,0:0:0:0:
345,268,42945,1,2,3:2:0:0:
297,173,43103,2,0,P|245:153|195:163,1,90.0000034332277,2|0,0:0|0:0,0:0:0:0:
129,193,43419,1,2,0:0:0:0:
167,47,43577,1,2,0:0:0:0:
89,276,43892,1,8,0:0:0:0:
45,167,44050,1,0,0:0:0:0:
89,276,44208,2,0,P|146:242|185:239,1,90.0000034332277,0|2,3:0|0:0,0:0:0:0:
256,258,44524,6,0,P|342:320|411:303,1,180.000006866455,2|2,3:2|0:0,0:0:0:0:
373,127,44998,2,0,L|352:215,1,90.0000034332277,0|0,1:0|0:0,0:0:0:0:
191,357,45471,2,0,L|169:269,1,90.0000034332277,2|2,3:2|0:0,0:0:0:0:
17,230,45787,2,0,P|61:231|102:213,1,90.0000034332277,2|0,0:0|0:0,0:0:0:0:
183,49,46103,2,0,P|138:47|97:65,1,90.0000034332277,2|2,0:0|0:0,0:0:0:0:
155,136,46419,1,2,1:2:0:0:
243,120,46577,1,0,0:0:0:0:
331,104,46735,1,2,0:0:0:0:
344,321,47050,6,0,P|406:260|394:174,1,180.000006866455,2|2,3:2|0:0,0:0:0:0:
239,180,47524,1,2,1:2:0:0:
239,180,47682,2,0,P|237:266|305:318,1,90.0000034332277,0|2,0:0|0:0,0:0:0:0:
316,131,47998,1,2,3:2:0:0:
394,174,48156,2,0,L|485:174,1,90.0000034332277,2|2,0:0|0:0,0:0:0:0:
143,258,48629,2,0,L|52:258,1,90.0000034332277,2|0,0:0|0:0,0:0:0:0:
174,173,48945,1,8,0:0:0:0:
212,319,49103,1,2,0:0:0:0:
212,319,49419,1,2,0:0:0:0:
256,204,49577,6,0,P|295:183|340:182,1,90.0000034332277,2|0,3:2|0:0,0:0:0:0:
410,238,49892,1,0,0:0:0:0:
410,238,50050,1,0,1:0:0:0:
512,130,50208,2,0,P|451:67|365:79,1,180.000006866455,2|0,0:0|3:0,0:0:0:0:
318,156,50682,1,0,0:0:0:0:
106,101,50840,1,2,0:0:0:0:
184,56,50998,1,2,0:0:0:0:
229,133,51156,1,2,3:2:0:0:
151,178,51314,1,2,0:0:0:0:
190,30,51471,1,0,1:0:0:0:
144,203,51629,1,0,3:0:0:0:
318,156,51787,2,0,P|362:156|402:177,1,90.0000034332277,6|0,3:2|0:0,0:0:0:0:
416,369,52103,6,0,P|340:331|339:246,1,180.000006866455,4|0,3:2|0:0,0:0:0:0:
339,244,52577,1,0,1:0:0:0:
307,336,52735,2,0,P|267:356|223:358,1,90.0000034332277,2|2,0:0|0:0,0:0:0:0:
198,180,53050,1,2,3:2:0:0:
198,180,53208,2,0,P|284:175|338:243,1,180.000006866455,2|0,0:0|0:0,0:0:0:0:
311,340,53682,1,2,0:0:0:0:
56,207,53998,1,8,0:0:0:0:
117,302,54156,1,0,0:0:0:0:
118,146,54314,2,0,P|78:125|34:125,1,90.0000034332277,0|2,3:0|0:0,0:0:0:0:
26,287,54629,6,0,B|107:310|110:236|197:261,1,180.000006866455,2|0,3:2|0:0,0:0:0:0:
314,261,55103,1,0,1:0:0:0:
314,261,55261,2,0,P|400:272|460:210,1,180.000006866455,2|8,0:0|3:0,0:0:0:0:
368,92,55735,2,0,P|358:135|370:179,1,90.0000034332277,0|0,0:0|0:0,0:0:0:0:
207,12,56208,2,0,P|218:55|208:98,1,90.0000034332277,2|0,0:0|0:0,0:0:0:0:
101,148,56524,2,0,B|48:137|28:102|28:102|51:64|101:53,1,180.000006866455,4|2,3:0|0:0,0:0:0:0:
43,238,56998,1,2,0:0:0:0:
43,238,57156,6,0,P|103:176|189:187,1,180.000006866455,0|2,3:0|0:0,0:0:0:0:
194,339,57629,1,0,1:0:0:0:
194,339,57787,2,0,L|104:339,1,90.0000034332277,0|0,0:0|0:0,0:0:0:0:
293,280,58103,1,2,3:2:0:0:
272,155,58261,1,2,0:0:0:0:
293,280,58419,2,0,P|361:333|445:310,1,180.000006866455,2|2,0:0|0:0,0:0:0:0:
486,224,58892,1,2,0:0:0:0:
486,224,59050,1,8,0:0:0:0:
353,30,59366,2,0,P|395:43|427:74,1,90.0000034332277,0|2,3:0|0:0,0:0:0:0:
391,175,59682,6,0,B|309:198|306:124|219:149,1,180.000006866455,2|0,3:2|0:0,0:0:0:0:
219,149,60156,1,0,1:0:0:0:
67,41,60314,2,0,P|66:128|136:181,1,180.000006866455,2|0,0:0|3:0,0:0:0:0:
76,273,60787,1,0,0:0:0:0:
76,273,60945,2,0,L|178:290,1,90.0000034332277,2|0,0:0|0:0,0:0:0:0:
267,252,61261,2,0,P|255:295|265:338,1,90.0000034332277,2|0,0:2|3:0,0:0:0:0:
265,338,61498,1,0,3:0:0:0:
265,338,61577,1,2,1:2:0:0:
373,330,61735,1,4,0:3:0:0:
473,314,61892,1,0,3:0:0:0:
477,318,62208,5,4,0:2:0:0:
369,97,64419,6,0,P|371:118|391:163,1,60,2|0,0:0|0:0,0:0:0:0:
509,165,64735,2,0,B|391:130|388:230|279:198,3,240,2|2|2|2,0:0|0:0|0:0|0:0,0:0:0:0:
32,187,66945,2,0,P|59:174|89:171,1,60,0|8,0:0|0:0,0:0:0:0:
84,266,67261,6,0,P|176:202|145:96,1,120,10|0,0:0|0:0,0:0:0:0:
267,152,67735,1,0,0:0:0:0:
267,152,67892,2,0,P|313:187|330:244,1,120,2|0,3:2|0:0,0:0:0:0:
318,322,68366,1,0,0:0:0:0:
391,292,68524,2,0,L|536:292,1,120,2|0,0:0|0:0,0:0:0:0:
473,93,69156,2,0,L|328:93,1,120,2|2,3:2|0:0,0:0:0:0:
281,124,69629,1,2,0:0:0:0:
281,124,69708,1,2,0:0:0:0:
281,124,69787,6,0,P|217:89|202:33,1,120,2|0,0:0|0:0,0:0:0:0:
107,65,70419,2,0,P|108:137|67:178,1,120,2|0,3:2|0:0,0:0:0:0:
138,245,70892,1,0,0:0:0:0:
138,245,71050,2,0,P|199:208|255:223,1,120,2|0,0:0|0:0,0:0:0:0:
273,326,71682,2,0,P|211:362|155:347,1,120,0|2,3:0|0:0,0:0:0:0:
98,316,72156,1,2,0:0:0:0:
98,316,72314,6,0,P|40:325|2:371,1,120,2|2,0:0|0:0,0:0:0:0:
100,226,72945,2,0,P|90:168|44:130,1,120,0|0,3:0|0:0,0:0:0:0:
183,48,73577,2,0,P|193:105|239:143,1,120,2|2,0:0|0:0,0:0:0:0:
370,129,74208,2,0,L|492:115,1,120,2|2,3:2|0:0,0:0:0:0:
340,305,74840,2,0,P|306:258|312:199,2,120,2|0|0,0:0|0:0|3:0,0:0:0:0:
340,305,75787,1,2,1:2:0:0:
151,267,75945,1,2,1:2:0:0:
162,347,76419,6,0,P|202:327|229:292,1,90.0000034332277,0|0,0:0|1:0,0:0:0:0:
237,267,76656,1,0,1:0:0:0:
234,241,76735,1,0,1:0:0:0:
365,310,76892,1,4,0:3:0:0:
360,163,77050,1,0,3:0:0:0:
271,324,77208,1,0,0:0:0:0:
104,174,77366,6,0,P|126:224|169:253,1,90.0000034332277,4|0,3:1|0:0,0:0:0:0:
290,71,77682,2,0,P|376:82|423:152,1,135.000005149841,2|0,1:2|0:0,0:0:0:0:
329,252,77998,2,0,P|315:209|323:165,1,90.0000034332277,2|0,3:2|3:0,0:0:0:0:
461,198,78314,1,2,1:2:0:0:
324,58,78471,5,0,3:0:0:0:
324,58,78550,1,0,3:0:0:0:
324,58,78629,2,0,L|231:52,1,90.0000034332277,2|0,0:2|3:0,0:0:0:0:
385,269,78945,2,0,L|296:264,1,90.0000034332277,2|0,1:3|0:0,0:0:0:0:
87,254,79261,1,2,3:2:0:0:
162,151,79419,1,0,3:0:0:0:
213,315,79577,2,0,P|257:353|313:360,1,90.0000034332277,2|0,1:2|0:0,0:0:0:0:
285,159,79892,6,0,L|166:151,1,90.0000034332277,2|0,3:2|0:0,0:0:0:0:
202,291,80208,1,0,1:0:0:0:
309,183,80366,1,0,0:0:0:0:
318,213,80445,1,0,0:0:0:0:
339,236,80524,2,0,P|393:246|441:228,1,90.0000034332277,2|0,3:2|3:0,0:0:0:0:
425,105,80840,1,2,1:2:0:0:
318,213,80998,1,0,3:0:0:0:
241,73,81156,6,0,L|221:173,1,90.0000034332277,2|0,0:2|3:0,0:0:0:0:
112,41,81471,2,0,L|92:141,1,90.0000034332277,2|0,1:2|0:0,0:0:0:0:
107,290,81787,1,2,3:2:0:0:
107,290,81866,1,0,3:0:0:0:
107,290,81945,1,0,3:0:0:0:
107,290,82024,1,0,3:0:0:0:
107,290,82103,1,2,1:2:0:0:
127,316,82182,1,0,1:0:0:0:
155,335,82261,1,0,1:0:0:0:
187,344,82340,1,0,1:0:0:0:
221,343,82419,6,0,P|282:318|317:262,1,135.000005149841,4|0,3:2|0:0,0:0:0:0:
225,115,82735,2,0,P|229:159|253:197,1,90.0000034332277,2|0,1:2|0:0,0:0:0:0:
440,231,83050,1,2,3:2:0:0:
319,69,83208,1,0,3:0:0:0:
329,267,83366,1,2,1:2:0:0:
467,130,83524,1,0,3:0:0:0:
253,197,83682,6,0,L|135:179,1,90.0000034332277,2|0,0:2|3:0,0:0:0:0:
357,262,83998,2,0,L|474:244,1,90.0000034332277,2|0,1:2|0:0,0:0:0:0:
263,90,84314,1,2,3:2:0:0:
240,301,84471,1,0,3:0:0:0:
240,301,84550,1,0,3:0:0:0:
239,300,84629,2,0,L|254:202,1,90.0000034332277,2|0,1:2|0:0,0:0:0:0:
142,334,84945,6,0,L|159:216,1,90.0000034332277,4|0,3:2|0:0,0:0:0:0:
81,112,85261,1,0,1:0:0:0:
59,362,85419,2,0,P|104:357|142:334,1,90.0000034332277,4|0,3:2|0:0,0:0:0:0:
166,164,85735,1,0,3:0:0:0:
323,258,85892,1,0,3:0:0:0:
166,164,86050,6,0,L|336:107,1,180.000006866455,4|0,1:2|3:0,0:0:0:0:
325,226,86524,1,0,1:0:0:0:
465,176,86682,1,0,1:0:0:0:
483,203,86761,1,0,1:0:0:0:
490,236,86840,1,0,1:0:0:0:
483,269,86919,1,0,1:0:0:0:
463,296,86998,1,8,1:3:0:0:
435,313,87077,1,0,1:0:0:0:
401,318,87156,1,0,3:0:0:0:
369,309,87235,1,0,3:0:0:0:
343,288,87314,1,0,3:0:0:0:
327,259,87392,1,0,3:0:0:0:
325,225,87471,6,0,P|345:185|381:159,1,90.0000034332277,4|0,3:1|0:0,0:0:0:0:
178,279,87787,2,0,P|146:220|156:154,1,135.000005149841,2|0,1:2|0:0,0:0:0:0:
232,106,88103,2,0,P|245:148|238:192,1,90.0000034332277,2|0,3:2|3:0,0:0:0:0:
181,282,88419,1,2,1:2:0:0:
342,148,88577,5,0,3:0:0:0:
342,148,88656,1,0,3:0:0:0:
342,148,88735,2,0,L|468:142,1,90.0000034332277,2|0,3:2|3:0,0:0:0:0:
269,314,89050,2,0,L|358:309,1,90.0000034332277,2|0,1:2|0:0,0:0:0:0:
144,163,89366,1,2,3:2:0:0:
315,152,89524,1,0,3:0:0:0:
237,304,89682,2,0,P|204:273|188:232,1,90.0000034332277,2|0,1:2|0:0,0:0:0:0:
402,39,89998,6,0,P|395:124|315:152,1,180.000006866455,6|2,3:2|1:2,0:0:0:0:
189,52,90471,1,0,3:0:0:0:
210,58,90550,1,0,3:0:0:0:
231,64,90629,1,2,3:2:0:0:
99,33,90787,1,0,3:0:0:0:
183,209,90945,1,2,1:2:0:0:
183,209,91103,6,0,P|102:214|82:318,1,180.000006866455,0|0,3:0|3:0,0:0:0:0:
299,173,91577,2,0,P|317:133|315:88,1,90.0000034332277,2|0,1:2|0:0,0:0:0:0:
202,228,91892,1,0,3:2:0:0:
213,253,91971,1,0,3:0:0:0:
235,271,92050,1,0,3:0:0:0:
262,277,92129,1,0,3:0:0:0:
289,269,92208,1,0,1:0:0:0:
309,250,92287,1,0,1:0:0:0:
318,224,92366,1,0,1:0:0:0:
315,196,92445,1,0,1:0:0:0:
299,174,92524,6,0,L|384:260,1,120,4|0,3:1|0:0,0:0:0:0:
457,337,92840,5,8,1:0:0:0:
394,93,92998,1,0,3:0:0:0:
449,306,93156,5,8,1:0:0:0:
207,239,93314,1,0,3:0:0:0:
419,298,93471,5,8,1:0:0:0:
243,118,93629,1,0,3:0:0:0:
296,288,93787,5,8,1:0:0:0:
363,46,93945,1,0,3:0:0:0:
161,244,94103,5,8,1:0:0:0:
341,69,94261,1,0,3:0:0:0:
97,130,94419,5,8,1:0:0:0:
339,198,94577,1,0,3:0:0:0:
67,138,94735,5,8,1:0:0:0:
310,76,94892,1,0,3:0:0:0:
112,271,95050,5,4,1:2:0:0:
294,95,95208,1,0,3:0:0:0:
188,319,95366,5,8,1:0:0:0:
329,81,95524,1,0,3:0:0:0:
270,347,95682,5,8,1:0:0:0:
354,55,95840,1,0,3:0:0:0:
363,348,95998,5,8,1:0:0:0:
370,21,96156,1,0,3:0:0:0:
500,322,96314,6,0,P|467:216|356:219,2,240,8|8|0,1:0|1:0|3:0,0:0:0:0:
385,332,97103,1,0,1:0:0:0:
467,185,97261,5,0,1:0:0:0:
271,341,97419,1,0,1:0:0:0:
170,125,97577,1,4,0:1:0:0:
170,125,98208,6,0,P|203:16|318:20,2,240,2|2|2,0:0|0:0|0:0,0:0:0:0:
257,172,99629,1,0,3:0:0:0:
257,172,99787,2,0,L|360:172,1,90,0|0,1:2|0:0,0:0:0:0:
402,25,100103,6,0,P|316:12|256:74,1,180.000006866455,4|0,3:1|0:0,0:0:0:0:
257,174,100735,1,0,0:0:0:0:
91,141,101050,5,0,1:0:0:0:
176,329,101208,1,0,3:0:0:0:
256,174,101366,2,0,B|346:155|346:155|402:224,1,180.000006866455,4|0,3:2|0:0,0:0:0:0:
205,256,101840,5,0,3:0:0:0:
205,256,101919,1,0,3:0:0:0:
205,256,101998,1,0,1:0:0:0:
404,320,102156,1,8,0:3:0:0:
360,116,102314,1,4,0:3:0:0:
289,334,102471,1,0,3:0:0:0:
108,211,102629,6,0,B|172:149|172:149|260:164,1,180.000006866455,4|0,3:1|3:0,0:0:0:0:
433,224,103103,2,0,P|453:172|443:122,1,90.0000034332277,4|0,1:2|0:0,0:0:0:0:
331,238,103419,1,0,3:0:0:0:
333,68,103577,2,0,P|267:125|183:115,1,90.0000034332277,4|0,1:1|0:0,0:0:0:0:
69,33,103892,5,0,3:3:0:0:
187,87,104050,1,2,1:2:0:0:
95,199,104208,1,0,0:0:0:0:
196,107,104366,1,0,3:3:0:0:
205,127,104445,1,0,3:0:0:0:
214,148,104524,2,0,L|316:159,1,90.0000034332277,0|8,1:0|0:3,0:0:0:0:
72,228,104840,1,4,1:3:0:0:
64,263,104919,1,0,1:0:0:0:
68,298,104998,1,0,1:0:0:0:
84,331,105077,1,0,1:0:0:0:
111,356,105156,6,0,P|197:366|261:310,1,90.0000034332277,4|0,3:1|0:0,0:0:0:0:
250,245,105471,1,0,3:0:0:0:
418,333,105629,2,0,P|332:343|268:287,1,90.0000034332277,4|0,1:2|0:0,0:0:0:0:
278,259,105945,1,0,3:0:0:0:
447,348,106103,2,0,P|481:268|561:241,1,90.0000034332277,4|0,1:1|0:0,0:0:0:0:
512,175,106419,5,0,3:0:0:0:
477,183,106498,1,0,3:0:0:0:
442,179,106577,1,0,3:0:0:0:
409,163,106656,1,0,3:0:0:0:
384,136,106735,2,0,P|374:50|430:-14,1,90.0000034332277,0|0,1:0|3:0,0:0:0:0:
360,66,106971,1,0,3:0:0:0:
346,83,107050,2,0,L|263:47,1,90.0000034332277,0|0,1:0|3:0,0:0:0:0:
280,166,107366,1,0,1:1:0:0:
152,122,107524,1,0,1:1:0:0:
152,122,107603,1,0,1:1:0:0:
152,122,107682,6,0,P|66:184|-3:167,1,180.000006866455,4|0,3:1|1:0,0:0:0:0:
217,63,108156,2,0,P|236:104|234:149,1,90.0000034332277,4|0,3:2|0:0,0:0:0:0:
86,56,108471,1,0,3:0:0:0:
161,245,108629,2,0,L|251:245,1,90.0000034332277,4|0,1:1|0:0,0:0:0:0:
456,164,108945,5,0,1:0:0:0:
351,291,109103,1,8,0:3:0:0:
340,175,109261,1,4,0:3:0:0:
474,287,109419,1,0,3:0:0:0:
474,287,109498,1,0,3:0:0:0:
474,287,109577,1,0,1:0:0:0:
410,126,109735,1,0,3:3:0:0:
305,253,109892,2,0,P|264:272|219:270,1,90.0000034332277,0|0,3:3|3:3,0:0:0:0:
93,197,110208,5,4,3:1:0:0:
88,313,110366,1,0,0:0:0:0:
93,197,110524,1,0,3:0:0:0:
192,259,110682,2,0,P|210:218|207:173,1,90.0000034332277,4|0,1:2|0:0,0:0:0:0:
56,191,110998,1,0,3:0:0:0:
61,12,111156,2,0,P|43:52|45:97,1,90.0000034332277,4|0,1:1|0:0,0:0:0:0:
197,80,111471,6,0,P|191:35|166:0,1,90.0000034332277,0|0,0:0|0:0,0:0:0:0:
207,173,111787,1,0,1:0:0:0:
295,124,111945,1,0,1:0:0:0:
295,124,112024,1,0,1:0:0:0:
295,124,112103,2,0,L|388:124,2,90.0000034332277,0|8|4,1:0|0:3|3:3,0:0:0:0:
295,124,112735,5,4,3:1:0:0:
398,308,113050,1,0,0:0:0:0:
398,308,113208,1,0,1:0:0:0:
432,221,113366,2,0,P|465:198|517:186,1,90.0000034332277,8|8,0:3|0:3,0:0:0:0:
419,109,113682,1,4,0:3:0:0:
419,109,113840,2,0,P|381:85|338:77,1,90.0000034332277,0|0,3:0|0:0,0:0:0:0:
347,188,114156,1,0,3:0:0:0:
347,188,114314,1,0,0:0:0:0:
255,137,114471,2,0,B|185:137|185:137|148:159|148:159|81:159,1,180.000006866455,0|0,1:0|3:0,0:0:0:0:
19,81,114945,2,0,P|27:37|51:0,1,90.0000034332277,0|0,1:0|0:0,0:0:0:0:
81,159,115261,6,0,P|72:202|48:240,1,90.0000034332277,2|0,3:2|0:0,0:0:0:0:
127,77,115577,2,0,B|212:75|195:148|288:146,1,180.000006866455,0|0,1:0|3:0,0:0:0:0:
367,89,116050,1,0,3:0:0:0:
367,89,116208,2,0,L|385:-1,1,90.0000034332277,0|0,1:0|3:0,0:0:0:0:
469,155,116524,2,0,L|487:65,1,90.0000034332277,0|0,0:0|3:0,0:0:0:0:
317,161,116840,2,0,L|335:71,1,90.0000034332277,0|0,1:0|0:0,0:0:0:0:
334,72,117077,1,0,3:0:0:0:
334,72,117156,1,0,3:0:0:0:
239,58,117314,1,0,3:0:0:0:
223,149,117471,2,0,P|185:173|142:183,1,90.0000034332277,0|0,1:0|0:0,0:0:0:0:
2,148,117787,6,0,B|50:172|50:172|68:311,1,180.000006866455,4|0,3:2|0:0,0:0:0:0:
148,215,118261,1,0,1:0:0:0:
167,343,118419,1,8,0:3:0:0:
229,278,118577,1,4,0:3:0:0:
291,213,118735,1,2,3:2:0:0:
319,304,118892,2,0,P|405:314|471:257,1,180.000006866455,0|0,0:0|3:0,0:0:0:0:
473,166,119366,1,0,0:0:0:0:
375,212,119524,2,0,P|351:174|341:131,1,90.0000034332277,0|0,1:0|0:0,0:0:0:0:
234,101,119840,1,0,3:0:0:0:
318,134,119998,2,0,P|341:96|352:52,1,90.0000034332277,0|0,1:0|0:0,0:0:0:0:
136,48,120314,6,0,P|125:134|182:200,1,180.000006866455,2|0,3:2|1:0,0:0:0:0:
272,211,120787,1,0,0:0:0:0:
147,283,120945,1,0,3:0:0:0:
182,200,121103,1,0,3:0:0:0:
271,355,121261,1,0,1:0:0:0:
186,204,121419,1,4,3:2:0:0:
65,317,121577,2,0,P|108:306|146:282,1,90.0000034332277,0|0,0:0|3:0,0:0:0:0:
108,142,121892,1,0,1:0:0:0:
7,246,122050,1,0,0:0:0:0:
7,246,122129,1,0,3:0:0:0:
7,246,122208,1,0,3:0:0:0:
90,171,122366,1,0,3:0:0:0:
114,281,122524,2,0,P|151:304|195:315,1,90.0000034332277,4|0,1:2|0:0,0:0:0:0:
322,281,122840,6,0,B|407:279|390:352|483:350,1,180.000006866455,4|0,3:1|0:0,0:0:0:0:
472,250,123314,1,0,1:0:0:0:
389,195,123471,1,8,0:3:0:0:
478,150,123629,1,4,0:3:0:0:
472,250,123787,1,2,3:2:0:0:
389,194,123945,2,0,P|391:107|458:51,1,180.000006866455,0|0,0:0|3:0,0:0:0:0:
360,94,124419,1,0,0:0:0:0:
293,35,124577,2,0,B|223:35|223:35|186:57|186:57|119:57,1,180.000006866455,0|0,1:0|3:0,0:0:0:0:
40,131,125050,2,0,P|78:154|121:165,1,90.0000034332277,0|0,1:0|0:0,0:0:0:0:
221,131,125366,6,0,P|204:235|143:272,1,180.000006866455,2|0,3:2|1:0,0:0:0:0:
145,271,125998,1,0,3:0:0:0:
248,247,126156,1,0,3:0:0:0:
274,349,126314,1,0,1:0:0:0:
274,349,126471,2,0,P|360:287|428:304,1,180.000006866455,2|0,3:2|3:0,0:0:0:0:
495,222,126945,2,0,L|512:133,1,90.0000034332277,0|0,1:0|0:0,0:0:0:0:
512,133,127182,1,0,3:0:0:0:
512,133,127261,1,0,3:0:0:0:
417,119,127419,1,0,3:0:0:0:
401,210,127577,2,0,P|361:189|331:156,1,90.0000034332277,0|0,1:0|0:0,0:0:0:0:
247,107,127892,6,0,B|162:105|179:178|86:176,1,180.000006866455,2|0,3:2|0:0,0:0:0:0:
0,131,128366,1,0,1:0:0:0:
91,87,128524,1,8,0:3:0:0:
91,87,128682,1,4,0:3:0:0:
91,87,128840,2,0,P|96:131|87:174,1,90.0000034332277,2|0,3:2|0:0,0:0:0:0:
187,113,129156,1,0,0:0:0:0:
180,287,129314,2,0,P|174:242|183:199,1,90.0000034332277,0|0,3:0|0:0,0:0:0:0:
368,215,129629,2,0,P|351:319|290:356,1,180.000006866455,0|0,1:0|3:0,0:0:0:0:
283,149,130103,2,0,P|318:121|360:108,1,90.0000034332277,0|0,1:2|0:0,0:0:0:0:
482,183,130419,6,0,L|443:4,1,180.000006866455,0|2,3:0|1:2,0:0:0:0:
354,223,131050,2,0,L|334:133,2,90.0000034332277,0|0|0,3:0|3:0|1:0,0:0:0:0:
454,354,131524,1,4,3:2:0:0:
454,354,131603,1,0,3:0:0:0:
454,354,131682,2,0,P|463:312|452:268,1,90.0000034332277,0|0,1:0|3:0,0:0:0:0:
354,223,131998,2,0,P|345:265|356:309,1,90.0000034332277,4|0,1:1|0:0,0:0:0:0:
356,309,132235,1,0,3:0:0:0:
356,309,132314,1,0,1:0:0:0:
451,267,132471,1,8,0:3:0:0:
285,167,132629,1,4,0:3:0:0:
282,360,132787,1,0,3:0:0:0:
282,360,132945,6,0,P|178:343|141:282,1,180.000006866455,4|0,3:1|0:0,0:0:0:0:
108,167,133577,2,0,P|66:158|23:169,1,60,0|0,1:0|0:0,0:0:0:0:
72,245,133892,1,0,0:0:0:0:
181,212,134050,1,0,0:0:0:0:
71,244,134208,2,0,P|76:156|144:105,2,120,0|0|0,3:0|0:0|1:0,0:0:0:0:
276,283,135156,1,0,0:0:0:0:
276,283,135471,6,0,P|304:230|299:171,1,120,0|0,3:0|0:0,0:0:0:0:
249,101,135945,1,0,3:0:0:0:
366,116,136103,2,0,P|361:56|389:4,1,120,0|0,1:0|0:0,0:0:0:0:
454,210,136735,1,0,3:0:0:0:
454,210,136892,2,0,L|387:197,1,60,0|0,1:0|0:0,0:0:0:0:
302,226,137208,1,0,3:0:0:0:
302,226,137287,1,0,0:0:0:0:
302,226,137366,2,0,L|235:213,1,60,0|8,1:0|0:3,0:0:0:0:
150,252,137682,1,4,0:3:0:0:
61,234,137840,1,0,3:0:0:0:
150,252,137998,6,0,P|167:148|228:111,1,180.000006866455,4|0,3:1|3:0,0:0:0:0:
320,256,138629,2,0,P|362:265|405:254,1,60,0|0,1:0|0:0,0:0:0:0:
356,178,138945,1,0,0:0:0:0:
247,211,139103,1,0,0:0:0:0:
334,290,139261,1,0,3:0:0:0:
356,178,139419,2,0,B|403:178|403:178|428:192|428:192|471:192,1,120,0|0,1:0|3:0,0:0:0:0:
512,114,139892,2,0,P|488:106|458:107,1,60,0|0,1:0|0:0,0:0:0:0:
463,250,140208,2,0,P|472:221|471:192,1,60,0|0,3:0|0:0,0:0:0:0:
329,279,140524,6,0,P|301:226|306:167,1,120,4|0,3:1|0:0,0:0:0:0:
155,133,140998,1,0,3:0:0:0:
239,111,141156,2,0,P|244:51|216:-1,1,120,0|0,1:0|3:0,0:0:0:0:
58,210,141787,1,0,3:0:0:0:
58,210,141945,2,0,L|125:197,1,60,0|0,1:0|3:0,0:0:0:0:
210,226,142261,1,0,0:0:0:0:
210,226,142419,2,0,L|277:213,1,60,0|0,1:0|0:0,0:0:0:0:
362,252,142735,1,0,3:0:0:0:
451,234,142892,1,0,3:0:0:0:
362,252,143050,6,0,B|345:168|420:172|401:81,1,180.000006866455,4|0,3:2|0:0,0:0:0:0:
263,41,143682,2,0,P|235:94|241:153,1,120,0|0,1:0|0:0,0:0:0:0:
240,152,144156,1,0,3:0:0:0:
155,83,144314,1,0,3:0:0:0:
138,193,144471,2,0,P|85:220|26:215,1,120,0|0,1:0|0:0,0:0:0:0:
218,239,144945,2,0,L|229:297,1,60,2|0,1:2|0:0,0:0:0:0:
126,362,145261,2,0,L|139:295,1,60,0|0,3:0|0:0,0:0:0:0:
272,150,145577,6,0,P|302:182|343:199,1,90.0000034332277,0|0,3:0|0:0,0:0:0:0:
187,100,145892,2,0,P|174:142|180:187,1,90.0000034332277,0|0,3:2|0:0,0:0:0:0:
355,101,146208,1,0,3:0:0:0:
353,84,146287,1,0,3:0:0:0:
349,67,146366,1,0,3:0:0:0:
342,52,146445,1,0,3:0:0:0:
333,38,146524,1,0,1:0:0:0:
286,182,146682,1,0,3:0:0:0:
102,115,147156,5,0,3:0:0:0:
116,106,147235,1,0,3:0:0:0:
131,99,147314,1,0,3:0:0:0:
148,95,147392,1,0,3:0:0:0:
165,93,147471,1,0,1:0:0:0:
284,149,147629,1,8,0:3:0:0:
273,18,147787,1,4,0:3:0:0:
286,182,147945,1,0,3:0:0:0:
422,89,148103,6,0,P|387:46|338:29,1,90.0000034332277,4|0,3:1|0:0,0:0:0:0:
288,215,148419,2,0,P|202:226|138:171,1,135.000005149841,2|0,1:2|0:0,0:0:0:0:
225,42,148735,2,0,P|239:84|232:129,1,90.0000034332277,2|0,3:2|3:0,0:0:0:0:
84,140,149050,1,2,1:2:0:0:
341,80,149208,5,0,3:0:0:0:
341,80,149287,1,0,3:0:0:0:
341,80,149366,2,0,L|310:186,1,90.0000034332277,2|0,3:2|3:0,0:0:0:0:
494,127,149682,2,0,L|468:213,1,90.0000034332277,2|0,1:3|0:0,0:0:0:0:
427,60,149998,1,2,3:2:0:0:
378,232,150156,1,0,3:0:0:0:
252,104,150314,2,0,P|194:93|142:115,1,90.0000034332277,2|0,1:2|0:0,0:0:0:0:
195,275,150629,6,0,L|209:156,1,90.0000034332277,2|0,3:2|0:0,0:0:0:0:
109,208,150945,1,0,1:0:0:0:
283,99,151103,1,0,3:0:0:0:
313,108,151182,1,0,3:0:0:0:
336,129,151261,2,0,P|346:183|328:231,1,90.0000034332277,2|0,3:2|3:0,0:0:0:0:
165,101,151577,1,2,1:2:0:0:
170,280,151735,1,0,3:0:0:0:
170,280,151892,6,0,P|152:240|154:195,1,90.0000034332277,2|0,0:2|3:0,0:0:0:0:
271,312,152208,2,0,P|286:270|319:240,1,90.0000034332277,2|0,1:2|0:0,0:0:0:0:
458,275,152524,1,2,3:2:0:0:
458,275,152603,1,0,3:0:0:0:
458,275,152682,1,0,3:0:0:0:
458,275,152761,1,0,3:0:0:0:
458,275,152840,1,2,1:2:0:0:
483,255,152919,1,0,1:0:0:0:
502,227,152998,1,0,1:0:0:0:
511,195,153077,1,0,1:0:0:0:
510,161,153156,6,0,P|485:100|429:65,1,135.000005149841,4|0,3:2|0:0,0:0:0:0:
320,197,153471,2,0,P|365:192|403:169,1,90.0000034332277,2|0,1:2|0:0,0:0:0:0:
323,73,153787,1,2,3:2:0:0:
202,235,153945,1,0,3:0:0:0:
188,49,154103,1,2,1:2:0:0:
320,197,154261,1,0,3:0:0:0:
103,157,154419,6,0,L|220:139,1,90.0000034332277,2|0,0:2|3:0,0:0:0:0:
70,163,154735,1,2,1:2:0:0:
140,313,154892,2,0,L|23:295,1,90.0000034332277,0|2,0:0|3:2,0:0:0:0:
244,338,155208,1,0,3:0:0:0:
244,338,155287,1,0,3:0:0:0:
244,338,155366,1,2,1:2:0:0:
270,188,155524,1,0,0:0:0:0:
370,334,155682,6,0,L|387:216,1,90.0000034332277,4|0,3:2|0:0,0:0:0:0:
309,112,155998,1,0,1:0:0:0:
271,338,156156,2,0,P|226:333|188:310,1,90.0000034332277,4|0,3:2|0:0,0:0:0:0:
412,150,156471,1,0,3:0:0:0:
255,244,156629,1,0,3:0:0:0:
412,150,156787,6,0,L|242:93,1,180.000006866455,4|0,1:2|3:0,0:0:0:0:
253,212,157261,1,0,1:0:0:0:
115,162,157419,1,0,1:0:0:0:
97,189,157498,1,0,1:0:0:0:
90,222,157577,1,0,1:0:0:0:
97,255,157656,1,0,1:0:0:0:
117,282,157735,1,8,1:3:0:0:
145,299,157814,1,0,1:0:0:0:
179,304,157892,1,0,3:0:0:0:
211,295,157971,1,0,3:0:0:0:
237,274,158050,1,0,3:0:0:0:
253,245,158129,1,0,3:0:0:0:
255,211,158208,6,0,P|270:169|304:139,1,90.0000034332277,4|0,3:1|0:0,0:0:0:0:
433,322,158524,2,0,P|375:286|351:224,1,135.000005149841,2|0,1:2|0:0,0:0:0:0:
499,153,158840,2,0,P|483:194|449:224,1,90.0000034332277,2|0,3:2|3:0,0:0:0:0:
305,139,159156,1,2,1:2:0:0:
172,212,159314,5,0,3:0:0:0:
168,216,159392,1,0,3:0:0:0:
164,220,159471,2,0,L|38:226,1,90.0000034332277,2|0,3:2|3:0,0:0:0:0:
237,54,159787,2,0,L|148:59,1,90.0000034332277,2|0,1:2|0:0,0:0:0:0:
184,243,160103,1,2,3:2:0:0:
259,88,160261,1,0,3:0:0:0:
355,231,160419,2,0,P|356:186|338:146,1,90.0000034332277,2|0,1:2|0:0,0:0:0:0:
215,320,160735,6,0,P|134:315|114:211,1,180.000006866455,6|2,3:2|1:2,0:0:0:0:
261,184,161208,1,0,3:0:0:0:
255,205,161287,1,0,3:0:0:0:
249,226,161366,1,2,3:2:0:0:
299,51,161524,1,0,3:0:0:0:
383,227,161682,1,2,1:2:0:0:
383,227,161840,6,0,P|388:146|492:126,1,180.000006866455,0|0,3:0|3:0,0:0:0:0:
407,318,162314,2,0,P|362:320|321:302,1,90.0000034332277,2|0,1:2|0:0,0:0:0:0:
152,258,162629,1,2,3:2:0:0:
168,278,162708,1,0,3:0:0:0:
195,289,162787,1,0,3:0:0:0:
221,288,162866,1,0,3:0:0:0:
246,274,162945,1,2,1:2:0:0:
261,249,163024,1,0,1:0:0:0:
262,222,163103,1,0,1:0:0:0:
253,196,163182,1,0,1:0:0:0:
231,179,163261,6,0,L|261:295,1,120,4|0,3:1|0:0,0:0:0:0:
154,115,163577,5,8,1:0:0:0:
371,173,163735,1,0,3:0:0:0:
160,140,163892,5,8,1:0:0:0:
217,359,164050,1,0,3:0:0:0:
182,120,164208,5,8,1:0:0:0:
119,337,164366,1,0,3:0:0:0:
199,93,164524,5,8,1:0:0:0:
265,335,164682,1,0,3:0:0:0:
219,60,164840,5,8,1:0:0:0:
153,302,164998,1,0,3:0:0:0:
358,108,165156,5,8,1:0:0:0:
163,266,165314,1,0,3:0:0:0:
430,191,165471,5,8,1:0:0:0:
149,180,165629,1,0,3:0:0:0:
390,296,165787,5,4,1:2:0:0:
210,116,165945,1,0,3:0:0:0:
313,342,166103,5,8,1:0:0:0:
175,102,166261,1,0,3:0:0:0:
230,369,166419,5,8,1:0:0:0:
152,75,166577,1,0,3:0:0:0:
136,368,166735,5,8,1:0:0:0:
135,41,166892,1,0,3:0:0:0:
5,332,167050,6,0,P|123:329|149:224,1,240,8|8,1:0|1:0,0:0:0:0:
257,330,167524,1,0,3:0:0:0:
257,330,167603,1,0,3:0:0:0:
257,330,167682,1,0,1:0:0:0:
63,261,167840,1,8,0:3:0:0:
260,203,167998,1,4,0:3:0:0:
134,366,168156,1,0,3:0:0:0:
141,160,168314,1,4,3:1:0:0:
211,267,178419,6,0,P|267:249|303:202,1,120,10|10,3:2|0:2,0:0:0:0:
338,112,178892,1,2,0:0:0:0:
338,112,179050,2,0,P|384:147|401:204,1,120,8|10,0:2|0:2,0:0:0:0:
391,292,179524,1,2,3:2:0:0:
391,292,179682,2,0,L|536:292,3,120,10|10|8|8,0:2|0:2|0:2|0:2,0:0:0:0:
512,197,180787,1,0,0:0:0:0:
512,197,180945,2,0,P|449:161|434:105,1,120,10|10,3:2|0:2,0:0:0:0:
340,133,181577,2,0,P|341:205|300:246,1,120,10|10,0:2|0:2,0:0:0:0:
371,313,182050,1,2,3:2:0:0:
371,313,182208,2,0,P|432:276|488:291,1,120,10|10,0:2|0:2,0:0:0:0:
255,313,182840,2,0,P|193:349|137:334,1,120,10|10,0:2|0:2,0:0:0:0:
315,109,183471,6,0,P|258:126|222:173,1,120,10|10,3:2|0:2,0:0:0:0:
188,264,183945,1,2,0:0:0:0:
188,264,184103,2,0,P|142:229|125:172,1,120,8|10,0:2|0:2,0:0:0:0:
135,84,184577,1,0,3:2:0:0:
135,84,184735,2,0,L|-10:84,3,120,10|10|8|8,0:2|0:2|0:2|0:2,0:0:0:0:
14,179,185840,1,0,3:0:0:0:
14,179,185998,2,0,P|76:214|91:270,1,120,10|10,3:2|0:2,0:0:0:0:
186,243,186629,2,0,P|185:171|226:130,1,120,10|10,0:2|0:2,0:0:0:0:
340,170,187103,1,2,3:2:0:0:
340,170,187261,2,0,P|341:241|300:282,1,120,10|10,0:2|0:2,0:0:0:0:
477,315,187892,1,10,0:2:0:0:
477,225,188050,2,0,L|477:69,1,120,2|0,0:0|0:0,0:0:0:0:
477,105,188524,1,0,3:0:0:0:
256,192,188682,12,0,189787,0:0:0:0:
193,181,195471,6,0,L|180:144,3,40,0|8|4|0,1:0|0:3|0:3|3:0,0:0:0:0:
199,293,196103,6,0,P|260:268|300:138,1,180.000006866455,4|0,3:1|0:0,0:0:0:0:
299,131,196892,1,0,1:0:0:0:
307,291,197050,1,8,0:3:0:0:
418,179,197208,1,4,3:1:0:0:
229,208,197366,6,0,L|111:190,1,90.0000034332277,0|0,0:0|0:0,0:0:0:0:
333,273,197682,2,0,L|450:255,1,90.0000034332277,0|0,0:0|3:0,0:0:0:0:
237,297,198314,2,0,L|227:190,1,90.0000034332277,4|0,0:3|0:0,0:0:0:0:
142,334,198629,6,0,L|122:121,1,180.000006866455,4|0,3:1|3:0,0:0:0:0:
59,362,199103,2,0,P|104:357|142:334,1,90.0000034332277,4|0,1:2|0:0,0:0:0:0:
170,214,199419,1,0,3:0:0:0:
327,308,199577,1,0,1:1:0:0:
170,214,199735,6,0,L|340:157,1,180.000006866455,4|0,3:1|3:0,0:0:0:0:
329,276,200208,1,0,1:0:0:0:
271,83,200366,1,0,1:0:0:0:
242,67,200445,1,0,1:0:0:0:
209,63,200524,1,0,1:0:0:0:
176,73,200603,1,0,1:0:0:0:
151,95,200682,1,0,1:0:0:0:
137,124,200761,1,0,1:0:0:0:
135,159,200840,1,0,3:0:0:0:
146,190,200919,1,0,3:0:0:0:
170,214,200998,1,0,3:0:0:0:
200,227,201077,1,0,3:0:0:0:
234,226,201156,6,0,P|272:202|294:164,1,90.0000034332277,4|0,3:1|0:0,0:0:0:0:
486,269,201471,2,0,P|420:278|362:246,1,135.000005149841,2|0,1:2|0:0,0:0:0:0:
434,95,201787,2,0,P|447:137|440:181,1,90.0000034332277,2|0,3:2|3:0,0:0:0:0:
346,51,202103,1,2,1:2:0:0:
272,250,202261,5,0,3:0:0:0:
272,250,202340,1,0,3:0:0:0:
272,250,202419,2,0,L|398:244,1,90.0000034332277,2|0,3:2|3:0,0:0:0:0:
166,112,202735,2,0,L|255:107,1,90.0000034332277,2|0,1:2|0:0,0:0:0:0:
72,287,203050,1,2,3:2:0:0:
148,136,203208,1,0,3:0:0:0:
240,277,203366,2,0,P|244:232|233:189,1,90.0000034332277,2|0,1:2|0:0,0:0:0:0:
70,289,203682,6,0,P|98:369|182:376,1,180.000006866455,2|2,3:2|1:2,0:0:0:0:
240,277,204156,1,0,0:0:0:0:
336,345,204314,1,2,3:2:0:0:
323,163,204471,1,0,3:0:0:0:
336,345,204629,1,2,1:2:0:0:
433,251,204787,6,0,P|407:169|322:162,1,180.000006866455,0|0,3:0|3:0,0:0:0:0:
225,247,205261,2,0,P|180:249|139:231,1,90.0000034332277,2|0,1:2|0:0,0:0:0:0:
159,73,205577,1,2,3:2:0:0:
184,84,205656,1,0,3:0:0:0:
202,106,205735,1,0,3:0:0:0:
208,133,205814,1,0,3:0:0:0:
200,160,205892,2,0,P|220:120|256:94,1,90.0000034332277,2|0,1:2|0:0,0:0:0:0:
353,247,206208,6,0,L|291:180,1,90.0000034332277,4|0,3:1|0:0,0:0:0:0:
426,179,206524,2,0,L|364:112,1,90.0000034332277,8|0,1:0|3:0,0:0:0:0:
373,264,206840,5,8,1:0:0:0:
225,112,206998,1,0,3:0:0:0:
221,302,207156,5,8,1:0:0:0:
372,153,207314,1,0,3:0:0:0:
186,109,207471,6,0,L|247:175,1,90.0000034332277,8|0,1:0|3:0,0:0:0:0:
261,35,207787,5,8,1:0:0:0:
110,183,207945,1,0,3:0:0:0:
159,6,208103,5,8,1:0:0:0:
211,211,208261,1,0,3:0:0:0:
83,80,208419,5,8,1:0:0:0:
287,137,208577,1,0,3:0:0:0:
125,303,208735,6,0,L|211:275,1,90.0000034332277,4|0,1:2|3:0,0:0:0:0:
81,166,209050,2,0,L|166:137,1,90.0000034332277,8|0,1:0|3:0,0:0:0:0:
218,248,209366,6,0,L|304:220,1,90.0000034332277,8|0,1:0|3:0,0:0:0:0:
174,111,209682,2,0,L|259:82,1,90.0000034332277,8|0,1:0|3:0,0:0:0:0:
113,283,209998,5,8,3:1:0:0:
81,270,210077,1,0,3:0:0:0:
59,245,210156,1,0,3:0:0:0:
51,213,210235,1,0,3:0:0:0:
58,180,210314,1,8,3:1:0:0:
79,154,210392,1,0,3:0:0:0:
109,141,210471,1,0,3:0:0:0:
143,142,210550,1,0,3:0:0:0:
171,159,210629,1,0,3:0:0:0:
203,176,210708,1,0,3:0:0:0:
238,176,210787,1,0,3:0:0:0:
270,159,210866,1,0,3:0:0:0:
289,129,210945,5,0,1:3:0:0:
301,167,211024,1,0,1:3:0:0:
314,206,211103,1,0,1:0:0:0:
326,244,211182,1,0,1:0:0:0:
338,283,211261,6,0,P|388:261|417:218,1,90.0000034332277,4|0,3:1|0:0,0:0:0:0:
277,44,211577,2,0,P|227:66|198:109,1,90.0000034332277,0|0,1:0|0:0,0:0:0:0:
260,339,211892,5,0,3:0:0:0:
287,138,212050,1,0,3:0:0:0:
179,277,212208,5,0,1:0:0:0:
367,199,212366,1,0,3:0:0:0:
193,176,212524,5,0,0:0:0:0:
353,300,212682,1,0,3:0:0:0:
328,99,212840,5,0,1:0:0:0:
204,259,212998,1,0,0:0:0:0:
405,232,213156,5,0,3:0:0:0:
246,110,213314,1,0,3:0:0:0:
271,309,213471,2,0,P|286:253|269:199,1,90.0000034332277,0|0,1:0|0:0,0:0:0:0:
194,343,213787,6,0,L|2:314,1,180.000006866455,4|0,3:2|1:0,0:0:0:0:
113,129,214261,1,0,3:0:0:0:
143,138,214340,1,0,3:0:0:0:
166,159,214419,2,0,P|176:213|158:261,1,90.0000034332277,0|0,3:0|3:0,0:0:0:0:
30,174,214735,1,0,1:0:0:0:
271,176,214892,1,0,3:0:0:0:
271,176,215050,6,0,P|276:131|299:93,1,90.0000034332277,0|0,0:0|3:0,0:0:0:0:
298,93,215287,1,0,3:0:0:0:
298,93,215366,1,0,1:0:0:0:
389,163,215524,1,0,0:0:0:0:
482,63,215682,1,0,3:0:0:0:
394,177,215840,1,0,3:0:0:0:
280,89,215998,1,0,1:0:0:0:
252,86,216077,1,0,1:0:0:0:
226,96,216156,1,0,1:0:0:0:
207,116,216235,1,0,1:0:0:0:
200,143,216314,6,0,P|191:80|146:27,1,135.000005149841,4|0,3:1|0:0,0:0:0:0:
113,210,216629,2,0,P|92:171|91:127,1,90.0000034332277,0|0,1:0|0:0,0:0:0:0:
216,248,216945,1,0,3:0:0:0:
295,71,217103,1,0,3:0:0:0:
312,237,217261,1,0,1:0:0:0:
198,81,217419,1,0,3:0:0:0:
120,258,217577,6,0,L|106:139,1,90.0000034332277,0|0,3:0|3:0,0:0:0:0:
215,324,217892,2,0,L|230:226,1,90.0000034332277,0|0,1:0|0:0,0:0:0:0:
107,287,218208,1,0,3:0:0:0:
258,222,218366,1,0,3:0:0:0:
289,225,218445,1,0,3:0:0:0:
315,242,218524,2,0,L|330:144,1,90.0000034332277,0|0,1:0|0:0,0:0:0:0:
172,330,218840,5,4,3:1:0:0:
332,157,218998,1,0,0:0:0:0:
402,383,219156,1,0,3:0:0:0:
332,157,219314,2,0,P|313:198|314:242,1,90.0000034332277,4|0,1:2|0:0,0:0:0:0:
434,74,219629,1,0,3:0:0:0:
204,147,219787,1,0,3:0:0:0:
404,216,219945,6,0,L|234:159,1,180.000006866455,4|0,1:1|3:0,0:0:0:0:
245,278,220419,1,0,1:2:0:0:
223,73,220577,1,0,1:2:0:0:
198,53,220656,1,0,1:2:0:0:
166,43,220735,1,0,1:2:0:0:
132,47,220814,1,0,1:0:0:0:
103,65,220892,1,8,1:3:0:0:
84,91,220971,1,0,1:0:0:0:
76,125,221050,1,4,3:3:0:0:
82,157,221129,1,0,3:0:0:0:
101,185,221208,1,0,3:2:0:0:
128,203,221287,1,0,3:0:0:0:
162,207,221366,6,0,P|203:190|232:156,1,90.0000034332277,4|0,3:1|0:0,0:0:0:0:
406,201,221682,2,0,P|415:133|383:77,1,135.000005149841,2|0,1:2|0:0,0:0:0:0:
232,156,221998,2,0,P|276:163|318:150,1,90.0000034332277,2|0,3:2|3:0,0:0:0:0:
195,70,222314,1,2,1:2:0:0:
134,296,222471,5,0,3:0:0:0:
134,296,222550,1,0,3:0:0:0:
134,296,222629,2,0,L|149:198,1,90.0000034332277,2|0,3:2|3:0,0:0:0:0:
247,334,222945,2,0,L|262:236,1,90.0000034332277,2|0,1:2|0:0,0:0:0:0:
116,220,223261,1,2,3:2:0:0:
274,151,223419,1,0,3:0:0:0:
136,49,223577,2,0,P|140:93|163:131,1,90.0000034332277,2|0,1:2|0:0,0:0:0:0:
394,24,223892,6,0,P|387:109|307:137,1,180.000006866455,6|2,3:2|1:2,0:0:0:0:
245,15,224366,1,0,3:0:0:0:
239,36,224445,1,0,3:0:0:0:
233,57,224524,1,2,3:2:0:0:
429,12,224682,1,0,3:0:0:0:
370,205,224840,1,2,1:2:0:0:
203,51,224998,6,0,P|122:56|95:163,1,180.000006866455,0|0,3:0|3:0,0:0:0:0:
252,139,225471,1,2,1:2:0:0:
121,270,225629,1,0,3:0:0:0:
135,295,225708,1,0,3:0:0:0:
160,314,225787,1,0,3:0:0:0:
189,324,225866,1,0,3:0:0:0:
221,321,225945,1,8,3:3:0:0:
248,306,226024,1,0,3:0:0:0:
269,283,226103,1,4,1:3:0:0:
279,252,226182,1,0,1:0:0:0:
278,222,226261,1,0,1:0:0:0:
264,193,226340,1,0,1:0:0:0:
241,171,226419,6,0,P|155:166|112:242,1,180,4|0,3:1|0:0,0:0:0:0:
159,130,226735,2,0,L|119:15,1,120,8|0,1:0|3:0,0:0:0:0:
197,239,227050,5,8,1:0:0:0:
9,185,227208,1,0,3:0:0:0:
114,309,227366,5,8,1:0:0:0:
61,99,227524,1,0,3:0:0:0:
0,268,227682,5,8,1:0:0:0:
172,101,227840,1,0,3:0:0:0:
71,313,227998,5,8,1:0:0:0:
206,87,228156,1,0,3:0:0:0:
149,339,228314,5,8,1:0:0:0:
229,62,228471,1,0,3:0:0:0:
238,340,228629,5,8,1:0:0:0:
244,31,228787,1,0,3:0:0:0:
346,291,228945,5,4,1:2:0:0:
243,63,229103,1,0,3:0:0:0:
215,334,229261,5,8,1:0:0:0:
319,96,229419,1,0,3:0:0:0:
327,329,229577,5,8,1:0:0:0:
208,64,229735,1,0,3:0:0:0:
173,335,229892,5,8,1:0:0:0:
304,40,230050,1,0,3:0:0:0:
45,269,230208,5,8,3:1:0:0:
445,203,230366,1,0,3:0:0:0:
30,253,230524,5,8,1:1:0:0:
449,183,230682,1,0,3:0:0:0:
15,237,230840,5,8,1:1:0:0:
454,163,230998,1,0,3:0:0:0:
203,320,231156,5,0,1:0:0:0:
203,320,231235,1,0,1:0:0:0:
203,320,231314,1,0,1:0:0:0:
203,320,231392,2,0,L|241:327,1,30,0|4,1:0|0:1,0:0:0:0:
255,172,233524,5,8,0:3:0:0:
255,172,233682,2,0,L|152:172,1,90,4|0,0:3|0:0,0:0:0:0:
110,25,233998,6,0,P|196:12|256:74,1,180.000006866455,4|0,3:1|0:0,0:0:0:0:
255,174,234629,1,0,0:0:0:0:
421,141,234945,5,0,1:0:0:0:
336,329,235103,1,0,3:0:0:0:
255,174,235261,2,0,B|168:155|168:155|109:224,1,180.000006866455,4|0,3:2|0:0,0:0:0:0:
307,256,235735,5,0,3:0:0:0:
307,256,235814,1,0,3:0:0:0:
307,256,235892,1,0,1:0:0:0:
108,320,236050,1,8,0:3:0:0:
152,116,236208,1,4,0:3:0:0:
227,342,236366,2,0,P|278:371|337:369,1,120,0|0,3:0|0:0,0:0:0:0:
395,241,237471,6,0,P|309:179|240:196,1,180.000006866455,4|0,3:1|3:0,0:0:0:0:
460,300,237944,2,0,P|479:259|477:214,1,90.0000034332277,4|0,1:2|3:0,0:0:0:0:
329,307,238260,1,0,3:0:0:0:
184,133,238418,2,0,L|94:133,1,90.0000034332277,4|0,1:1|0:0,0:0:0:0:
331,137,238734,5,0,0:0:0:0:
254,263,238892,1,0,3:3:0:0:
184,133,239049,1,2,1:2:0:0:
359,102,239207,1,0,3:0:0:0:
345,119,239286,1,0,3:0:0:0:
331,137,239365,2,0,L|249:72,1,90.0000034332277,0|4,1:0|0:3,0:0:0:0:
68,168,239681,1,0,3:0:0:0:
60,203,239760,1,0,3:0:0:0:
64,238,239839,1,0,3:0:0:0:
80,271,239918,1,0,3:0:0:0:
107,296,239997,6,0,P|193:306|257:250,1,90.0000034332277,4|0,3:1|3:0,0:0:0:0:
246,184,240313,1,0,3:0:0:0:
274,361,240471,2,0,P|325:291|309:208,1,90.0000034332277,4|0,1:2|3:0,0:0:0:0:
246,184,240786,1,0,3:0:0:0:
414,249,240944,2,0,P|379:169|299:142,1,90.0000034332277,4|0,1:1|0:0,0:0:0:0:
174,251,241260,5,0,1:0:0:0:
279,237,241418,1,2,3:2:0:0:
159,147,241576,1,0,3:0:0:0:
264,131,241734,1,0,3:0:0:0:
178,256,241892,1,0,1:0:0:0:
268,135,242049,1,2,3:2:0:0:
283,241,242207,1,0,3:0:0:0:
163,151,242365,1,0,3:0:0:0:
135,348,242523,6,0,P|221:342|276:275,1,180.000006866455,4|0,3:1|3:0,0:0:0:0:
348,145,242997,2,0,P|372:181|378:225,1,90.0000034332277,4|0,1:2|3:0,0:0:0:0:
253,116,243313,1,0,3:0:0:0:
366,331,243471,2,0,P|400:251|480:224,1,90.0000034332277,4|0,1:1|0:0,0:0:0:0:
276,274,243786,5,0,3:0:0:0:
241,282,243865,1,0,3:0:0:0:
206,278,243944,1,0,3:0:0:0:
173,262,244023,1,0,3:0:0:0:
148,235,244102,2,0,P|133:192|138:148,1,90.0000034332277,0|0,3:0|3:0,0:0:0:0:
124,165,244339,1,0,3:0:0:0:
110,182,244418,2,0,L|27:146,1,90.0000034332277,2|8,1:2|0:3,0:0:0:0:
226,180,244734,1,4,0:3:0:0:
100,325,244892,1,0,3:0:0:0:
100,325,244971,1,0,3:0:0:0:
100,325,245049,6,0,P|186:263|255:280,1,180.000006866455,4|0,3:1|3:0,0:0:0:0:
35,384,245523,2,0,P|16:343|18:298,1,90.0000034332277,4|0,1:2|3:0,0:0:0:0:
173,381,245839,1,0,3:0:0:0:
91,202,245997,2,0,L|1:202,1,90.0000034332277,4|0,1:1|0:0,0:0:0:0:
196,245,246313,6,0,L|196:155,1,90.0000034332277,2|0,3:2|0:0,0:0:0:0:
286,48,246628,1,0,3:0:0:0:
317,60,246707,1,0,3:0:0:0:
340,86,246786,1,0,3:0:0:0:
348,118,246865,1,0,3:0:0:0:
341,151,246944,1,0,3:0:0:0:
320,177,247023,1,0,3:0:0:0:
290,190,247102,1,0,3:0:0:0:
256,189,247181,1,0,3:0:0:0:
227,172,247260,1,0,1:0:0:0:
196,155,247339,1,0,1:0:0:0:
161,155,247418,1,0,1:0:0:0:
129,172,247497,1,0,1:0:0:0:
110,202,247576,6,0,P|102:245|115:288,1,90.0000034332277,4|0,3:1|3:0,0:0:0:0:
205,327,247892,1,0,3:0:0:0:
299,171,248049,2,0,P|306:214|293:257,1,90.0000034332277,4|0,1:2|3:0,0:0:0:0:
204,296,248365,1,0,3:0:0:0:
276,143,248523,6,0,P|189:154|122:96,1,180.000006866455,4|0,1:1|0:0,0:0:0:0:
6,144,248997,1,0,3:3:0:0:
123,97,249155,1,4,1:2:0:0:
173,246,249313,1,0,0:0:0:0:
220,63,249471,1,0,1:0:0:0:
253,49,249549,1,8,0:3:0:0:
288,46,249628,1,4,0:3:0:0:
323,56,249707,1,4,0:3:0:0:
352,79,249786,2,0,P|385:132|384:201,1,135.000005149841,0|0,3:0|0:0,0:0:0:0:
291,251,250102,6,0,P|277:208|285:164,1,90.0000034332277,4|0,3:1|3:0,0:0:0:0:
377,304,250418,1,0,3:0:0:0:
470,254,250576,2,0,P|483:296|475:340,1,90.0000034332277,4|0,1:2|3:0,0:0:0:0:
384,202,250892,1,0,3:0:0:0:
309,350,251049,2,0,P|282:267|201:233,1,180.000006866455,4|0,1:1|1:0,0:0:0:0:
302,159,251524,5,0,3:0:0:0:
185,110,251684,1,0,3:0:0:0:
201,233,251843,1,0,3:0:0:0:
302,159,252003,2,0,P|317:114|315:87,2,60.0000022888184,0|8|8,1:0|0:3|0:3,0:0:0:0:
121,180,252322,2,0,P|97:142|93:96,1,90.0000034332277,4|0,0:3|0:0,0:0:0:0:
64,267,252641,6,0,P|130:210|217:221,1,180.000006866455,4|0,3:1|1:0,0:0:0:0:
389,280,253112,2,0,P|409:228|399:178,1,90.0000034332277,4|0,1:2|3:0,0:0:0:0:
287,294,253426,1,0,3:0:0:0:
289,124,253583,2,0,P|223:181|139:171,1,90.0000034332277,4|0,1:1|0:0,0:0:0:0:
170,47,253897,5,0,1:0:0:0:
295,96,254054,1,2,3:2:0:0:
189,180,254212,1,0,3:0:0:0:
253,23,254370,1,0,3:0:0:0:
193,184,254528,1,0,1:0:0:0:
261,31,254686,1,2,3:2:0:0:
359,166,254844,1,0,3:0:0:0:
261,31,255002,1,0,3:0:0:0:
166,206,255160,6,0,P|127:185|95:119,1,90.0000034332277,4|0,3:1|3:0,0:0:0:0:
188,298,255475,1,0,3:0:0:0:
188,298,255633,2,0,P|227:277|259:211,1,90.0000034332277,4|0,1:2|3:0,0:0:0:0:
256,48,255949,1,0,3:0:0:0:
336,192,256107,2,0,L|456:192,1,90.0000034332277,4|0,1:1|0:0,0:0:0:0:
138,191,256423,5,0,3:0:0:0:
178,241,256528,1,0,1:0:0:0:
204,184,256633,1,0,1:0:0:0:
114,174,256739,5,0,1:0:0:0:
137,226,256844,1,0,1:0:0:0:
169,181,256949,1,0,1:0:0:0:
97,153,257054,5,8,0:3:0:0:
104,203,257160,1,8,0:3:0:0:
143,172,257265,1,8,0:3:0:0:
90,130,257370,5,4,3:3:0:0:
84,174,257475,1,4,3:3:0:0:
125,156,257581,1,4,3:3:0:0:
78,108,257686,5,4,3:2:0:0:
256,192,257765,12,0,265265,0:0:0:0:
