osu file format v14

[General]
AudioFilename: audio.mp3
AudioLeadIn: 0
PreviewTime: 189565
Countdown: 0
SampleSet: Soft
StackLeniency: 0.7
Mode: 0
LetterboxInBreaks: 0
WidescreenStoryboard: 1

[Editor]
DistanceSpacing: 4
BeatDivisor: 4
GridSize: 32
TimelineZoom: 1.8

[Metadata]
Title:Clover Day's
TitleUnicode:Clover Day's
Artist:Marie
ArtistUnicode:真理絵
Creator:-Kirigiri
Version:Memory
Source:Clover Day's
Tags:affirmation eroge opening visual novel galgame full version ver. japanese female vocals MANYO Teratani Tomomi 寺谷知己 days video game rock jrock pop j-rock jpop j-pop op vn
BeatmapID:3083355
BeatmapSetID:1505255

[Difficulty]
HPDrainRate:5.7
CircleSize:4.2
OverallDifficulty:9
ApproachRate:9.3
SliderMultiplier:2
SliderTickRate:1

[Events]
//Background and Video events
0,0,"LMFAOOOOOOOOOOOOO.png",0,0
//Break Periods
2,191250,194444
//Storyboard Layer 0 (Background)
//Storyboard Layer 1 (Fail)
//Storyboard Layer 2 (Pass)
//Storyboard Layer 3 (Foreground)
//Storyboard Layer 4 (Overlay)
//Storyboard Sound Samples

[TimingPoints]
314,315.789473684211,4,2,3,30,1,0
1261,-153.846153846153,4,2,3,30,0,0
1498,-100,4,2,3,5,0,0
1576,-200,4,2,3,20,0,0
3471,-133.333333333333,4,2,3,20,0,0
3787,-100,4,2,3,27,0,0
4419,-133.333333333333,4,2,3,30,0,0
5050,-133.333333333333,4,2,3,30,0,0
5366,-200,4,2,3,30,0,0
6629,-142.857142857143,4,2,3,35,0,0
11050,-133.333333333333,4,2,1,50,0,0
11366,-125,4,2,1,70,0,0
11682,-83.3333333333333,4,2,1,70,0,0
19261,-125,4,2,1,70,0,0
21471,-166.666666666667,4,2,1,70,0,0
21787,-166.666666666667,4,2,3,45,0,0
41366,-142.857142857143,4,2,3,45,0,0
41682,-222.222222222221,4,2,3,45,0,0
41998,-125,4,2,1,55,0,0
69787,-399.999999999997,4,2,1,55,0,0
70261,-285.714285714284,4,2,1,5,0,0
70419,-285.714285714284,4,2,1,55,0,0
71050,-222.222222222221,4,2,1,55,0,0
72313,-153.846153846153,4,2,1,55,0,0
75945,-285.714285714284,4,2,1,55,0,0
76024,-100,4,2,1,5,0,0
76576,-100,4,2,1,55,0,0
77050,-100,4,2,1,55,0,0
77366,-79.9999999999999,4,2,1,75,0,1
79813,-79.9999999999999,4,2,1,5,0,1
79892,-79.9999999999999,4,2,1,75,0,1
84629,-100,4,2,1,75,0,1
84945,-79.9999999999999,4,2,1,75,0,1
85419,-66.6666666666667,4,2,1,75,0,1
86050,-133.333333333333,4,2,1,75,0,1
86524,-66.6666666666667,4,2,1,75,0,1
87471,-80,4,2,1,75,0,1
96314,-74.0740740740741,4,2,1,75,0,1
97577,-222.222222222221,4,2,1,75,0,0
98208,-222.222222222221,4,2,3,75,0,0
99471,-222.222222222221,4,2,1,75,0,0
100103,-181.818181818181,4,2,1,75,0,0
101366,-133.333333333333,4,2,1,75,0,0
102629,-86.9565217391304,4,2,1,75,0,0
106340,-86.9565217391304,4,2,1,5,0,0
106419,-86.9565217391304,4,2,1,75,0,0
111156,-117.647058823529,4,2,1,75,0,0
112419,-222.222222222221,4,2,1,75,0,0
112735,-117.64705882353,4,2,1,55,0,0
132945,-166.666666666667,4,2,1,55,0,0
146682,-222.222222222221,4,2,1,55,0,0
146761,-133.333333333333,4,2,1,5,0,0
146840,-153.846153846153,4,2,1,55,0,0
148103,-79.9999999999999,4,2,1,75,0,1
150550,-79.9999999999999,4,2,1,5,0,1
150629,-79.9999999999999,4,2,1,75,0,1
155366,-100,4,2,1,75,0,1
155682,-79.9999999999999,4,2,1,75,0,1
156156,-66.6666666666667,4,2,1,75,0,1
156787,-133.333333333333,4,2,1,75,0,1
157261,-66.6666666666667,4,2,1,75,0,1
158208,-80,4,2,1,75,0,1
168314,-133.333333333333,4,2,1,50,0,0
178419,-222.222222222221,4,2,1,50,0,0
191366,-222.222222222221,4,2,3,40,0,0
194998,-222.222222222221,4,2,3,40,0,0
195471,-222.222222222221,4,2,3,50,0,0
196103,-222.222222222221,4,2,1,65,0,0
198629,-133.333333333333,4,2,1,65,0,0
199103,-83.3333333333333,4,2,1,65,0,0
199735,-181.818181818181,4,2,1,65,0,0
200208,-66.6666666666667,4,2,1,65,0,0
200840,-133.333333333333,4,2,1,65,0,0
201156,-76.9230769230769,4,2,1,75,0,1
206129,-76.9230769230769,4,2,1,75,0,1
206208,-76.9230769230769,4,2,1,75,0,1
210471,-133.333333333333,4,2,1,75,0,1
211735,-80,4,2,1,75,0,1
218524,-166.666666666667,4,2,1,75,0,1
218840,-71.4285714285714,4,2,1,75,0,1
219314,-100,4,2,1,75,0,1
219945,-133.333333333333,4,2,1,75,0,1
220419,-66.6666666666667,4,2,1,75,0,1
221366,-74.0740740740741,4,2,1,75,0,1
226419,-55.5555555555556,4,2,1,75,0,1
227682,-100,4,2,1,75,0,1
227998,-55.5555555555556,4,2,1,75,0,1
228945,-45.4545454545455,4,2,1,75,0,1
230208,-100,4,2,1,75,0,1
231471,-333.333333333333,4,2,3,60,0,0
232103,-166.666666666667,4,2,3,60,0,0
232734,-333.333333333333,4,2,3,60,0,0
233524,-333.333333333333,4,2,1,60,0,0
236366,-400,4,2,1,60,0,0
237392,-400,4,2,1,5,0,0
237471,315.789473684211,4,2,1,80,1,0
237471,-74.0740740740741,4,2,1,80,0,1
238418,-133.333333333333,4,2,1,80,0,1
238734,-74.0740740740741,4,2,1,80,0,1
243471,-133.333333333333,4,2,1,80,0,1
243786,-74.0740740740741,4,2,1,80,0,1
248523,-133.333333333333,4,2,1,80,0,1
249155,-66.6666666666667,4,2,1,80,0,1
251365,319.148936170213,4,2,1,80,1,1
252641,314.13612565445,4,2,1,80,1,1
252641,-74.0740740740741,4,2,1,80,0,1
253897,315.789473684211,4,2,1,80,1,1
255160,-66.6666666666667,4,2,1,80,0,1
257686,-133.333333333333,4,2,1,80,0,0
258949,-66.6666666666667,4,2,1,70,0,0
260212,-66.6666666666667,4,2,1,65,0,0
261475,-66.6666666666667,4,2,1,50,0,0
262739,-66.6666666666667,4,2,1,35,0,0
264002,-66.6666666666667,4,2,1,20,0,0
265265,-66.6666666666667,4,2,1,5,0,0

[Colours]
Combo1 : 183,255,111
Combo2 : 255,255,174
Combo3 : 179,255,255
Combo4 : 0,128,192

[HitObjects]
416,29,629,5,0,0:2:0:0:
424,41,945,1,0,0:2:0:0:
354,101,1103,1,0,0:2:0:0:
261,80,1261,2,0,P|263:128|286:170,1,97.4999955368044,0|0,0:2|0:2,0:0:0:0:
303,185,1577,6,0,B|248:165|202:193|215:214|163:238|115:214,1,200,2|2,0:2|0:2,0:0:0:0:
105,206,2524,1,0,0:0:0:0:
10,153,2682,6,0,P|3:202|12:251,1,100,2|0,0:2|0:2,0:0:0:0:
59,346,3314,1,0,0:0:0:0:
59,346,3471,2,0,P|96:347|125:321,1,75.0000028610231,2|0,0:2|0:2,0:0:0:0:
128,307,3787,5,2,0:2:0:0:
118,288,4103,2,0,P|71:283|44:329,1,100,2|0,0:0|0:1,0:0:0:0:
214,294,4419,6,0,P|191:222|153:157,1,150.000005722046,0|2,0:2|0:2,0:0:0:0:
117,28,5050,2,0,P|81:32|63:63,1,75.0000028610231,0|2,0:2|0:2,0:0:0:0:
293,126,5366,6,0,P|241:128|233:76,1,100,0|0,0:2|0:2,0:0:0:0:
459,182,5998,2,0,P|413:178|394:221,1,100,2|0,0:2|0:2,0:0:0:0:
277,327,6629,6,0,P|312:338|348:330,1,69.9999978637696,2|0,0:2|0:2,0:0:0:0:
368,159,6945,2,0,P|375:196|398:225,1,69.9999978637696,0|0,0:2|0:2,0:0:0:0:
470,80,7261,1,2,0:2:0:0:
470,80,7577,1,0,0:2:0:0:
381,0,7735,2,0,P|481:36|499:137,1,209.999993591309,2|0,0:2|0:2,0:0:0:0:
413,106,8366,5,2,0:2:0:0:
413,106,8445,1,2,0:2:0:0:
413,106,8524,2,0,P|355:150|338:212,1,139.999995727539,2|0,0:2|0:2,0:0:0:0:
447,337,8998,5,2,0:0:0:0:
447,337,9077,1,2,0:2:0:0:
447,337,9156,2,0,P|468:270|439:204,1,139.999995727539,2|0,0:2|0:2,0:0:0:0:
331,323,9787,5,2,0:2:0:0:
414,149,9945,1,2,0:2:0:0:
447,337,10103,1,2,0:2:0:0:
309,205,10261,1,2,0:2:0:0:
498,231,10735,5,2,0:2:0:0:
405,175,11050,2,0,L|397:211,3,37.5000014305115,8|8|8|8,3:0|0:3|0:3|0:3,0:0:0:0:
313,144,11366,2,0,L|306:116,6,20,8|0|8|0|8|0|8,0:3|0:0|0:3|0:0|0:3|0:0|0:3,0:0:0:0:
233,53,11682,6,0,L|184:287,1,239.999992675781,4|8,3:0|0:0,0:0:0:0:
313,144,12156,1,4,3:0:0:0:
108,364,12314,2,0,P|83:311|93:253,1,119.999996337891,0|8,0:0|0:0,0:0:0:0:
410,129,12629,2,0,P|352:227|238:218,1,239.999992675781,4|0,3:0|0:0,0:0:0:0:
237,36,13103,5,8,0:1:0:0:
181,295,13261,1,8,0:1:0:0:
26,236,13419,5,8,0:0:0:0:
3,271,13498,1,8,0:0:0:0:
7,312,13577,1,8,0:0:0:0:
153,137,13735,5,8,0:0:0:0:
148,108,13814,1,8,0:0:0:0:
138,79,13892,1,8,0:0:0:0:
123,54,13971,1,8,0:0:0:0:
102,32,14050,1,8,0:0:0:0:
78,14,14129,1,0,0:0:0:0:
50,2,14208,5,4,3:0:0:0:
136,82,14366,1,0,0:0:0:0:
249,45,14524,1,8,0:0:0:0:
171,206,14682,2,0,P|147:262|137:321,1,119.999996337891,4|0,3:1|0:0,0:0:0:0:
291,187,14998,1,0,3:0:0:0:
337,88,15156,2,0,B|311:69|273:68|273:68|291:128|297:177,1,179.999994506836,12|0,0:0|0:0,0:0:0:0:
287,198,15471,5,8,0:0:0:0:
419,249,15629,1,0,3:0:0:0:
512,145,15787,1,8,0:1:0:0:
355,49,15945,1,8,0:1:0:0:
345,54,16103,6,0,L|290:78,1,59.9999981689454,8|8,0:1|0:1,0:0:0:0:
433,274,16261,2,0,L|487:298,1,59.9999981689454,8|8,0:1|0:1,0:0:0:0:
498,160,16419,6,0,B|400:142|425:214|326:191,1,179.999994506836,12|0,0:0|0:0,0:0:0:0:
256,230,16735,6,0,P|251:171|284:122,1,119.999996337891,4|0,3:0|0:0,0:0:0:0:
420,75,17050,1,0,3:0:0:0:
481,250,17208,2,0,P|486:309|453:358,1,119.999996337891,4|0,0:1|0:0,0:0:0:0:
256,230,17524,1,0,3:0:0:0:
358,32,17682,2,0,P|437:74|486:149,1,179.999994506836,12|0,0:0|0:0,0:0:0:0:
482,169,17998,5,2,0:0:0:0:
313,206,18156,5,8,0:0:0:0:
278,229,18235,1,8,0:0:0:0:
270,270,18314,2,0,L|300:383,2,79.9999975585938,8|8|8,0:0|0:0|0:0,0:0:0:0:
193,166,18629,6,0,L|172:243,1,79.9999975585938,8|8,0:3|0:3,0:0:0:0:
68,339,18840,5,8,0:1:0:0:
38,271,18945,5,8,0:1:0:0:
78,206,19050,5,8,0:1:0:0:
21,160,19156,5,8,0:1:0:0:
86,96,19261,6,0,B|28:88|28:88|1:109|5:142,1,120,12|0,3:0|0:0,0:0:0:0:
5,141,19577,1,0,3:0:0:0:
304,188,19735,5,4,0:1:0:0:
294,192,20050,1,0,3:0:0:0:
214,291,20208,6,0,B|199:131,1,160,4|0,0:0|0:0,0:0:0:0:
144,361,20682,5,8,0:1:0:0:
237,32,21037,1,8,0:1:0:0:
119,131,21353,5,8,0:1:0:0:
199,280,21510,1,8,0:1:0:0:
299,178,21787,6,0,L|287:255,1,59.9999981689454,2|0,0:0|0:0,0:0:0:0:
393,144,22103,1,0,0:0:0:0:
393,144,22261,1,0,0:0:0:0:
306,82,22419,2,0,P|249:96|210:141,1,119.999996337891,0|0,0:2|0:0,0:0:0:0:
92,203,22892,2,0,P|131:247|189:262,1,119.999996337891
59,110,23366,2,0,P|33:124|5:135,1,59.9999981689454
160,10,23682,2,0,L|132:153,1,119.999996337891,8|0,0:0|0:0,0:0:0:0:
244,162,24156,5,0,0:0:0:0:
244,162,24235,1,0,0:0:0:0:
244,162,24314,2,0,P|282:151|317:136,1,59.9999981689454,2|0,0:0|0:0,0:0:0:0:
170,249,24629,2,0,P|132:238|97:223,1,59.9999981689454
272,245,24945,2,0,L|255:364,1,119.999996337891
187,326,25419,1,0,0:0:0:0:
286,233,25577,2,0,P|332:240|351:248,1,59.9999981689454,2|0,0:0|0:0,0:0:0:0:
417,288,25892,1,2,0:0:0:0:
306,41,26208,2,0,L|280:171,1,119.999996337891,8|0,0:2|0:0,0:0:0:0:
446,246,26682,5,0,0:0:0:0:
446,246,26761,1,0,0:0:0:0:
446,246,26840,2,0,P|425:223|398:208,1,59.9999981689454,2|0,0:0|0:0,0:0:0:0:
381,68,27156,1,0,0:0:0:0:
464,26,27314,2,0,P|470:93|444:147,1,119.999996337891,2|0,0:0|0:0,0:0:0:0:
452,18,27787,1,0,0:0:0:0:
431,220,27945,2,0,P|489:237|511:186,1,119.999996337891
449,103,28419,1,2,0:0:0:0:
364,98,28577,1,2,0:0:0:0:
311,163,28735,1,10,0:2:0:0:
326,245,28892,1,2,0:0:0:0:
499,233,29208,5,0,0:0:0:0:
499,233,29287,1,0,0:0:0:0:
499,233,29366,2,0,P|412:243|393:278,1,119.999996337891,2|0,0:0|0:0,0:0:0:0:
394,279,29840,1,0,0:0:0:0:
495,140,29998,2,0,P|476:110|446:95,1,59.9999981689454,0|0,0:2|0:0,0:0:0:0:
320,158,30314,1,2,0:0:0:0:
296,296,30629,6,0,L|289:236,1,59.9999981689454,2|0,0:0|0:0,0:0:0:0:
277,214,30945,1,0,0:0:0:0:
175,322,31103,2,0,L|188:202,1,119.999996337891,2|0,0:0|0:0,0:0:0:0:
204,88,31577,2,0,P|185:111|161:129,1,59.9999981689454
45,101,31814,5,0,0:0:0:0:
45,101,31892,2,0,P|92:164|98:223,1,119.999996337891,2|0,0:0|0:0,0:0:0:0:
26,258,32366,1,2,0:0:0:0:
21,183,32524,1,0,0:2:0:0:
67,126,32682,1,0,0:0:0:0:
138,135,32840,2,0,L|220:144,1,59.9999981689454,2|0,0:0|0:0,0:0:0:0:
258,297,33156,6,0,P|205:268|180:215,1,119.999996337891,2|0,0:0|0:0,0:0:0:0:
283,109,33629,2,0,L|272:194,1,59.9999981689454,2|8,0:0|0:0,0:0:0:0:
356,318,33945,2,0,L|343:222,1,89.9999972534181,2|0,0:0|0:0,0:0:0:0:
344,220,34261,1,0,0:0:0:0:
414,143,34419,5,2,0:0:0:0:
442,214,34577,1,2,0:0:0:0:
408,284,34735,1,2,0:0:0:0:
331,298,34892,2,0,P|304:284|282:264,1,59.9999981689454,0|0,0:0|0:2,0:0:0:0:
219,157,35208,1,2,0:0:0:0:
244,83,35366,1,2,0:0:0:0:
194,22,35524,1,0,0:0:0:0:
117,36,35682,6,0,L|-17:61,1,119.999996337891,2|0,0:0|0:0,0:0:0:0:
133,178,36156,2,0,L|251:201,1,119.999996337891,2|2,0:0|0:0,0:0:0:0:
42,183,36629,2,0,P|44:212|61:240,1,59.9999981689454
185,292,36866,5,0,0:0:0:0:
185,292,36945,2,0,P|155:295|127:312,1,59.9999981689454,2|0,0:0|0:0,0:0:0:0:
262,331,37261,1,0,0:0:0:0:
271,319,37419,2,0,L|330:325,1,59.9999981689454,2|0,0:0|0:0,0:0:0:0:
451,345,37735,1,2,0:0:0:0:
428,244,37892,2,0,P|418:288|420:334,1,89.9999972534181,2|0,0:0|0:0,0:0:0:0:
512,252,38208,5,2,0:0:0:0:
439,201,38366,1,0,0:0:0:0:
358,238,38524,1,0,0:0:0:0:
348,322,38682,2,0,P|318:316|295:298,1,59.9999981689454,2|8,0:0|0:0,0:0:0:0:
168,284,38998,2,0,P|207:239|264:223,1,119.999996337891,2|0,0:0|0:0,0:0:0:0:
366,149,39392,5,0,0:0:0:0:
366,149,39471,2,0,L|354:212,2,59.9999981689454,2|0|0,0:0|0:0|0:0,0:0:0:0:
292,94,39945,1,0,0:0:0:0:
435,238,40103,1,2,0:2:0:0:
405,303,40261,1,0,0:0:0:0:
337,328,40419,1,0,0:0:0:0:
275,291,40577,1,0,0:0:0:0:
275,291,40656,1,0,0:0:0:0:
275,291,40735,2,0,P|263:233|268:217,1,59.9999981689454,2|0,0:0|0:0,0:0:0:0:
355,165,41050,2,0,P|366:137|367:107,1,59.9999981689454,0|2,0:0|0:0,0:0:0:0:
203,63,41366,5,8,0:2:0:0:
339,253,41524,1,2,0:0:0:0:
288,123,41682,6,0,P|260:139|237:180,1,67.4999979400635,2|0,0:0|0:0,0:0:0:0:
150,219,41998,2,0,L|325:195,1,160,2|2,0:1|0:0,0:0:0:0:
58,266,42471,2,0,P|61:305|83:339,1,80,8|2,0:0|0:0,0:0:0:0:
134,194,42787,1,0,0:0:0:0:
54,118,42945,1,2,3:0:0:0:
158,78,43103,6,0,P|72:91|0:97,1,160
237,180,43577,2,0,P|195:173|144:169,1,80,2|0,0:0|0:0,0:0:0:0:
345,73,43892,2,0,L|325:239,1,160,10|2,0:3|3:0,0:0:0:0:
243,73,44366,1,0,0:0:0:0:
355,324,44524,6,0,P|430:298|509:290,1,160,2|2,3:0|0:0,0:0:0:0:
268,351,44998,2,0,P|254:315|345:247,1,160,8|0,0:0|0:0,0:0:0:0:
199,220,45471,5,2,3:0:0:0:
314,167,45629,1,0,0:0:0:0:
241,49,45787,2,0,L|223:144,1,80,2|0,0:0|0:0,0:0:0:0:
348,267,46103,2,0,L|330:172,1,80,2|0,0:0|0:0,0:0:0:0:
236,30,46419,1,10,0:1:0:0:
215,145,46577,1,0,0:0:0:0:
362,272,46735,2,0,L|344:177,1,80,2|0,0:0|0:0,0:0:0:0:
345,36,47050,5,2,3:0:0:0:
412,60,47208,1,2,0:0:0:0:
458,115,47366,1,2,0:0:0:0:
466,228,47524,2,0,P|471:148|505:76,1,160,8|0,0:0|0:0,0:0:0:0:
478,244,47998,1,2,3:0:0:0:
360,180,48156,2,0,P|281:177|206:203,1,160
429,78,48629,2,0,P|361:38|283:23,1,160,2|10,0:0|0:3,0:0:0:0:
145,98,49261,5,2,3:0:0:0:
141,104,49577,2,0,P|136:185|127:291,1,160,2|2,3:0|0:0,0:0:0:0:
223,174,50050,1,10,0:0:0:0:
210,54,50208,2,0,P|181:26|142:19,1,80,2|0,0:0|0:0,0:0:0:0:
177,212,50524,1,2,3:0:0:0:
135,153,50840,5,2,0:0:0:0:
66,176,50998,1,0,0:0:0:0:
66,248,51156,1,2,3:0:0:0:
135,270,51314,1,0,0:0:0:0:
177,212,51471,5,10,0:0:0:0:
77,104,51629,1,8,0:0:0:0:
34,328,51787,2,0,P|94:316|139:280,1,120,2|0,0:0|0:0,0:0:0:0:
309,280,52103,6,0,P|253:243|200:139,1,160,4|2,0:1|0:0,0:0:0:0:
153,64,52577,1,8,0:0:0:0:
162,73,52735,2,0,P|201:70|237:52,1,80,2|0,0:0|0:0,0:0:0:0:
67,37,53050,1,2,3:0:0:0:
0,118,53208,6,0,P|-8:196|29:267,1,160
269,213,53682,2,0,P|190:204|120:240,1,160,2|10,0:0|0:3,0:0:0:0:
320,338,54314,5,2,3:0:0:0:
434,301,54471,1,0,0:0:0:0:
434,301,54550,1,0,0:0:0:0:
434,301,54629,2,0,P|446:220|433:135,1,160,2|2,3:0|0:0,0:0:0:0:
389,67,55103,1,8,0:0:0:0:
499,86,55261,6,0,P|457:37|395:48,1,120,2|0,0:0|0:0,0:0:0:0:
340,130,55577,2,0,P|386:97|406:49,1,80,2|0,3:0|0:0,0:0:0:0:
238,54,55892,2,0,P|248:133|255:212,1,160,2|2,0:0|0:0,0:0:0:0:
179,287,56366,1,0,0:0:0:0:
351,70,56524,6,0,L|511:54,1,160,10|2,0:1|0:0,0:0:0:0:
400,148,56998,1,0,0:0:0:0:
279,8,57156,6,0,P|248:81|237:160,1,160,2|2,3:0|0:0,0:0:0:0:
394,263,57629,2,0,P|335:238|303:233,1,80,8|2,0:0|0:0,0:0:0:0:
206,326,57945,1,0,0:0:0:0:
244,242,58103,1,2,3:0:0:0:
325,363,58261,1,0,0:0:0:0:
445,155,58419,2,0,P|407:164|369:177,1,80,2|0,0:0|0:0,0:0:0:0:
145,61,58735,2,0,P|223:81|299:103,1,160,2|10,0:0|0:3,0:0:0:0:
213,169,59208,1,0,0:0:0:0:
397,78,59366,5,2,3:0:0:0:
470,151,59524,1,0,0:0:0:0:
420,249,59682,2,0,P|358:260|264:286,1,160,2|2,3:0|0:0,0:0:0:0:
442,356,60156,1,10,0:0:0:0:
507,221,60314,5,2,0:0:0:0:
512,213,60629,5,2,3:0:0:0:
476,106,60787,5,0,0:0:0:0:
476,106,60866,1,0,0:0:0:0:
476,106,60945,2,0,P|435:60|328:-2,1,160,2|2,0:0|3:0,0:0:0:0:
244,215,61419,5,8,0:3:0:0:
244,215,61498,1,8,0:3:0:0:
244,215,61577,1,8,0:3:0:0:
323,154,61735,1,8,0:1:0:0:
419,163,61892,1,8,0:1:0:0:
374,340,62208,5,4,0:0:0:0:
244,346,63471,5,2,0:0:0:0:
127,268,64735,5,2,0:0:0:0:
151,92,65998,5,2,0:0:0:0:
343,95,66945,5,0,0:0:0:0:
343,95,67103,5,4,0:1:0:0:
295,353,67261,1,4,0:1:0:0:
295,353,67892,5,0,3:0:0:0:
117,278,68524,5,2,0:0:0:0:
134,86,69156,5,0,3:0:0:0:
322,43,69629,5,0,0:0:0:0:
322,43,69708,1,0,0:0:0:0:
322,43,69787,2,0,P|370:74|388:93,1,75,2|0,0:0|0:0,0:0:0:0:
485,218,70419,5,0,3:0:0:0:
483,206,71050,6,0,L|471:80,2,123.74999622345,2|2|2,0:0|0:0|0:0,0:0:0:0:
491,291,71998,6,0,L|432:277,1,44.999998626709
353,274,72235,5,0,0:0:0:0:
353,274,72314,2,0,P|362:317|386:355,1,64.9999970245363,2|0,0:0|0:0,0:0:0:0:
359,185,72629,1,0,0:0:0:0:
283,196,72787,2,0,P|247:216|219:245,1,64.9999970245363,0|0,0:0|3:0,0:0:0:0:
305,104,73103,2,0,P|229:106|157:131,1,129.999994049073
27,156,73577,6,0,P|53:192|62:222,1,64.9999970245363,2|0,0:0|0:0,0:0:0:0:
55,287,73892,1,0,0:0:0:0:
155,40,74208,2,0,P|128:75|125:117,1,64.9999970245363,0|0,3:0|0:0,0:0:0:0:
18,170,74524,2,0,P|45:202|56:245,1,64.9999970245363
153,312,74761,1,0,0:0:0:0:
153,312,74840,2,0,P|86:312|23:337,1,129.999994049073,2|0,0:0|0:0,0:0:0:0:
160,317,75471,5,0,3:0:0:0:
206,71,75787,5,8,0:0:0:0:
262,341,75945,2,0,L|266:358,1,17.4999994659424,2|0,3:0|0:0,0:0:0:0:
166,116,76577,5,8,0:0:0:0:
195,120,76656,1,8,0:0:0:0:
221,133,76735,1,8,0:0:0:0:
300,215,76892,1,8,0:0:0:0:
161,267,77050,2,0,P|225:306|264:369,1,150,0|0,3:0|0:0,0:0:0:0:
92,203,77366,6,0,P|180:166|237:162,1,125,6|0,3:2|0:2,0:0:0:0:
0,241,77682,2,0,P|33:126|118:15,1,250,6|0,0:2|3:2,0:0:0:0:
327,101,78156,1,0,3:2:0:0:
327,101,78235,1,0,3:0:0:0:
327,101,78314,1,8,0:0:0:0:
120,186,78471,6,0,B|153:132|228:107|228:107|243:172|293:195,1,250,2|0,3:2|3:2,0:0:0:0:
415,33,78945,2,0,P|357:48|327:101,1,125,10|0,0:2|0:2,0:0:0:0:
396,377,79261,1,2,3:2:0:0:
496,203,79419,1,0,3:2:0:0:
408,115,79577,2,0,P|391:211|381:300,1,187.5,10|0,0:2|0:2,0:0:0:0:
385,312,79892,6,0,B|394:289|420:265|420:265|327:251|209:287,1,250,6|10,3:2|0:2,0:0:0:0:
319,363,80366,1,0,0:2:0:0:
497,283,80524,2,0,P|490:221|438:187,1,125,2|0,3:2|3:2,0:0:0:0:
219,124,80840,1,10,0:2:0:0:
334,0,80998,6,0,B|323:128|323:128|319:132|319:132|307:247,1,250,4|0,3:2|3:2,0:0:0:0:
124,47,81471,2,0,P|184:59|224:105,1,125,10|0,0:2|0:2,0:0:0:0:
58,294,81787,5,2,3:2:0:0:
140,138,81945,1,0,3:2:0:0:
321,88,82103,1,10,0:2:0:0:
338,114,82182,1,8,0:2:0:0:
346,144,82261,1,8,0:2:0:0:
344,175,82340,1,8,0:2:0:0:
331,204,82419,2,0,L|207:221,1,125,14|0,3:2|0:2,0:0:0:0:
0,84,82735,6,0,L|247:116,1,250,14|2,0:2|3:2,0:0:0:0:
22,173,83208,1,0,3:2:0:0:
244,33,83366,1,10,0:2:0:0:
330,190,83524,1,0,3:2:0:0:
275,355,83682,6,0,P|225:319|209:260,1,125,2|0,0:2|3:2,0:0:0:0:
485,27,83998,2,0,P|452:146|358:225,1,250,10|2,0:2|3:2,0:0:0:0:
139,274,84471,1,0,3:2:0:0:
329,248,84629,2,0,P|356:283|376:356,1,100,10|0,0:2|0:2,0:0:0:0:
337,136,84945,6,0,P|447:163|510:230,1,187.5,4|0,3:2|0:2,0:0:0:0:
499,224,85261,1,8,0:2:0:0:
232,94,85419,6,0,P|306:28|364:9,1,150.000005722046,4|0,3:2|0:2,0:0:0:0:
329,248,85735,1,8,0:2:0:0:
329,248,85892,1,8,0:2:0:0:
160,180,86050,6,0,P|85:109|64:42,1,150.000005722046,4|0,3:2|3:2,0:0:0:0:
219,275,86524,6,0,P|169:341|103:364,1,150.000005722046,8|0,0:2|0:2,0:0:0:0:
0,357,86761,1,8,0:2:0:0:
0,357,86840,1,8,0:2:0:0:
44,205,86998,1,0,3:2:0:0:
207,172,87156,1,8,0:1:0:0:
299,241,87314,1,8,0:1:0:0:
407,236,87471,6,0,P|364:167|294:156,1,125,6|0,3:2|0:2,0:0:0:0:
472,321,87787,2,0,P|512:194|477:76,1,250,14|2,0:2|3:2,0:0:0:0:
318,238,88261,1,0,3:2:0:0:
163,296,88419,1,10,0:2:0:0:
82,198,88577,6,0,B|159:203|188:262|164:272|194:341|269:339,1,250,0|0,3:2|3:2,0:0:0:0:
507,60,89050,2,0,P|445:80|398:122,1,125,10|0,0:2|0:2,0:0:0:0:
263,255,89366,1,2,3:2:0:0:
378,231,89524,1,0,3:2:0:0:
295,133,89682,2,0,P|240:98|182:81,1,125,10|0,0:2|0:2,0:0:0:0:
21,291,89998,6,0,P|71:243|210:202,1,187.5,6|0,3:2|0:2,0:0:0:0:
188,216,90314,1,10,0:2:0:0:
45,151,90471,1,0,0:2:0:0:
228,40,90629,2,0,P|268:101|274:175,1,125,6|0,3:2|3:2,0:0:0:0:
238,326,90945,1,10,0:2:0:0:
509,75,91103,2,0,P|432:217|338:289,1,250,4|0,3:2|3:2,0:0:0:0:
236,33,91577,2,0,P|270:87|288:148,1,125,10|0,0:2|0:2,0:0:0:0:
233,359,91892,1,8,0:2:0:0:
96,253,92050,5,8,0:0:0:0:
98,226,92128,1,8,0:0:0:0:
103,201,92207,1,8,0:0:0:0:
110,175,92286,1,8,0:0:0:0:
119,151,92365,1,8,0:0:0:0:
130,128,92444,1,8,0:0:0:0:
144,105,92524,2,0,P|190:176|238:195,1,125,4|0,3:2|0:2,0:0:0:0:
511,106,92840,5,14,0:2:0:0:
499,142,92998,1,0,3:2:0:0:
398,35,93156,5,10,0:2:0:0:
428,208,93314,1,0,3:2:0:0:
172,79,93471,5,10,0:2:0:0:
359,261,93629,1,0,3:2:0:0:
123,216,93787,6,0,L|-12:237,1,125,10|0,0:2|0:2,0:0:0:0:
251,98,94103,5,10,0:2:0:0:
80,366,94261,1,0,3:2:0:0:
41,136,94419,5,10,0:2:0:0:
293,278,94577,1,0,3:2:0:0:
219,44,94735,5,10,0:2:0:0:
159,262,94892,1,0,3:2:0:0:
0,36,95050,5,14,0:2:0:0:
0,36,95366,5,10,0:2:0:0:
239,112,95524,1,0,3:2:0:0:
47,203,95682,5,10,0:2:0:0:
223,137,95840,1,0,3:2:0:0:
118,323,95998,6,0,P|61:298|0:302,1,125,10|2,0:2|0:2,0:0:0:0:
207,241,96314,2,0,P|152:119|42:46,1,270.000001029968,4|0,0:2|0:2,0:0:0:0:
206,326,96787,5,10,0:1:0:0:
319,365,96945,1,8,0:1:0:0:
424,267,97103,1,8,0:1:0:0:
366,114,97261,1,8,0:1:0:0:
187,75,97419,1,8,0:1:0:0:
32,209,97577,1,4,0:1:0:0:
78,108,98208,5,2,0:0:0:0:
239,183,98840,1,2,0:0:0:0:
177,342,99471,1,2,0:0:0:0:
63,317,99629,5,0,3:0:0:0:
83,214,99787,2,0,P|95:232|100:254,1,44.999998626709,8|2,0:0|0:0,0:0:0:0:
0,185,100024,1,2,0:0:0:0:
0,185,100103,6,0,P|-8:88|143:161,1,330.000010070801,6|8,3:0|0:0,0:0:0:0:
95,221,101208,1,8,0:1:0:0:
289,14,101366,6,0,P|270:99|290:249,1,225.000008583069,6|8,3:2|0:0,0:0:0:0:
285,234,101919,1,8,0:0:0:0:
285,234,101998,1,8,0:0:0:0:
360,126,102156,1,8,0:1:0:0:
181,93,102313,1,8,0:1:0:0:
181,93,102471,1,8,0:1:0:0:
334,323,102629,6,0,P|476:297|517:300,1,172.500003290176,4|0,3:0|0:0,0:0:0:0:
511,311,102945,1,8,0:0:0:0:
309,242,103103,2,0,P|256:256|244:309,1,115.000002193451,4|8,3:1|0:0,0:0:0:0:
420,370,103419,1,8,0:0:0:0:
427,173,103577,2,0,P|406:86|366:11,1,172.500003290176,4|0,3:0|0:0,0:0:0:0:
361,14,103892,1,8,0:0:0:0:
142,146,104050,6,0,P|167:162|193:171,1,57.5000010967255,2|0,3:0|0:0,0:0:0:0:
352,199,104208,1,0,0:0:0:0:
479,49,104366,1,0,3:0:0:0:
211,20,104524,5,8,0:0:0:0:
142,146,104682,1,8,0:1:0:0:
198,278,104840,1,8,0:1:0:0:
338,315,104998,1,8,0:0:0:0:
184,251,105156,6,0,P|126:252|74:294,2,115.000002193451,4|0|8,3:0|0:0|0:0,0:0:0:0:
260,132,105629,2,0,P|226:85|174:66,2,115.000002193451,4|0|8,3:1|0:0|0:0,0:0:0:0:
13,217,106103,2,0,P|-5:131|3:29,1,172.500003290176,4|0,3:0|0:0,0:0:0:0:
7,29,106419,5,8,0:0:0:0:
11,45,106497,1,8,0:0:0:0:
15,62,106576,1,8,0:0:0:0:
17,79,106655,1,8,0:0:0:0:
21,96,106734,1,8,0:0:0:0:
138,165,106892,5,8,0:0:0:0:
140,148,106971,1,8,0:0:0:0:
144,131,107050,1,8,0:1:0:0:
261,37,107208,5,8,0:1:0:0:
373,95,107366,5,8,0:0:0:0:
387,121,107444,1,8,0:0:0:0:
398,147,107523,1,8,0:0:0:0:
405,175,107602,1,8,0:0:0:0:
408,204,107681,5,4,3:0:0:0:
329,284,107840,1,0,0:0:0:0:
232,235,107998,1,0,3:0:0:0:
449,62,108156,5,4,0:1:0:0:
512,233,108314,1,0,0:0:0:0:
379,358,108471,1,0,3:0:0:0:
347,187,108629,6,0,P|422:227|450:312,1,172.500003290176,4|0,0:0|0:0,0:0:0:0:
435,322,108945,1,8,0:1:0:0:
289,355,109103,1,8,0:1:0:0:
171,204,109261,1,8,0:1:0:0:
325,47,109419,5,8,0:0:0:0:
325,47,109498,1,8,0:0:0:0:
325,47,109577,1,8,0:1:0:0:
247,140,109735,1,8,0:1:0:0:
306,254,109892,1,8,0:1:0:0:
442,67,110050,1,8,0:1:0:0:
282,15,110208,6,0,B|366:19|366:19|370:25|370:25|456:30,1,172.500003290176,4|0,3:0|0:0,0:0:0:0:
465,39,110524,2,0,P|458:66|441:93,1,57.5000010967255,8|0,0:0|0:0,0:0:0:0:
276,96,110682,6,0,P|334:160|365:240,1,172.500003290176,4|0,3:1|0:0,0:0:0:0:
365,240,110998,1,0,3:0:0:0:
353,366,111156,6,0,P|422:234|518:188,1,255.000004863739,4|0,3:0|0:0,0:0:0:0:
259,362,111787,5,8,0:3:0:0:
235,346,111865,1,8,0:3:0:0:
216,325,111944,1,8,0:3:0:0:
203,299,112023,1,8,0:3:0:0:
196,271,112102,1,8,0:3:0:0:
256,152,112261,1,8,0:1:0:0:
84,218,112419,6,0,P|104:191|132:170,1,67.4999979400635,8|0,0:1|0:0,0:0:0:0:
322,139,112735,6,0,P|265:101|261:-1,1,170.000003242493,4|2,3:0|0:1,0:0:0:0:
339,49,113208,1,8,0:0:0:0:
501,153,113366,5,10,0:1:0:0:
426,166,113524,1,8,0:1:0:0:
373,225,113682,1,2,3:1:0:0:
299,212,113840,1,0,0:0:0:0:
512,152,114156,5,0,3:0:0:0:
292,222,114471,5,8,0:0:0:0:
506,267,114787,5,0,3:0:0:0:
286,104,114945,1,10,0:0:0:0:
412,38,115103,5,0,0:0:0:0:
412,38,115182,1,0,0:0:0:0:
412,38,115261,2,0,P|404:76|405:126,1,85.0000016212464,2|0,3:0|0:0,0:0:0:0:
316,315,115577,2,0,P|316:217|297:121,1,170.000003242493,10|2,0:0|3:0,0:0:0:0:
230,234,116050,1,0,3:0:0:0:
398,307,116208,1,8,0:0:0:0:
512,199,116366,1,2,0:0:0:0:
512,199,116524,6,0,L|428:215,2,85.0000016212464,0|0|10,0:0|3:0|0:0,0:0:0:0:
461,102,116998,1,0,0:0:0:0:
461,102,117077,1,8,0:3:0:0:
461,102,117156,1,10,0:3:0:0:
332,143,117314,1,0,3:0:0:0:
275,252,117472,2,0,L|141:225,1,127.50000243187,10|0,0:0|0:0,0:0:0:0:
129,215,117787,5,6,3:0:0:0:
101,137,117945,1,0,0:0:0:0:
154,74,118103,1,2,0:0:0:0:
236,88,118261,1,8,0:0:0:0:
87,144,118419,5,8,0:1:0:0:
24,80,118577,1,8,0:1:0:0:
0,167,118735,1,2,3:0:0:0:
91,136,118892,1,0,0:0:0:0:
49,308,119208,5,0,3:0:0:0:
128,53,119524,5,8,0:0:0:0:
21,87,119840,5,0,3:0:0:0:
117,333,119998,1,10,0:0:0:0:
166,120,120156,5,0,0:0:0:0:
166,120,120235,1,0,0:0:0:0:
166,120,120314,2,0,P|144:158|13:178,1,170.000003242493,2|10,3:0|0:0,0:0:0:0:
73,108,120787,1,0,0:0:0:0:
137,275,120945,1,2,3:0:0:0:
137,275,121103,1,0,3:0:0:0:
26,190,121261,1,8,0:0:0:0:
202,0,121419,6,0,L|219:190,1,170.000003242493,4|0,0:1|3:0,0:0:0:0:
213,185,121892,1,8,0:0:0:0:
1,69,122050,1,0,0:0:0:0:
1,69,122129,1,8,0:0:0:0:
1,69,122208,1,10,3:0:0:0:
54,151,122366,1,0,3:0:0:0:
0,258,122524,2,0,P|-10:218|60:202,1,127.50000243187,10|0,0:0|0:0,0:0:0:0:
66,208,122840,6,0,P|52:242|101:374,1,170.000003242493,4|2,3:0|0:1,0:0:0:0:
184,301,123314,1,8,0:0:0:0:
246,131,123471,5,10,0:1:0:0:
148,104,123628,1,8,0:1:0:0:
158,185,123786,1,2,3:1:0:0:
248,38,123945,1,0,0:0:0:0:
73,81,124261,5,0,3:0:0:0:
327,168,124577,5,8,0:0:0:0:
69,195,124892,5,0,3:0:0:0:
333,23,125050,1,10,0:0:0:0:
226,106,125208,5,0,0:0:0:0:
226,106,125287,1,0,0:0:0:0:
226,106,125366,2,0,P|234:52|258:25,1,85.0000016212464,2|0,3:0|0:0,0:0:0:0:
300,195,125682,1,10,0:0:0:0:
361,17,125998,5,2,3:0:0:0:
434,3,126156,1,0,3:0:0:0:
484,57,126314,1,8,0:0:0:0:
430,159,126471,2,0,P|441:119|461:81,1,85.0000016212464,2|0,0:0|0:0,0:0:0:0:
512,190,126787,1,0,3:0:0:0:
512,349,126945,2,0,P|496:299|476:264,1,85.0000016212464,10|0,0:0|0:0,0:0:0:0:
476,266,127182,1,8,0:3:0:0:
476,266,127261,1,10,0:3:0:0:
397,177,127419,1,0,3:0:0:0:
285,155,127577,2,0,L|196:139,1,85.0000016212464,10|0,0:0|0:0,0:0:0:0:
167,46,127814,5,0,0:0:0:0:
167,46,127892,2,0,L|-13:76,1,170.000003242493,6|2,3:0|0:0,0:0:0:0:
114,160,128366,5,8,0:0:0:0:
209,186,128524,1,8,0:1:0:0:
284,122,128682,1,8,0:1:0:0:
264,27,128840,1,2,3:0:0:0:
124,34,129156,6,0,P|140:71|175:94,1,85.0000016212464,2|0,0:0|3:0,0:0:0:0:
196,89,129471,1,2,0:0:0:0:
147,253,129629,1,8,0:0:0:0:
290,233,129945,5,0,3:0:0:0:
196,89,130103,1,10,0:0:0:0:
147,253,130261,5,0,0:0:0:0:
147,253,130340,1,0,0:0:0:0:
147,253,130419,2,0,P|176:290|220:303,1,85.0000016212464,2|0,3:0|0:0,0:0:0:0:
336,185,130735,2,0,P|296:205|271:241,1,85.0000016212464,10|0,0:0|0:0,0:0:0:0:
399,338,131050,1,2,3:0:0:0:
399,338,131208,1,0,3:0:0:0:
444,256,131366,1,8,0:0:0:0:
315,99,131524,6,0,L|146:127,1,170.000003242493,4|0,0:1|3:0,0:0:0:0:
267,225,131998,2,0,L|359:241,1,85.0000016212464,12|0,0:0|0:0,0:0:0:0:
351,240,132235,1,8,0:0:0:0:
351,240,132314,1,10,3:0:0:0:
505,187,132471,1,0,3:0:0:0:
391,28,132629,1,10,0:1:0:0:
391,28,132787,1,0,0:1:0:0:
288,121,132945,6,0,P|376:104|427:174,1,179.999994506836,4|0,0:0|0:0,0:0:0:0:
512,167,133577,2,0,P|504:225|458:261,1,119.999996337891,8|2,0:0|0:0,0:0:0:0:
367,228,134050,1,0,3:0:0:0:
401,356,134208,2,0,P|367:315|366:284,1,59.9999981689454,2|8,3:0|0:3,0:0:0:0:
380,211,134524,1,2,0:0:0:0:
392,219,134682,1,0,3:0:0:0:
160,268,134840,1,8,0:0:0:0:
154,278,135156,5,2,0:0:0:0:
216,138,135314,1,0,3:0:0:0:
216,138,135392,1,0,0:0:0:0:
216,138,135471,2,0,L|88:123,1,119.999996337891,2|2,3:0|0:0,0:0:0:0:
227,147,135945,1,0,3:0:0:0:
29,55,136103,2,0,L|148:41,1,119.999996337891,10|2,0:0|0:0,0:0:0:0:
19,62,136577,1,0,3:0:0:0:
55,141,136735,1,2,3:0:0:0:
0,270,136892,2,0,P|3:240|17:213,1,59.9999981689454,8|0,0:0|0:0,0:0:0:0:
120,109,137208,5,0,3:0:0:0:
202,150,137366,1,8,0:0:0:0:
158,226,137524,5,8,0:1:0:0:
108,75,137682,1,8,0:1:0:0:
256,27,137840,1,8,0:1:0:0:
305,174,137998,6,0,P|363:142|432:152,1,119.999996337891,4|0,0:0|0:0,0:0:0:0:
307,191,138471,1,0,3:0:0:0:
508,108,138629,2,0,P|516:144|502:187,1,59.9999981689454,8|0,0:0|0:0,0:0:0:0:
473,303,138945,1,2,0:0:0:0:
329,259,139103,5,0,3:0:0:0:
335,230,139182,1,0,0:0:0:0:
353,206,139261,1,2,3:0:0:0:
485,185,139419,1,8,0:3:0:0:
367,117,139577,1,2,0:0:0:0:
364,123,139735,1,0,3:0:0:0:
436,260,139892,6,0,P|473:246|512:166,1,119.999996337891,8|2,0:0|0:0,0:0:0:0:
356,15,140366,1,0,3:0:0:0:
356,15,140445,1,0,3:0:0:0:
356,15,140524,2,0,L|362:119,1,89.9999972534181,6|0,3:0|0:0,0:0:0:0:
362,114,140840,1,2,0:0:0:0:
255,94,140998,1,0,3:0:0:0:
174,165,141156,2,0,P|187:231|224:282,1,119.999996337891,10|2,0:0|0:0,0:0:0:0:
381,318,141629,6,0,L|262:338,3,119.999996337891,0|8|0|8,3:0|0:0|3:0|0:1,0:0:0:0:
467,308,142735,1,8,0:1:0:0:
512,237,142892,1,8,0:1:0:0:
472,161,143050,6,0,P|461:103|480:47,1,119.999996337891,4|0,0:0|0:0,0:0:0:0:
404,230,143524,2,0,P|376:219|357:197,1,59.9999981689454,0|8,0:0|0:0,0:0:0:0:
468,291,143840,2,0,P|420:325|361:326,1,119.999996337891,0|0,0:0|3:0,0:0:0:0:
487,219,144314,5,2,3:0:0:0:
225,158,144471,1,8,0:3:0:0:
252,244,144787,5,0,3:0:0:0:
480,66,144945,1,8,0:0:0:0:
207,54,145261,5,2,0:0:0:0:
463,216,145419,1,0,0:0:0:0:
463,216,145498,1,0,0:0:0:0:
463,216,145577,1,8,0:0:0:0:
198,271,145892,5,4,0:1:0:0:
378,35,146208,5,8,0:0:0:0:
374,63,146286,1,8,0:0:0:0:
370,93,146365,1,8,0:0:0:0:
371,123,146444,1,8,0:0:0:0:
373,153,146523,1,8,0:0:0:0:
367,309,146682,6,0,P|359:298|347:285,1,22.4999993133545,2|0,0:0|0:0,0:0:0:0:
188,112,147156,5,8,0:3:0:0:
165,124,147234,1,8,0:3:0:0:
150,146,147313,1,8,0:3:0:0:
141,169,147392,1,8,0:3:0:0:
138,195,147471,1,8,0:3:0:0:
208,288,147629,5,0,3:0:0:0:
204,13,147787,6,0,L|196:44,1,32.4999985122681,8|0,0:1|0:0,0:0:0:0:
223,180,147945,2,0,L|230:211,1,32.4999985122681,8|0,0:1|0:0,0:0:0:0:
325,324,148103,6,0,P|268:297|207:287,1,125,6|0,3:2|0:2,0:0:0:0:
2,318,148419,2,0,B|23:361|73:363|73:363|120:193,1,250,6|0,0:2|3:2,0:0:0:0:
164,7,148892,1,0,3:2:0:0:
0,173,149050,1,8,0:0:0:0:
253,146,149208,6,0,B|374:126|374:126|379:128|379:128|500:106,1,250,2|0,3:2|3:2,0:0:0:0:
195,70,149682,2,0,P|157:126|168:202,1,125,10|0,0:2|0:2,0:0:0:0:
285,321,149998,1,2,3:2:0:0:
445,223,150156,1,0,3:2:0:0:
304,27,150313,2,0,L|278:212,1,187.5,10|0,0:2|0:2,0:0:0:0:
277,220,150629,6,0,B|256:193|230:172|230:172|418:154,1,250,6|10,3:2|0:2,0:0:0:0:
168,299,151103,1,0,0:2:0:0:
93,54,151261,2,0,L|228:64,1,125,2|0,3:2|3:2,0:0:0:0:
355,77,151577,1,10,0:2:0:0:
231,296,151735,6,0,B|190:350|190:350|110:280|166:174,1,250,4|0,3:2|3:2,0:0:0:0:
302,68,152208,2,0,P|363:59|419:83,1,125,10|0,0:2|0:2,0:0:0:0:
288,358,152524,1,2,3:2:0:0:
134,317,152682,1,0,3:2:0:0:
83,173,152840,1,10,0:2:0:0:
81,143,152918,1,8,0:2:0:0:
88,113,152997,1,8,0:2:0:0:
104,85,153076,1,8,0:2:0:0:
126,67,153156,2,0,P|174:105|235:118,1,125,14|0,3:2|0:2,0:0:0:0:
102,349,153471,6,0,P|22:256|15:134,1,250,14|2,0:2|3:2,0:0:0:0:
265,328,153945,1,0,3:2:0:0:
395,230,154103,1,10,0:2:0:0:
395,230,154261,1,0,3:2:0:0:
339,77,154419,2,0,P|287:109|266:167,1,125,2|0,0:2|3:2,0:0:0:0:
294,356,154735,1,10,0:2:0:0:
450,331,154892,6,0,L|190:318,1,250,0|0,0:0|3:2,0:0:0:0:
33,320,155366,1,10,0:2:0:0:
33,320,155524,1,0,0:2:0:0:
238,233,155682,6,0,B|283:239|322:196|322:196|370:197|399:239,1,187.5,4|0,3:2|0:2,0:0:0:0:
402,249,155998,1,8,0:2:0:0:
136,329,156156,6,0,B|188:235|64:198|63:94|157:93|175:131|157:177,1,300.000011444092,4|8,3:2|0:2,0:0:0:0:
140,333,156629,1,8,0:2:0:0:
245,82,156787,6,0,B|210:64|192:26|192:26|150:42|122:35,1,150.000005722046,4|0,3:2|3:2,0:0:0:0:
62,287,157261,6,0,B|134:268|101:231|190:217,1,150.000005722046,8|0,0:2|0:2,0:0:0:0:
190,216,157498,1,8,0:2:0:0:
190,216,157577,1,8,0:2:0:0:
179,354,157735,1,0,3:2:0:0:
79,143,157892,1,8,0:1:0:0:
328,202,158050,1,8,0:1:0:0:
18,361,158208,6,0,B|-4:212,1,125,6|0,3:2|0:2,0:0:0:0:
125,11,158524,2,0,B|88:258,1,250,14|2,0:2|3:2,0:0:0:0:
218,68,158998,1,0,3:2:0:0:
254,315,159156,1,10,0:2:0:0:
416,137,159314,6,0,B|359:113|310:141|310:141|283:128|283:128|231:159|178:142,1,250,0|0,3:2|3:2,0:0:0:0:
446,228,159787,2,0,P|497:196|512:137,1,125,10|0,0:2|0:2,0:0:0:0:
333,18,160103,1,2,3:2:0:0:
333,18,160261,1,0,3:2:0:0:
281,286,160419,2,0,P|317:335|376:349,1,125,10|0,0:2|0:2,0:0:0:0:
185,160,160735,6,0,P|108:187|70:310,1,187.5,6|0,3:2|0:2,0:0:0:0:
75,293,161050,1,10,0:2:0:0:
247,356,161208,1,0,0:2:0:0:
297,117,161366,2,0,P|288:66|239:5,1,125,6|0,3:2|3:2,0:0:0:0:
232,7,161682,1,10,0:2:0:0:
325,221,161840,2,0,P|436:196|490:66,1,250,4|0,3:2|3:2,0:0:0:0:
180,192,162314,6,0,L|199:342,1,125,10|0,0:2|0:2,0:0:0:0:
354,349,162629,5,0,3:2:0:0:
480,246,162787,1,0,3:0:0:0:
382,25,162945,2,0,P|320:34|260:51,1,125,8|0,0:0|0:0,0:0:0:0:
129,134,163182,5,8,0:0:0:0:
129,134,163261,2,0,P|189:151|251:161,1,125,4|0,3:2|0:2,0:0:0:0:
473,35,163577,5,14,0:2:0:0:
431,159,163735,1,0,3:2:0:0:
246,88,163892,5,10,0:2:0:0:
413,262,164050,1,0,3:2:0:0:
164,260,164208,5,10,0:2:0:0:
444,359,164366,1,0,3:2:0:0:
190,173,164524,6,0,P|125:179|84:225,1,125,10|0,0:2|0:2,0:0:0:0:
252,358,164840,5,10,0:2:0:0:
327,201,164998,1,0,3:2:0:0:
367,338,165156,5,10,0:2:0:0:
249,91,165313,1,0,3:2:0:0:
149,362,165471,5,10,0:2:0:0:
347,85,165629,1,0,3:2:0:0:
347,85,165708,1,0,0:0:0:0:
347,85,165787,2,0,P|332:36|259:-1,1,125,14|0,0:2|0:0,0:0:0:0:
10,268,166103,5,10,0:2:0:0:
63,140,166261,1,0,3:2:0:0:
168,347,166419,5,10,0:2:0:0:
175,115,166577,1,0,3:2:0:0:
323,358,166735,5,10,0:2:0:0:
264,78,166892,1,2,0:2:0:0:
460,295,167050,6,0,P|433:239|380:207,1,125,4|0,3:2|0:0,0:0:0:0:
103,237,167366,5,4,0:1:0:0:
255,329,167524,1,10,0:1:0:0:
234,336,167603,1,8,0:1:0:0:
214,342,167682,1,8,0:1:0:0:
103,237,167840,1,8,0:1:0:0:
165,74,167998,1,8,0:1:0:0:
356,34,168156,1,8,0:1:0:0:
512,174,168314,6,0,P|480:197|428:203,1,75.0000028610231,4|0,0:1|0:0,0:0:0:0:
458,288,168629,2,0,P|419:281|378:249,1,75.0000028610231,10|0,0:3|0:0,0:0:0:0:
329,324,168945,2,0,P|306:292|300:240,1,75.0000028610231,10|0,0:3|0:0,0:0:0:0:
215,270,169261,2,0,P|221:231|253:190,1,75.0000028610231,10|0,0:3|0:0,0:0:0:0:
347,176,169577,5,10,0:3:0:0:
297,79,169735,2,0,P|255:53|219:45,1,75.0000028610231,0|8,3:0|0:3,0:0:0:0:
100,61,170050,1,0,0:0:0:0:
100,61,170208,1,8,0:3:0:0:
125,166,170366,2,0,P|160:154|191:133,1,75.0000028610231,0|10,3:0|0:3,0:0:0:0:
32,93,170682,1,0,0:0:0:0:
35,221,170840,6,0,P|68:238|104:244,1,75.0000028610231,14|0,3:3|0:0,0:0:0:0:
111,335,171156,2,0,P|146:323|176:302,1,75.0000028610231,10|0,0:3|0:0,0:0:0:0:
254,366,171471,2,0,P|271:333|277:297,1,75.0000028610231,10|0,0:3|0:0,0:0:0:0:
213,208,171787,1,10,0:3:0:0:
372,225,171945,6,0,P|394:255|406:291,1,75.0000028610231,0|10,3:0|0:3,0:0:0:0:
335,145,172261,2,0,P|346:109|368:79,1,75.0000028610231,0|10,3:0|0:3,0:0:0:0:
438,40,172577,1,0,0:0:0:0:
512,125,172735,2,0,L|415:141,1,75.0000028610231,10|0,0:3|0:0,0:0:0:0:
335,145,173050,2,0,L|238:129,1,75.0000028610231,10|0,0:3|0:0,0:0:0:0:
108,24,173366,6,0,L|126:127,1,75.0000028610231,14|0,3:3|0:0,0:0:0:0:
133,191,173682,2,0,P|88:183|50:151,1,75.0000028610231,10|0,0:3|0:0,0:0:0:0:
226,266,173998,2,0,P|181:274|143:306,1,75.0000028610231,10|0,0:3|0:0,0:0:0:0:
320,286,174314,1,10,0:3:0:0:
308,179,174471,6,0,P|263:171|225:139,1,75.0000028610231,0|10,3:0|0:3,0:0:0:0:
393,251,174787,2,0,P|348:259|310:291,1,75.0000028610231,0|10,3:0|0:3,0:0:0:0:
384,343,175103,1,0,0:0:0:0:
462,330,175261,1,10,0:3:0:0:
483,249,175419,2,0,P|471:197|444:167,1,75.0000028610231,0|10,3:0|0:3,0:0:0:0:
373,131,175735,1,0,0:0:0:0:
508,16,175892,6,0,P|470:62|465:96,1,75.0000028610231,14|0,3:3|0:0,0:0:0:0:
373,131,176208,2,0,P|334:112|287:110,1,75.0000028610231,10|0,0:3|0:0,0:0:0:0:
238,172,176524,2,0,P|199:191|152:193,1,75.0000028610231,10|0,0:3|0:0,0:0:0:0:
59,132,176840,1,10,0:3:0:0:
115,15,176998,6,0,P|135:58|125:108,1,75.0000028610231,0|10,3:0|0:3,0:0:0:0:
59,132,177314,2,0,P|35:169|37:212,1,75.0000028610231,0|10,3:0|0:3,0:0:0:0:
103,238,177629,2,0,P|111:284|100:326,1,75.0000028610231,0|10,0:0|0:3,0:0:0:0:
44,361,177945,1,0,0:0:0:0:
0,270,178103,1,14,0:3:0:0:
87,198,178261,5,0,0:0:0:0:
87,198,178340,1,0,0:0:0:0:
87,198,178419,2,0,P|101:215|111:237,2,44.999998626709,6|0|10,0:1|0:0|0:3,0:0:0:0:
36,101,178892,2,0,P|103:119|139:118,1,89.9999972534181
181,54,179366,1,10,0:3:0:0:
219,145,179524,5,0,3:0:0:0:
219,145,179603,1,0,0:0:0:0:
219,145,179682,2,0,P|208:170|193:186,1,44.999998626709,10|0,0:3|3:0,0:0:0:0:
258,334,179998,2,0,P|258:287|223:246,1,89.9999972534181,10|10,0:3|0:3,0:0:0:0:
261,350,180471,2,0,P|281:359|311:362,1,44.999998626709,0|10,3:0|0:3,0:0:0:0:
367,262,180787,5,0,0:0:0:0:
367,262,180866,1,0,0:0:0:0:
367,262,180945,2,0,L|375:326,1,44.999998626709,10|0,3:0|0:0,0:0:0:0:
456,161,181261,2,0,L|449:207,1,44.999998626709,10|0,0:3|0:0,0:0:0:0:
333,103,181577,2,0,L|338:149,1,44.999998626709,10|0,0:3|0:0,0:0:0:0:
422,4,181893,2,0,L|415:50,1,44.999998626709,10|0,0:3|3:0,0:0:0:0:
412,170,182208,5,10,0:3:0:0:
335,163,182524,5,10,0:3:0:0:
256,156,182840,5,10,0:3:0:0:
179,149,183156,5,10,0:3:0:0:
218,229,183314,5,0,0:0:0:0:
218,229,183392,1,0,0:0:0:0:
218,229,183471,2,0,P|194:238|164:237,1,44.999998626709,8|0,3:0|0:0,0:0:0:0:
98,211,183787,2,0,L|115:344,1,134.999995880127,2|0,0:0|0:0,0:0:0:0:
101,357,184419,1,10,0:3:0:0:
10,342,184577,5,0,3:0:0:0:
10,342,184656,1,0,0:0:0:0:
10,342,184735,2,0,P|24:309|41:293,1,44.999998626709,10|0,0:3|3:0,0:0:0:0:
39,167,185050,2,0,P|69:200|85:243,1,89.9999972534181,10|10,0:3|0:3,0:0:0:0:
172,132,185524,2,0,P|159:149|138:167,1,44.999998626709,0|10,0:0|0:3,0:0:0:0:
125,65,185840,5,0,3:0:0:0:
125,65,185919,1,0,0:0:0:0:
124,65,185998,2,0,P|135:41|150:15,1,44.999998626709,10|0,3:3|0:0,0:0:0:0:
58,130,186314,2,0,P|46:106|31:80,1,44.999998626709,10|0,0:3|0:0,0:0:0:0:
133,204,186629,2,0,P|144:180|159:154,1,44.999998626709,10|0,0:3|0:0,0:0:0:0:
67,268,186945,2,0,P|55:244|40:218,1,44.999998626709,10|0,0:3|3:0,0:0:0:0:
34,347,187261,5,10,0:3:0:0:
111,340,187577,5,10,0:3:0:0:
190,333,187893,5,10,0:3:0:0:
205,318,188050,2,0,P|225:278|219:234,1,89.9999972534181
217,220,188445,5,0,0:0:0:0:
217,220,188524,2,0,P|310:326|316:185,1,359.999989013672,4|2,3:1|0:0,0:0:0:0:
317,185,191050,5,0,0:0:0:0:
363,295,194998,5,2,0:0:0:0:
382,234,195156,1,2,0:0:0:0:
385,170,195314,1,0,0:0:0:0:
224,109,195471,5,8,0:0:0:0:
267,124,195577,5,8,0:0:0:0:
297,157,195682,5,8,0:0:0:0:
311,200,195787,5,0,3:0:0:0:
164,232,195945,5,2,0:0:0:0:
179,215,196024,1,2,0:0:0:0:
199,205,196103,1,4,3:0:0:0:
237,286,196892,5,8,0:0:0:0:
203,75,197050,1,8,0:0:0:0:
403,156,197208,1,4,3:0:0:0:
288,192,197840,5,8,0:3:0:0:
288,192,197919,1,8,0:3:0:0:
288,192,197998,1,8,0:3:0:0:
411,157,198156,1,8,0:1:0:0:
208,70,198314,1,8,0:1:0:0:
425,166,198471,1,0,0:0:0:0:
246,233,198629,6,0,P|210:279|184:375,1,150.000005722046,4|8,3:0|0:0,0:0:0:0:
239,120,199103,6,0,P|100:154|21:238,1,239.999992675781,4|8,0:1|0:0,0:0:0:0:
31,237,199577,1,8,0:0:0:0:
343,77,199735,6,0,P|290:30|249:16,1,110.000003356934,4|0,3:0|3:0,0:0:0:0:
416,164,200208,6,0,P|499:84|523:10,1,150.000005722046,8|0,0:0|0:0,0:0:0:0:
512,53,200445,1,8,0:0:0:0:
512,53,200524,1,8,0:0:0:0:
357,238,200682,5,8,0:0:0:0:
357,238,200840,2,0,L|367:212,6,18.7500007152558,8|0|0|0|8|0|0,0:0|0:0|0:0|0:0|0:0|0:0|0:0,0:0:0:0:
371,257,201156,6,0,P|421:323|487:346,1,129.999994049073,6|0,3:2|0:2,0:0:0:0:
345,134,201471,2,0,P|216:129|97:179,1,259.999988098145,14|2,0:2|3:2,0:0:0:0:
363,147,201945,1,0,3:2:0:0:
253,28,202103,1,10,0:2:0:0:
67,44,202261,6,0,P|1:154|0:282,1,259.999988098145,0|0,3:2|3:2,0:0:0:0:
139,187,202735,1,10,0:2:0:0:
300,161,202892,1,0,0:2:0:0:
399,290,203050,2,0,P|350:332|288:351,1,129.999994049073,2|0,3:2|3:2,0:0:0:0:
133,253,203366,2,0,P|120:189|136:127,1,129.999994049073,10|0,0:2|0:2,0:0:0:0:
420,137,203682,6,0,P|374:67|269:41,1,194.999991073609,6|0,3:2|0:2,0:0:0:0:
266,48,203998,2,0,P|314:89|377:86,1,129.999994049073,10|0,0:2|0:2,0:0:0:0:
489,186,204314,2,0,L|513:58,1,129.999994049073,6|0,3:2|3:2,0:0:0:0:
461,322,204629,1,10,0:2:0:0:
163,341,204787,6,0,B|203:271|287:273|287:273|296:338|343:367,1,259.999988098145,4|0,3:2|3:2,0:0:0:0:
489,186,205261,2,0,P|431:157|365:164,1,129.999994049073,10|0,0:2|0:2,0:0:0:0:
178,213,205577,1,8,0:2:0:0:
403,269,205735,1,8,0:0:0:0:
305,4,205892,6,0,B|258:59|258:59|293:176,1,194.999991073609,8|0,0:0|0:0,0:0:0:0:
299,189,206208,1,4,3:2:0:0:
152,279,206524,5,14,0:2:0:0:
22,45,206682,1,0,3:2:0:0:
264,157,206840,5,10,0:2:0:0:
2,208,206998,1,0,3:2:0:0:
182,15,207156,5,10,0:2:0:0:
148,287,207314,1,0,3:2:0:0:
340,90,207471,5,10,0:2:0:0:
346,83,207787,5,10,0:2:0:0:
489,342,207945,1,0,3:2:0:0:
220,217,208103,5,10,0:2:0:0:
512,160,208261,1,0,3:2:0:0:
309,376,208419,5,10,0:2:0:0:
225,115,208577,1,0,3:2:0:0:
39,344,208735,5,14,0:2:0:0:
25,342,209050,5,10,0:2:0:0:
263,245,209208,1,0,3:2:0:0:
108,170,209366,5,10,0:2:0:0:
414,250,209524,1,0,3:2:0:0:
257,75,209682,5,10,0:2:0:0:
335,366,209840,1,2,0:2:0:0:
453,138,209998,5,8,0:0:0:0:
258,46,210156,1,0,0:0:0:0:
258,46,210235,1,0,0:0:0:0:
258,46,210314,1,8,0:0:0:0:
319,357,210471,2,0,L|311:320,2,37.5000014305115,2|0|0,0:0|0:0|0:0,0:0:0:0:
322,368,210787,5,2,0:0:0:0:
512,151,210945,5,8,0:0:0:0:
473,146,211023,1,8,0:0:0:0:
434,141,211102,1,8,0:0:0:0:
395,136,211181,1,8,0:0:0:0:
356,130,211261,2,0,L|372:234,1,75.0000028610231,6|0,3:2|0:0,0:0:0:0:
447,21,211577,1,12,0:0:0:0:
188,275,211735,6,0,B|241:247|319:284|289:322|355:353|416:327,1,250,0|0,0:0|3:2,0:0:0:0:
225,361,212208,1,8,0:0:0:0:
107,200,212366,2,0,P|202:122|324:102,1,250,2|0,3:2|3:2,0:0:0:0:
499,238,212840,2,0,P|440:216|394:175,1,125,10|0,0:2|0:2,0:0:0:0:
440,66,213156,5,2,3:2:0:0:
240,190,213314,1,0,3:2:0:0:
399,324,213471,5,10,0:2:0:0:
324,102,213629,1,0,0:0:0:0:
324,102,213708,1,0,0:0:0:0:
324,102,213787,6,0,P|316:195|323:288,1,187.5,6|0,3:2|0:0,0:0:0:0:
330,296,214103,1,10,0:2:0:0:
196,165,214261,1,0,0:2:0:0:
0,286,214419,6,0,B|96:363|96:363|209:306,1,250,2|10,3:2|0:2,0:0:0:0:
97,15,214892,2,0,B|61:70|78:133|119:132|148:185|104:259,1,250,4|0,3:2|3:2,0:0:0:0:
182,66,215366,2,0,P|244:73|298:104,1,125,10|0,0:2|0:2,0:0:0:0:
358,218,215682,1,2,3:2:0:0:
242,341,215840,1,0,3:2:0:0:
418,365,215998,5,10,0:2:0:0:
451,365,216076,1,8,0:2:0:0:
480,352,216155,1,8,0:2:0:0:
502,328,216234,1,8,0:2:0:0:
512,296,216314,2,0,P|480:234|413:210,1,125,14|0,3:2|0:2,0:0:0:0:
420,0,216629,2,0,P|308:53|248:160,1,250,14|2,0:2|3:2,0:0:0:0:
274,338,217103,5,0,3:2:0:0:
477,147,217261,1,10,0:2:0:0:
248,189,217419,1,0,3:2:0:0:
497,340,217577,6,0,B|441:355|441:355|388:314,1,125,2|0,0:2|3:2,0:0:0:0:
414,20,217892,2,0,P|486:161|452:258,1,250,10|2,0:2|3:2,0:0:0:0:
277,301,218366,1,0,3:2:0:0:
150,150,218524,6,0,L|145:91,1,59.9999981689454,10|0,0:2|0:2,0:0:0:0:
187,334,218840,6,0,P|105:258|2:255,1,209.999993591309,4|0,3:2|0:2,0:0:0:0:
5,260,219156,1,8,0:2:0:0:
226,193,219314,6,0,P|261:157|315:143,1,100,4|0,3:2|0:2,0:0:0:0:
346,301,219629,1,8,0:2:0:0:
212,68,219787,1,8,0:2:0:0:
453,37,219945,6,0,L|440:220,1,150.000005722046,4|0,3:2|3:2,0:0:0:0:
302,346,220419,6,0,L|289:163,1,150.000005722046,8|0,0:2|0:2,0:0:0:0:
287,182,220656,1,8,0:2:0:0:
287,182,220735,1,8,0:2:0:0:
200,324,220892,1,0,3:2:0:0:
360,154,221050,1,8,0:1:0:0:
88,97,221208,1,8,0:1:0:0:
34,289,221366,6,0,P|69:232|130:204,1,135.000000514984,6|0,3:2|0:2,0:0:0:0:
204,123,221682,2,0,P|129:17|0:11,1,270.000001029968,14|2,0:2|3:2,0:0:0:0:
236,259,222156,1,0,3:2:0:0:
326,82,222314,1,10,0:2:0:0:
92,139,222471,6,0,B|127:345|127:345|158:292,1,270.000001029968,0|0,3:2|3:2,0:0:0:0:
106,45,222945,2,0,P|41:53|-2:110,1,135.000000514984,10|0,0:2|0:2,0:0:0:0:
372,235,223261,2,0,P|306:226|265:175,1,135.000000514984,0|0,3:2|3:2,0:0:0:0:
379,4,223577,2,0,L|353:161,1,135.000000514984,10|0,0:2|0:2,0:0:0:0:
122,361,223892,6,0,B|168:321|192:250|192:250|230:302|300:333,1,270.000001029968,6|10,3:2|0:2,0:0:0:0:
405,233,224366,1,0,0:2:0:0:
322,105,224524,2,0,B|294:111|262:131|262:131|253:102|227:71,1,135.000000514984,6|0,3:2|3:2,0:0:0:0:
96,90,224840,1,10,0:2:0:0:
372,8,224998,6,0,P|325:150|327:286,1,270.000001029968,4|0,3:2|3:2,0:0:0:0:
450,104,225471,1,10,0:2:0:0:
217,202,225629,1,0,0:2:0:0:
217,202,225708,1,0,0:0:0:0:
217,202,225787,1,8,0:2:0:0:
471,316,225945,5,8,0:0:0:0:
319,354,226103,1,8,0:0:0:0:
183,276,226261,1,8,0:0:0:0:
370,0,226419,6,0,B|406:5|439:26|444:94|408:143,1,179.999994506836,4|0,3:2|0:2,0:0:0:0:
201,361,226735,2,0,B|221:263|162:289|180:186,1,179.999994506836,12|0,0:0|0:0,0:0:0:0:
75,37,227050,2,0,P|145:49|251:72,1,179.999994506836,12|0,0:0|3:0,0:0:0:0:
512,266,227366,2,0,P|442:278|335:301,1,179.999994506836,12|0,0:0|3:0,0:0:0:0:
141,372,227682,6,0,P|156:324|165:275,1,100,12|0,0:0|0:0,0:0:0:0:
238,81,227998,2,0,B|247:61|247:27|213:3|216:-3|216:-3|213:3|181:17|169:44|170:69,1,179.999994506836,12|0,0:0|3:0,0:0:0:0:
252,246,228314,2,0,B|262:264|292:279|330:263|334:268|334:268|330:263|334:228|316:205|294:192,1,179.999994506836,12|0,0:0|3:0,0:0:0:0:
75,160,228629,2,0,B|52:160|23:177|19:217|12:219|12:219|19:217|48:239|76:236|96:223,1,179.999994506836,12|0,0:0|3:0,0:0:0:0:
297,106,228945,6,0,B|347:112|403:82|365:63|358:62|358:62|358:55|352:4|304:60|291:96,1,220.000006713867,12|0,0:0|0:0,0:0:0:0:
76,221,229261,6,0,B|25:214|-30:244|7:263|14:264|14:264|14:271|20:323|68:266|82:231,1,220.000006713867,12|0,0:0|3:0,0:0:0:0:
281,257,229577,6,0,B|316:270|374:318|321:324|314:324|314:324|313:331|294:369|264:313|272:264,1,220.000006713867,12|0,0:0|3:0,0:0:0:0:
118,73,229893,6,0,B|82:59|25:11|77:5|84:5|84:5|85:-2|104:-38|134:16|128:67,1,220.000006713867,12|0,0:0|3:0,0:0:0:0:
188,272,230208,5,12,0:0:0:0:
57,123,230366,1,0,3:0:0:0:
131,336,230524,5,8,0:0:0:0:
258,43,230682,2,0,L|240:125,1,50,2|0,0:0|0:0,0:0:0:0:
16,230,230840,5,0,0:0:0:0:
345,153,230998,1,0,3:0:0:0:
175,123,231156,5,8,0:0:0:0:
175,123,231235,1,8,0:0:0:0:
175,123,231314,1,8,0:0:0:0:
175,123,231392,1,8,0:0:0:0:
175,123,231471,6,0,P|204:158|221:168,1,59.9999981689454,10|0,0:0|0:0,0:0:0:0:
395,64,232103,6,0,P|332:97|298:148,1,119.999996337891,2|0,0:0|0:0,0:0:0:0:
281,208,232577,5,0,0:0:0:0:
381,224,232735,6,0,P|369:216|355:211,1,29.9999990844727,2|0,0:0|0:0,0:0:0:0:
213,257,233050,6,0,P|207:272|201:285,1,29.9999990844727
313,315,233366,6,0,P|308:301|302:286,1,29.9999990844727,2|0,0:0|3:0,0:0:0:0:
117,198,233682,5,8,0:0:0:0:
286,211,233840,1,2,0:0:0:0:
286,211,233919,1,2,0:0:0:0:
286,211,233998,1,6,3:0:0:0:
283,114,234945,5,8,0:0:0:0:
106,189,235103,1,8,0:1:0:0:
361,302,235261,1,4,3:0:0:0:
370,316,235735,5,8,0:0:0:0:
370,316,235814,1,8,0:0:0:0:
370,316,235892,1,8,0:0:0:0:
141,197,236050,1,8,0:1:0:0:
279,81,236208,1,8,0:1:0:0:
147,350,236366,6,0,B|148:315|170:282|170:282|117:295|99:332,1,162.5,8|0,0:1|0:0,0:0:0:0:
251,262,237471,6,0,P|206:171|133:102,1,202.500000772476,4|0,3:0|0:0,0:0:0:0:
122,104,237786,1,8,0:0:0:0:
328,291,237944,2,0,P|391:271|441:226,1,135.000000514984,4|0,3:0|0:0,0:0:0:0:
352,26,238260,1,0,3:0:0:0:
352,26,238418,6,0,P|336:79|323:134,1,112.500004291535,4|0,3:0|0:0,0:0:0:0:
323,155,238734,1,0,0:0:0:0:
433,338,238892,1,0,3:0:0:0:
496,28,239049,5,4,0:1:0:0:
483,40,239365,5,8,0:0:0:0:
473,55,239443,1,8,0:0:0:0:
465,72,239522,1,8,0:0:0:0:
459,90,239601,1,8,0:0:0:0:
454,108,239680,1,8,0:0:0:0:
490,219,239839,1,0,3:0:0:0:
267,169,239997,5,4,3:0:0:0:
477,243,240155,1,0,0:0:0:0:
477,243,240313,1,8,0:0:0:0:
222,301,240471,6,0,B|189:293|166:265|166:265|170:299|150:330,1,135.000000514984,4|0,3:0|0:0,0:0:0:0:
385,340,240786,5,0,3:0:0:0:
71,277,240944,1,4,3:0:0:0:
60,271,241260,5,8,0:0:0:0:
273,191,241418,2,0,L|347:178,1,67.5000002574921,2|0,3:0|0:0,0:0:0:0:
248,206,241734,5,0,3:0:0:0:
0,97,241892,1,8,0:0:0:0:
147,28,242049,2,0,L|134:115,1,67.5000002574921,2|0,0:0|0:0,0:0:0:0:
93,342,242207,1,0,3:0:0:0:
93,342,242365,1,0,3:0:0:0:
33,269,242523,6,0,P|143:267|170:386,1,202.500000772476,4|0,3:0|0:0,0:0:0:0:
172,352,242839,1,8,0:0:0:0:
2,175,242997,1,4,3:0:0:0:
12,166,243155,1,0,0:0:0:0:
177,23,243313,1,0,3:0:0:0:
165,101,243471,2,0,P|111:73|104:0,1,112.500004291535,4|0,3:0|0:0,0:0:0:0:
106,19,243786,5,0,3:0:0:0:
304,51,244102,5,8,0:1:0:0:
424,162,244260,5,8,0:0:0:0:
424,162,244339,1,8,0:0:0:0:
424,162,244418,1,8,0:0:0:0:
318,211,244576,1,8,0:0:0:0:
438,22,244734,1,8,0:1:0:0:
491,343,244892,1,8,0:1:0:0:
321,224,245049,6,0,P|388:296|486:301,1,202.500000772476,4|0,0:0|0:0,0:0:0:0:
512,281,245365,1,8,0:0:0:0:
227,334,245523,5,4,0:1:0:0:
233,332,245839,5,0,3:0:0:0:
353,115,245997,2,0,B|319:94|304:62|304:62|175:85,1,202.500000772476,4|0,3:0|0:0,0:0:0:0:
166,94,246313,1,0,3:0:0:0:
330,261,246471,1,0,0:0:0:0:
385,36,246628,1,8,0:3:0:0:
93,113,246786,5,8,0:3:0:0:
93,113,246865,1,8,0:3:0:0:
93,113,246944,1,8,0:0:0:0:
173,134,247102,5,8,0:3:0:0:
177,101,247180,1,8,0:3:0:0:
168,69,247259,1,8,0:0:0:0:
147,43,247338,1,8,0:3:0:0:
117,27,247417,1,8,0:0:0:0:
84,24,247496,1,8,0:3:0:0:
52,35,247576,6,0,P|110:116|116:215,1,202.500000772476,4|0,3:0|0:0,0:0:0:0:
102,230,247892,1,8,0:0:0:0:
0,94,248049,5,4,3:0:0:0:
205,18,248207,1,0,0:0:0:0:
317,161,248365,1,0,3:0:0:0:
216,326,248523,6,0,P|319:295|384:302,1,150.000005722046,4|2,3:0|0:0,0:0:0:0:
431,346,248997,1,0,3:0:0:0:
494,295,249155,2,0,P|506:250|369:106,1,225.000008583069,8|0,0:0|0:0,0:0:0:0:
309,112,249471,5,8,0:0:0:0:
257,96,249549,1,8,0:0:0:0:
257,42,249628,1,8,0:0:0:0:
309,25,249707,1,8,0:0:0:0:
339,68,249786,2,0,P|334:142|283:195,1,150.000005722046,4|0,3:0|0:0,0:0:0:0:
114,119,250102,5,4,0:0:0:0:
218,223,250260,1,0,0:0:0:0:
169,363,250418,1,8,0:0:0:0:
111,131,250576,5,4,0:1:0:0:
265,44,250734,1,0,0:0:0:0:
438,85,250892,1,0,3:0:0:0:
512,246,251049,5,4,0:0:0:0:
507,253,251365,5,8,0:0:0:0:
313,106,251524,1,0,3:0:0:0:
274,316,251684,5,8,0:0:0:0:
315,94,251843,1,0,3:0:0:0:
69,237,252003,6,0,P|97:219|115:188,2,66.6666666666667,8|8|8,0:3|0:3|0:3,0:0:0:0:
33,159,252322,5,8,0:0:0:0:
46,87,252428,5,8,0:0:0:0:
100,38,252534,5,8,0:0:0:0:
175,19,252641,6,0,P|199:152|188:286,1,270.000001029968,4|8,3:0|0:0,0:0:0:0:
113,117,253112,5,4,0:1:0:0:
360,164,253426,5,0,3:0:0:0:
253,334,253583,2,0,B|192:367|192:367|130:344,1,135.000000514984,4|0,3:0|0:0,0:0:0:0:
190,176,253897,5,8,0:3:0:0:
488,119,254054,2,0,L|480:169,1,50,2|0,0:0|0:0,0:0:0:0:
489,109,254370,5,0,3:0:0:0:
265,52,254528,1,8,0:3:0:0:
70,175,254686,2,0,L|62:125,2,50,2|0|0,0:0|0:0|3:0,0:0:0:0:
285,259,255002,1,0,3:0:0:0:
174,58,255160,6,0,B|193:171|193:171|156:226|156:226|177:343,1,300.000011444092,4|8,3:0|0:0,0:0:0:0:
272,90,255633,5,4,0:1:0:0:
84,290,255949,5,0,3:0:0:0:
272,90,256107,1,4,3:0:0:0:
473,268,256423,5,0,3:0:0:0:
468,278,256528,2,0,P|409:268|377:223,1,100.000003814697,8|8,0:3|0:3,0:0:0:0:
243,344,256739,5,8,0:3:0:0:
240,354,256844,2,0,P|287:337|316:287,1,100.000003814697,8|8,0:3|0:0,0:0:0:0:
297,209,257054,5,8,0:0:0:0:
237,175,257159,1,8,0:0:0:0:
170,195,257265,1,8,0:0:0:0:
163,212,257370,5,8,0:1:0:0:
101,273,257475,1,8,0:1:0:0:
14,264,257580,1,8,0:1:0:0:
58,146,257686,5,12,3:1:0:0:
256,192,258633,12,0,265265,0:0:0:0:
