osu file format v14

[General]
AudioFilename: Celebrity Status.mp3
AudioLeadIn: 0
PreviewTime: 47065
Countdown: 0
SampleSet: Normal
StackLeniency: 0.7
Mode: 0
LetterboxInBreaks: 0
EpilepsyWarning: 1
WidescreenStoryboard: 1

[Editor]
DistanceSpacing: 0.8
BeatDivisor: 4
GridSize: 4
TimelineZoom: 1.5

[Metadata]
Title:Celebrity Status
TitleUnicode:Celebrity Status
Artist:Marianas Trench
ArtistUnicode:Marianas Trench
Creator:Krisom
Version:Hard
Source:
Tags:pop punk rock english Masterpiece Theatre
BeatmapID:152300
BeatmapSetID:49351

[Difficulty]
HPDrainRate:5.6
CircleSize:4
OverallDifficulty:6
ApproachRate:6.5
SliderMultiplier:1.8
SliderTickRate:2

[Events]
//Background and Video events
0,0,"BG.jpg",0,0
//Break Periods
2,58972,63651
2,123362,128046
2,146739,148528
//Storyboard Layer 0 (Background)
//Storyboard Layer 1 (Fail)
//Storyboard Layer 2 (Pass)
//Storyboard Layer 3 (Foreground)
//Storyboard Layer 4 (Overlay)
//Storyboard Sound Samples

[TimingPoints]
236,365.853658536585,4,1,2,80,1,0
19260,-105.263157894737,4,1,2,80,0,0
19626,-80,4,1,2,80,0,0
20175,-100,4,1,2,80,0,0
27309,-105.263157894737,4,1,2,80,0,0
28406,-100,4,1,2,80,0,0
41714,-100,4,2,0,60,0,0
41806,-100,4,1,2,80,0,0
42446,-100,4,2,0,60,0,0
42537,-100,4,1,2,80,0,0
43543,-100,4,2,0,60,0,0
43635,-100,4,1,2,80,0,0
47065,-90.9090909090909,4,1,2,80,0,1
48528,-74.0740740740741,4,1,2,80,0,1
48894,-90.9090909090909,4,1,2,80,0,1
58772,-100,4,1,2,80,0,0
64534,-100,4,1,2,80,0,0
64717,-100,4,2,2,80,0,0
66912,-100,4,1,2,80,0,0
82095,-100,4,1,2,80,0,0
82644,-100,4,1,2,80,0,0
94351,-100,4,2,0,80,0,0
94534,-100,4,1,2,80,0,0
95083,-100,4,2,0,80,0,0
95266,-100,4,1,2,80,0,0
99748,-90.9090909090909,4,1,2,80,0,1
101119,-75.7575757575758,4,1,2,80,0,1
101577,-90.9090909090909,4,1,2,80,0,1
123162,366.188587122368,4,1,2,80,1,0
123162,-100,4,1,2,80,0,0
128924,-100,4,1,1,80,0,0
129021,364.409353173398,4,1,2,80,1,0
129107,-100,4,2,0,80,0,0
129290,-100,4,1,1,80,0,0
129565,-100,4,2,0,80,0,0
129656,-100,4,1,1,80,0,0
129930,-100,4,2,0,80,0,0
130022,-100,4,1,1,80,0,0
130296,-100,4,2,0,80,0,0
130388,-100,4,1,1,80,0,0
130479,361.3369467028,4,1,2,80,1,0
130936,-100,4,2,0,80,0,0
131119,-100,4,1,1,80,0,0
131202,367.534456355283,4,1,2,80,1,0
131385,-100,4,2,0,80,0,0
131485,-100,4,1,2,80,0,0
131760,-100,4,2,0,80,0,0
131851,-100,4,1,1,80,0,0
131937,366.97247706422,4,1,1,80,1,0
132034,-100,4,2,0,80,0,0
132217,-100,4,1,1,80,0,0
132491,-100,4,2,0,80,0,0
132583,-100,4,1,1,80,0,0
132857,-100,4,2,0,80,0,0
132949,-100,4,1,1,80,0,0
133223,-100,4,2,0,80,0,0
133315,-100,4,1,1,80,0,0
133405,360.36036036036,4,1,2,80,1,0
133863,-100,4,2,0,80,0,0
134046,-100,4,1,1,80,0,0
134126,368.211107701749,4,1,2,80,1,0
134229,-100,4,2,0,80,0,0
134412,-100,4,1,2,80,0,0
134595,-100,4,2,0,80,0,0
134778,-100,4,1,1,80,0,0
134862,364.741641337385,4,1,2,80,1,0
134961,-100,4,2,0,80,0,0
135144,-100,4,1,1,80,0,0
135418,-100,4,2,0,80,0,0
135510,-100,4,1,1,80,0,0
135784,-100,4,2,0,80,0,0
135875,-100,4,1,1,80,0,0
136150,-100,4,2,0,80,0,0
136241,-100,4,1,1,80,0,0
136321,373.018340068387,4,1,2,80,1,0
136607,-100,4,1,2,80,0,0
136790,-100,4,2,0,80,0,0
136973,-100,4,1,1,80,0,0
137067,363.636363636364,4,1,2,80,1,0
137156,-100,4,2,0,80,0,0
137339,-100,4,1,2,80,0,0
137522,-100,4,2,0,80,0,0
137750,-100,4,1,1,80,0,0
137794,365.742151782993,4,1,2,80,1,0
137888,-100,4,2,0,80,0,0
138071,-100,4,1,1,80,0,0
138345,-100,4,2,0,80,0,0
138436,-100,4,1,1,80,0,0
138711,-100,4,2,0,80,0,0
138802,-100,4,1,1,80,0,0
139077,-100,4,2,0,80,0,0
139168,-100,4,1,1,80,0,0
139257,366.524129505192,4,1,2,80,1,0
139351,-100,4,2,0,80,0,0
139534,-100,4,1,1,80,0,0
139717,-100,4,2,0,80,0,0
139900,-100,4,1,1,80,0,0
139990,359.604435121367,4,1,2,80,1,0
140083,-100,4,2,0,80,0,0
140311,-100,4,1,2,80,0,0
140632,-100,4,1,1,80,0,0
140710,365.742151782993,4,1,2,80,1,0
140906,-100,4,2,0,80,0,0
140997,-100,4,1,1,80,0,0
141272,-100,4,2,0,80,0,0
141363,-100,4,1,1,80,0,0
141638,-100,4,2,0,80,0,0
141729,-100,4,1,1,80,0,0
142004,-100,4,2,0,80,0,0
142095,-100,4,1,1,80,0,0
142173,362.537764350453,4,1,2,80,1,0
142278,-100,4,2,0,80,0,0
142461,-100,4,1,1,80,0,0
142644,-100,4,2,0,80,0,0
142827,-100,4,1,1,80,0,0
142899,368.550368550369,4,1,2,80,1,0
143010,-100,4,2,0,80,0,0
143193,-100,4,1,2,80,0,0
143375,-100,4,2,0,80,0,0
143558,-100,4,1,1,80,0,0
143636,366.97247706422,4,1,2,80,1,0
143833,-100,4,2,0,80,0,0
143924,-100,4,1,1,80,0,0
144199,-100,4,2,0,80,0,0
144290,-100,4,1,1,80,0,0
144565,-100,4,2,0,80,0,0
144656,-100,4,1,1,80,0,0
144930,-100,4,2,0,80,0,0
145022,-100,4,1,1,80,0,0
145104,359.712230215828,4,1,2,80,1,0
145205,-100,4,2,0,80,0,0
145388,-100,4,1,1,80,0,0
145571,-100,4,2,0,80,0,0
145754,-100,4,1,1,80,0,0
145823,358.208955223881,4,1,2,80,1,0
145936,-100,4,2,0,80,0,0
146165,-100,4,1,2,80,0,0
146302,-100,4,2,0,80,0,0
146485,-100,4,1,1,80,0,0
146539,370.484717505403,4,1,1,80,1,0
149321,-100,4,1,2,80,0,0
149503,365.853658536585,4,1,2,80,1,0
149595,-100,4,1,1,80,0,0
149778,-100,4,1,2,80,0,0
150693,-100,4,1,1,80,0,0
150875,-100,4,1,2,80,0,0
152522,-100,4,1,1,80,0,0
152705,-100,4,1,2,80,0,0
153619,-100,4,1,1,80,0,0
153802,-100,4,1,2,80,0,0
155449,-100,4,2,0,80,0,0
155632,-100,4,1,2,80,0,0
156546,-100,4,2,0,80,0,0
156729,-100,4,1,2,80,0,0
159016,-133.333333333333,4,1,2,80,0,0
159382,-100,4,1,2,80,0,0
161210,-90.9090909090909,4,1,2,80,0,1
161302,-90.9090909090909,4,2,0,80,0,1
161485,-90.9090909090909,4,1,2,80,0,1
162583,-74.0740740740741,4,1,2,80,0,1
164321,-90.9090909090909,4,1,1,80,0,1
164412,-90.9090909090909,4,1,2,80,0,1
167156,-90.9090909090909,4,1,1,80,0,1
167339,-90.9090909090909,4,1,2,80,0,1
173010,-90.9090909090909,4,1,1,80,0,1
173193,-90.9090909090909,4,1,2,80,0,1
174290,-75.7575757575758,4,1,2,80,0,1
174839,-90.9090909090909,4,1,2,80,0,1
176028,-90.9090909090909,4,1,1,80,0,1
176119,-90.9090909090909,4,1,2,80,0,1
178863,-90.9090909090909,4,1,1,80,0,1
179046,-90.9090909090909,4,1,2,80,0,1
184624,-100,4,1,2,80,0,0
184717,-100,4,1,1,80,0,0
184900,-100,4,1,2,80,0,0
185815,-100,4,1,1,80,0,0
185997,-100,4,1,2,80,0,0
190113,-100,4,1,2,70,0,0
190296,-100,4,1,2,60,0,0
190479,-100,4,1,2,50,0,0
190662,-100,4,1,2,40,0,0
190845,-100,4,1,2,30,0,0
191028,-100,4,1,2,20,0,0
191211,-100,4,1,2,10,0,0
191394,-100,4,1,2,5,0,0

[Colours]
Combo1 : 105,49,168
Combo2 : 244,37,0
Combo3 : 21,196,78
Combo4 : 7,74,252
Combo5 : 255,202,40
SliderBorder : 63,63,63

[HitObjects]
484,340,11943,5,4,0:0:0:0:
408,216,12309,1,8,0:0:0:0:
376,152,12492,1,0,0:0:0:0:
340,88,12675,2,0,B|296:52|256:88|216:124|172:88,2,180,0|8|0,0:0|0:0|0:0,0:0:0:0:
376,152,13589,1,0,0:0:0:0:
344,216,13772,1,8,0:0:0:0:
168,216,14138,1,2,0:0:0:0:
136,152,14321,1,0,0:0:0:0:
172,88,14504,1,8,0:0:0:0:
104,216,14870,5,0,0:0:0:0:
220,300,15235,1,8,0:0:0:0:
292,300,15418,1,0,0:0:0:0:
320,236,15601,2,0,B|399:207|399:207|456:186|466:144,2,180,0|8|0,0:0|0:0|0:0,0:0:0:0:
256,204,16516,1,0,0:0:0:0:
192,236,16699,2,0,B|114:207|114:207|57:186|47:144,1,180,8|2,0:0|0:0,0:0:0:0:
172,76,17431,1,8,0:0:0:0:
340,76,17796,5,0,0:0:0:0:
428,192,18162,1,8,0:0:0:0:
388,252,18345,1,0,0:0:0:0:
344,308,18528,2,0,B|256:340|168:308,1,180,0|8,0:0|0:0,0:0:0:0:
124,252,19077,1,0,0:0:0:0:
184,216,19260,2,0,B|200:248|256:272|312:248|328:216,1,170.999993884564,2|8,0:0|0:0,0:0:0:0:
368,144,19809,2,0,B|144:144,1,224.999996647239,0|0,0:0|0:0,0:0:0:0:
84,192,20357,1,8,0:0:0:0:
168,64,20723,6,0,B|216:88|232:52|256:68|280:52|296:88|344:64,1,180,0|8,0:0|0:0,0:0:0:0:
416,80,21272,1,0,0:0:0:0:
484,104,21455,2,0,B|496:152|456:184,2,90,0|8|0,0:0|0:0|0:0,0:0:0:0:
416,80,22004,2,0,B|376:112|388:160,2,90,0|8|0,0:0|0:0|0:0,0:0:0:0:
348,52,22553,1,8,0:0:0:0:
256,160,22918,1,2,0:0:0:0:
164,52,23284,1,8,0:0:0:0:
96,80,23467,1,0,0:0:0:0:
28,108,23650,21,0,0:0:0:0:
100,232,24016,1,8,0:0:0:0:
140,292,24199,1,0,0:0:0:0:
180,352,24382,1,2,0:0:0:0:
256,228,24748,1,8,0:0:0:0:
332,352,25114,1,0,0:0:0:0:
372,292,25297,1,0,0:0:0:0:
412,232,25480,1,8,0:0:0:0:
340,108,25845,2,0,B|256:52|172:108,1,180,2|8,0:0|0:0,0:0:0:0:
68,208,26577,5,0,0:0:0:0:
116,344,26943,2,0,B|67:355|35:319,1,90,8|0,0:0|0:0,0:0:0:0:
92,276,27309,2,0,B|220:164,1,170.999993884564,0|8,0:0|0:0,0:0:0:0:
256,104,27857,1,0,0:0:0:0:
292,164,28040,2,0,B|420:276,1,170.999993884564,0|8,0:0|0:0,0:0:0:0:
477,318,28589,2,0,B|445:355|396:344,1,90,0|2,0:0|0:0,0:0:0:0:
444,208,29138,1,8,0:0:0:0:
472,36,29504,5,0,0:0:0:0:
344,36,29870,2,0,B|316:80|340:120,2,90,8|0|0,0:0|0:0|0:0,0:0:0:0:
168,36,30601,2,0,B|196:80|172:120,2,90,8|0|0,0:0|0:0|0:0,0:0:0:0:
220,172,31333,1,8,0:0:0:0:
292,172,31516,1,0,0:0:0:0:
336,228,31699,2,0,P|256:264|176:228,1,180,2|8,0:0|0:0,0:0:0:0:
36,268,32431,5,0,0:0:0:0:
28,104,32796,1,8,0:0:0:0:
28,104,33162,2,0,B|16:152|56:184,2,90,0|8|0,0:0|0:0|0:0,0:0:0:0:
96,80,33711,2,0,B|136:112|124:160,2,90,0|8|0,0:0|0:0|0:0,0:0:0:0:
40,36,34260,1,0,0:0:0:0:
192,44,34626,1,2,0:0:0:0:
256,80,34809,1,0,0:0:0:0:
320,44,34992,1,8,0:0:0:0:
472,36,35357,21,0,0:0:0:0:
420,88,35540,1,0,0:0:0:0:
368,136,35723,1,2,0:0:0:0:
368,280,36089,1,8,0:0:0:0:
256,128,36455,1,2,0:0:0:0:
256,272,36821,1,0,0:0:0:0:
144,136,37187,1,2,0:0:0:0:
144,280,37553,1,8,0:0:0:0:
88,232,37735,1,0,0:0:0:0:
36,180,37918,1,0,0:0:0:0:
40,36,38284,5,0,0:0:0:0:
92,88,38467,1,0,0:0:0:0:
144,136,38650,1,2,0:0:0:0:
144,280,39016,1,8,0:0:0:0:
256,128,39382,1,2,0:0:0:0:
256,272,39748,1,0,0:0:0:0:
368,136,40114,1,2,0:0:0:0:
368,280,40480,1,8,0:0:0:0:
424,232,40662,1,0,0:0:0:0:
476,180,40845,1,0,0:0:0:0:
472,36,41211,1,0,0:0:0:0:
328,56,41577,6,0,B|312:240,1,180,2|8,0:0|0:0,0:0:0:0:
184,56,42309,2,0,B|200:240,1,180,2|0,0:0|0:0,0:0:0:0:
256,80,43040,1,2,0:0:0:0:
336,200,43406,1,8,0:0:0:0:
176,200,43772,1,0,0:0:0:0:
120,156,43955,6,2,B|88:204|120:248|120:248|72:296|16:304|16:304|72:332|84:376|84:376|156:332|232:368|232:368|276:368|312:344|324:296|288:256,1,630,12|2,0:0|0:0,0:0:0:0:
219,261,45418,2,2,B|188:296|200:344|236:368|280:368|280:368|356:332|428:376|428:376|440:332|496:304|496:304|440:296|392:248|392:248|424:204|392:156,1,630,10|8,0:0|0:0,0:0:0:0:
256,80,47065,21,4,0:0:0:0:
136,220,47431,2,0,B|108:232|112:260|108:284|136:300,1,98.9999970495702,8|0,0:0|0:0,0:0:0:0:
160,368,47796,2,0,B|256:328|352:368,1,197.99999409914,2|8,0:0|0:0,0:0:0:0:
364,292,48345,1,0,0:0:0:0:
376,220,48528,2,2,B|256:184|136:220,1,243.000007966161,2|8,0:0|0:0,0:0:0:0:
120,144,49077,1,0,0:0:0:0:
100,68,49260,1,2,0:0:0:0:
256,44,49626,1,8,0:0:0:0:
412,68,49992,5,0,0:0:0:0:
376,220,50357,2,0,B|404:232|400:260|404:284|376:300,1,98.9999970495702,8|0,0:0|0:0,0:0:0:0:
414,155,50723,2,2,B|376:132|320:136|280:200|308:256,1,197.99999409914,2|8,0:0|0:0,0:0:0:0:
256,312,51272,1,0,0:0:0:0:
204,256,51455,2,2,B|232:200|192:136|136:132|96:156,1,197.99999409914,2|8,0:0|0:0,0:0:0:0:
104,324,52187,37,10,0:0:0:0:
408,324,52553,1,10,0:0:0:0:
444,148,52918,38,0,B|428:92|372:72|316:92|300:148,1,197.99999409914,4|8,0:0|0:0,0:0:0:0:
256,216,53467,1,0,0:0:0:0:
184,248,53650,2,2,B|200:304|256:324|312:304|328:248,1,197.99999409914,2|8,0:0|0:0,0:0:0:0:
256,216,54199,1,0,0:0:0:0:
212,148,54382,2,2,B|196:92|140:72|84:92|68:148,1,197.99999409914,2|8,0:0|0:0,0:0:0:0:
80,228,54931,1,0,0:0:0:0:
116,300,55114,1,2,0:0:0:0:
256,372,55479,1,8,0:0:0:0:
396,300,55845,1,0,0:0:0:0:
480,168,56211,5,8,0:0:0:0:
420,116,56394,1,0,0:0:0:0:
348,84,56577,2,2,B|320:64|296:68|296:68|256:84|256:84|216:100|216:100|192:104|164:84,2,197.99999409914,2|10|2,0:0|0:0|0:0,0:0:0:0:
256,212,57675,1,8,0:0:0:0:
256,212,57857,1,2,0:0:0:0:
92,116,58223,1,2,0:0:0:0:
32,168,58406,1,8,0:0:0:0:
256,212,58772,1,4,0:0:0:0:
484,340,64626,21,4,0:0:0:0:
364,264,64991,1,8,0:0:0:0:
364,192,65174,1,8,0:0:0:0:
324,132,65357,2,0,B|368:96|408:132|448:168|492:132,2,180,2|8|0,0:0|0:0|0:0,0:0:0:0:
256,156,66272,1,2,0:0:0:0:
188,132,66455,2,0,B|144:96|104:132|64:168|20:132,1,180,8|8,0:0|0:0,0:0:0:0:
60,72,67004,1,2,0:0:0:0:
128,48,67187,2,2,P|172:44|224:68,1,90
298,60,67552,6,0,P|340:44|384:48,1,90
452,72,67918,1,8,0:0:0:0:
492,131,68101,1,0,0:0:0:0:
448,188,68284,2,0,B|332:200|332:200|324:232|296:256,1,180,0|8,0:0|0:0,0:0:0:0:
256,192,68833,1,2,0:0:0:0:
213,130,69016,2,0,B|188:152|180:184|180:184|64:196,2,180,0|8|0,0:0|0:0|0:0,0:0:0:0:
256,268,70113,1,8,0:0:0:0:
384,332,70479,5,2,0:0:0:0:
412,192,70845,1,8,0:0:0:0:
380,128,71028,1,0,0:0:0:0:
344,64,71211,2,0,P|256:48|168:64,1,180,0|8,0:0|0:0,0:0:0:0:
132,128,71760,1,2,0:0:0:0:
180,184,71943,2,0,B|224:176|256:220|256:228|288:272|332:264,1,180,0|8,0:0|0:0,0:0:0:0:
332,184,72491,2,0,B|288:176|256:220|256:228|224:272|180:264,1,180,8|0,0:0|0:0,0:0:0:0:
176,336,73040,1,8,0:0:0:0:
336,336,73406,5,0,0:0:0:0:
400,212,73772,1,8,0:0:0:0:
400,212,73955,1,10,0:0:0:0:
256,192,74321,1,8,0:0:0:0:
256,192,74504,1,10,0:0:0:0:
112,172,74869,1,8,0:0:0:0:
112,172,75052,1,10,0:0:0:0:
176,48,75418,1,0,0:0:0:0:
204,116,75601,2,0,P|256:176|308:116,1,180,2|8,0:0|0:0,0:0:0:0:
432,192,76333,21,0,0:0:0:0:
328,292,76699,2,0,B|360:324|360:324|404:324,2,90,8|2|0,0:0|0:0|0:0,0:0:0:0:
184,292,77431,2,0,B|152:324|152:324|108:324,2,90,8|2|0,0:0|0:0|0:0,0:0:0:0:
172,148,78162,2,0,B|222:135|222:135|292:170|292:170|340:156,3,180,8|0|10|0,0:0|0:0|0:0|0:0,0:0:0:0:
448,248,79626,6,0,P|396:256|372:284,1,90,8|2,0:0|0:0,0:0:0:0:
346,349,79991,2,0,L|154:349,1,180,0|8,0:0|0:0,0:0:0:0:
166,204,80723,2,0,L|346:204,1,180,0|10,0:0|0:0,0:0:0:0:
360,132,81272,2,0,B|316:124|316:124|288:80,1,90,2|0,0:0|0:0,0:0:0:0:
220,84,81638,2,0,B|196:122|196:122|152:130,2,90,0|10|2,0:0|0:0|0:0,0:0:0:0:
256,24,82186,1,10,0:0:0:0:
396,52,82552,5,8,0:0:0:0:
432,116,82735,2,0,P|408:168|276:176,1,180
216,194,83284,2,0,P|129:196|80:268,2,180,8|0|8,0:0|0:0|0:0,0:0:0:0:
184,260,84199,1,0,0:0:0:0:
168,328,84382,2,2,B|216:352|232:316|256:332|280:316|296:352|344:328,1,180,2|8,0:0|0:0,0:0:0:0:
416,200,85113,5,0,0:0:0:0:
416,127,85296,2,0,L|512:127,2,90,2|8|0,0:0|0:0|0:0,0:0:0:0:
344,127,85845,2,0,B|248:128|248:128|220:156|220:156|220:200,1,180,2|8,0:0|0:0,0:0:0:0:
292,200,86394,2,0,B|292:156|292:156|264:128|264:128|168:127,1,180,2|8,0:0|0:0,0:0:0:0:
96,127,86943,2,0,L|0:127,3,90,8|8|2|0,0:0|0:0|0:0|0:0,0:0:0:0:
8,56,87674,1,8,0:0:0:0:
32,200,88040,21,0,0:0:0:0:
104,188,88223,1,0,0:0:0:0:
172,168,88406,1,2,0:0:0:0:
172,312,88772,1,8,0:0:0:0:
256,196,89138,1,2,0:0:0:0:
256,340,89504,1,0,0:0:0:0:
340,168,89869,1,2,0:0:0:0:
340,312,90235,1,8,0:0:0:0:
408,332,90418,1,0,0:0:0:0:
480,344,90601,1,0,0:0:0:0:
480,200,90967,5,0,0:0:0:0:
408,188,91150,1,0,0:0:0:0:
340,168,91333,1,2,0:0:0:0:
340,312,91699,1,8,0:0:0:0:
256,196,92065,1,2,0:0:0:0:
256,340,92431,1,0,0:0:0:0:
172,168,92796,1,2,0:0:0:0:
172,312,93162,1,8,0:0:0:0:
104,332,93345,1,0,0:0:0:0:
32,344,93528,1,0,0:0:0:0:
32,200,93894,1,0,0:0:0:0:
124,92,94260,6,0,B|188:160|188:160|188:252,1,180,2|8,0:0|0:0,0:0:0:0:
256,52,94991,2,0,L|256:240,1,180,2|8,0:0|0:0,0:0:0:0:
388,92,95723,2,0,B|324:160|324:160|324:252,2,180,2|8|0,0:0|0:0|0:0,0:0:0:0:
444,140,96638,6,2,B|396:192|396:192|396:248|396:248|444:256|472:288|472:340|472:340|428:376|428:376|396:376|376:364|376:364|352:352|352:352|328:368|328:368|308:352|308:352|284:368|284:368|220:368|184:320|216:272,1,630,12|2,0:0|0:0,0:0:0:0:
296,272,98101,2,2,B|328:320|292:368|228:368|228:368|204:352|204:352|184:368|184:368|160:352|160:352|136:364|136:364|116:376|84:376|84:376|40:340|40:340|40:288|68:256|116:248|116:248|116:192|116:192|68:140,1,630,12|2,0:0|0:0,0:0:0:0:
256,80,99747,21,4,0:0:0:0:
400,164,100113,2,0,B|372:196|372:196|372:252,1,99.0000030212403,8|0,0:0|0:0,0:0:0:0:
344,328,100479,2,0,B|256:376|256:376|168:328,1,198.000006042481,2|8,0:0|0:0,0:0:0:0:
144,256,101028,1,0,0:0:0:0:
140,176,101211,2,2,B|256:152|256:152|372:176,1,237.599999274902,2|8,0:0|0:0,0:0:0:0:
392,100,101760,1,0,0:0:0:0:
408,24,101943,1,2,0:0:0:0:
256,64,102308,1,8,0:0:0:0:
104,24,102674,5,0,0:0:0:0:
76,180,103040,2,0,B|56:224|96:232|76:276,1,99.0000030212403,8|0,0:0|0:0,0:0:0:0:
28,340,103406,2,0,B|80:364|124:344|124:336|168:316|220:340,1,198.000006042481,2|8,0:0|0:0,0:0:0:0:
256,268,103955,1,0,0:0:0:0:
292,340,104138,2,0,B|344:316|388:336|388:344|432:364|484:340,1,198.000006042481,2|8,0:0|0:0,0:0:0:0:
472,180,104869,37,10,0:0:0:0:
40,180,105235,1,10,0:0:0:0:
112,40,105601,38,0,B|144:16|196:24|216:60|216:92|216:116|216:116|216:149,1,198.000006042481,4|8,0:0|0:0,0:0:0:0:
192,224,106150,1,0,0:0:0:0:
172,300,106333,2,0,P|256:344|340:300,1,198.000006042481,2|8,0:0|0:0,0:0:0:0:
320,224,106882,1,0,0:0:0:0:
296,149,107065,2,2,B|296:116|296:116|296:92|296:60|316:24|368:16|400:40,1,198.000006042481,2|8,0:0|0:0,0:0:0:0:
424,124,107613,1,0,0:0:0:0:
396,200,107796,1,2,0:0:0:0:
256,276,108162,1,8,0:0:0:0:
116,200,108528,1,0,0:0:0:0:
44,60,108894,5,8,0:0:0:0:
120,44,109077,1,0,0:0:0:0:
160,112,109260,2,2,B|208:144|256:112|304:80|352:112,2,198.000006042481,2|10|2,0:0|0:0|0:0,0:0:0:0:
256,240,110357,1,8,0:0:0:0:
256,240,110540,1,2,0:0:0:0:
392,44,110906,1,2,0:0:0:0:
468,60,111089,1,8,0:0:0:0:
384,196,111455,21,4,0:0:0:0:
304,332,111821,2,0,P|256:344|208:332,1,99.0000030212403,8|0,0:0|0:0,0:0:0:0:
132,316,112187,2,0,B|132:228|132:228|132:180|160:148|186:139,1,198.000006042481,2|8,0:0|0:0,0:0:0:0:
256,100,112735,1,0,0:0:0:0:
325,139,112918,2,2,B|352:148|380:180|380:228|380:228|380:316,1,198.000006042481,2|8,0:0|0:0,0:0:0:0:
304,292,113467,2,0,P|256:280|208:292,1,99.0000030212403,0|2,0:0|0:0,0:0:0:0:
176,136,114016,1,8,0:0:0:0:
336,136,114382,5,0,0:0:0:0:
468,224,114748,2,0,B|428:252|428:252|428:308,1,99.0000030212403,8|0,0:0|0:0,0:0:0:0:
496,344,115113,2,0,L|296:344,1,198.000006042481,2|8,0:0|0:0,0:0:0:0:
256,276,115662,1,0,0:0:0:0:
212,344,115845,2,0,L|8:344,1,198.000006042481,2|8,0:0|0:0,0:0:0:0:
40,188,116577,37,10,0:0:0:0:
472,188,116943,1,10,0:0:0:0:
348,88,117309,38,0,B|304:72|260:88|260:88|256:92|256:92|256:84|256:84|252:88|252:88|208:104|164:88,1,198.000006042481,4|8,0:0|0:0,0:0:0:0:
96,128,117857,1,0,0:0:0:0:
68,203,118040,2,0,P|102:291|196:301,1,198.000006042481,2|8,0:0|0:0,0:0:0:0:
256,248,118589,1,0,0:0:0:0:
315,301,118772,2,2,P|409:291|443:203,1,198.000006042481,2|8,0:0|0:0,0:0:0:0:
432,120,119321,1,0,0:0:0:0:
392,52,119504,1,2,0:0:0:0:
256,132,119869,1,8,0:0:0:0:
120,52,120235,1,0,0:0:0:0:
112,212,120601,5,8,0:0:0:0:
136,288,120784,1,0,0:0:0:0:
176,356,120967,2,2,B|236:372|236:372|276:308|276:308|336:324,2,198.000006042481,2|10|2,0:0|0:0|0:0,0:0:0:0:
256,216,122065,1,8,0:0:0:0:
256,216,122247,1,2,0:0:0:0:
400,212,122613,1,2,0:0:0:0:
376,288,122796,1,8,0:0:0:0:
256,364,123162,1,4,0:0:0:0:
256,112,129021,21,0,0:0:0:0:
256,192,129203,1,2,0:0:0:0:
256,272,129385,2,0,P|332:316|424:300,2,180,8|0|8,0:0|0:0|0:0,0:0:0:0:
256,192,130296,1,2,0:0:0:0:
256,112,130479,2,0,P|180:68|88:84,1,180,0|8,0:0|0:0,0:0:0:0:
60,240,131201,1,0,0:0:0:0:
112,304,131385,1,2,0:0:0:0:
172,360,131569,2,0,B|216:396|256:360|296:324|340:360,1,180,8|8,0:0|0:0,0:0:0:0:
400,304,132120,5,2,0:0:0:0:
452,240,132303,2,0,P|416:160|332:160,2,180,8|0|8,0:0|0:0|0:0,0:0:0:0:
372,232,133221,1,2,0:0:0:0:
292,224,133405,2,0,P|328:304|412:304,1,180,0|8,0:0|0:0,0:0:0:0:
452,148,134126,2,0,B|452:108|452:108|460:92|460:92|460:52,1,90,0|2,0:0|0:0,0:0:0:0:
388,24,134494,2,0,B|388:64|388:64|380:80|380:80|380:120,1,90,8|0,0:0|0:0,0:0:0:0:
364,192,134862,5,0,0:0:0:0:
324,264,135044,1,2,0:0:0:0:
245,266,135226,2,0,B|213:258|191:233|191:233|83:275,2,180,8|0|8,0:0|0:0|0:0,0:0:0:0:
256,192,136138,1,2,0:0:0:0:
266,117,136321,2,0,B|298:125|320:150|320:150|428:108,1,180,0|8,0:0|0:0,0:0:0:0:
364,256,137067,5,0,0:0:0:0:
296,296,137248,1,2,0:0:0:0:
216,296,137430,1,8,0:0:0:0:
148,256,137612,1,0,0:0:0:0:
96,192,137794,22,0,B|107:120|107:120|116:61|175:46,1,180,0|8,0:0|0:0,0:0:0:0:
336,46,138525,2,0,B|395:61|404:120|404:120|416:192,1,180,0|8,0:0|0:0,0:0:0:0:
332,200,139074,2,0,B|288:192|256:236|256:244|224:288|180:280,2,180,2|0|2,0:0|0:0|0:0,0:0:0:0:
332,280,139990,2,0,B|288:288|256:244|256:236|224:192|180:200,1,180,0|8,0:0|0:0,0:0:0:0:
96,60,140709,5,0,0:0:0:0:
256,28,141075,1,8,0:0:0:0:
416,60,141441,2,0,B|416:136|416:136|352:148|333:192,1,180,0|8,0:0|0:0,0:0:0:0:
340,267,141990,1,2,0:0:0:0:
340,267,142354,2,0,B|284:251|284:251|256:267|256:267|228:283|228:283|172:267,1,180,2|0,0:0|0:0,0:0:0:0:
178,192,142899,2,0,B|160:148|96:136|96:136|96:60,1,180,0|8,0:0|0:0,0:0:0:0:
96,224,143636,5,0,0:0:0:0:
160,372,144002,1,8,0:0:0:0:
312,312,144369,2,0,B|380:278|380:278|400:246|400:246|468:213,1,180,0|8,0:0|0:0,0:0:0:0:
412,152,144920,1,2,0:0:0:0:
256,104,145283,1,0,0:0:0:0:
100,152,145643,1,2,0:0:0:0:
52,217,145823,2,0,B|111:246|111:246|131:278|131:278|200:312,1,180,0|8,0:0|0:0,0:0:0:0:
256,160,146539,5,2,0:0:0:0:
16,64,149503,21,0,0:0:0:0:
16,64,149686,2,0,L|208:64,1,180,2|0,0:0|0:0,0:0:0:0:
260,96,150234,2,0,P|160:104|136:168,1,180,10|0,0:0|0:0,0:0:0:0:
96,228,150783,2,0,B|140:264|180:228|220:192|264:228,1,180,2|0,0:0|0:0,0:0:0:0:
328,196,151332,2,0,B|304:260|304:260|264:276|264:276|244:344,1,180,10|0,0:0|0:0,0:0:0:0:
176,368,151881,1,8,0:0:0:0:
176,368,152064,1,8,0:0:0:0:
44,308,152429,5,0,0:0:0:0:
44,308,152612,2,0,B|67:269|121:275|127:280|181:286|205:248,1,180,2|0,0:0|0:0,0:0:0:0:
145,195,153161,2,0,B|109:222|120:275|126:280|138:334|102:361,1,180,10|0,0:0|0:0,0:0:0:0:
44,308,153710,2,0,P|40:212|72:136,1,180,2|0,0:0|0:0,0:0:0:0:
32,76,154259,2,0,B|111:88|111:88|114:93|114:93|115:85|115:85|118:89|118:89|197:102,1,180,10|0,0:0|0:0,0:0:0:0:
272,120,154807,1,8,0:0:0:0:
272,120,154990,1,8,0:0:0:0:
348,244,155356,5,0,0:0:0:0:
340,316,155539,2,0,P|256:344|172:316,1,180,2|0,0:0|0:0,0:0:0:0:
164,244,156088,1,10,0:0:0:0:
168,100,156454,1,0,0:0:0:0:
168,28,156637,2,0,B|216:4|232:40|256:24|280:40|296:4|344:28,1,180,2|8,0:0|0:0,0:0:0:0:
344,100,157185,1,10,0:0:0:0:
328,244,157551,1,0,0:0:0:0:
256,264,157734,1,8,0:0:0:0:
184,244,157917,1,8,0:0:0:0:
76,156,158283,5,0,0:0:0:0:
76,156,158466,1,6,0:0:0:0:
180,56,158832,1,0,0:0:0:0:
180,56,159015,1,6,0:0:0:0:
332,56,159381,1,0,0:0:0:0:
332,56,159564,1,6,0:0:0:0:
436,156,159929,1,0,0:0:0:0:
436,156,160112,1,6,0:0:0:0:
256,80,161210,21,4,0:0:0:0:
376,220,161576,2,0,B|404:232|400:260|404:284|376:300,1,98.9999970495702,8|0,0:0|0:0,0:0:0:0:
352,368,161942,2,0,B|256:328|160:368,1,197.99999409914,2|8,0:0|0:0,0:0:0:0:
148,292,162490,1,0,0:0:0:0:
135,219,162673,2,2,P|256:204|375:219,1,243.000000926971,2|8,0:0|0:0,0:0:0:0:
392,144,163222,1,0,0:0:0:0:
412,68,163405,1,2,0:0:0:0:
256,44,163771,1,8,0:0:0:0:
100,68,164137,5,0,0:0:0:0:
136,220,164503,2,0,B|108:232|112:260|108:284|136:300,1,98.9999970495702,8|0,0:0|0:0,0:0:0:0:
97,155,164868,2,2,B|136:132|192:136|232:200|204:256,1,197.99999409914,2|8,0:0|0:0,0:0:0:0:
256,312,165417,1,0,0:0:0:0:
308,256,165600,2,2,B|280:200|320:136|376:132|416:156,1,197.99999409914,2|8,0:0|0:0,0:0:0:0:
472,304,166332,37,10,0:0:0:0:
40,304,166698,1,10,0:0:0:0:
68,148,167064,38,0,B|84:92|140:72|196:92|212:148,1,197.99999409914,4|8,0:0|0:0,0:0:0:0:
256,216,167612,1,0,0:0:0:0:
328,248,167795,2,2,B|312:304|256:324|200:304|184:248,1,197.99999409914,2|8,0:0|0:0,0:0:0:0:
256,216,168344,1,0,0:0:0:0:
300,148,168527,2,2,B|316:92|372:72|428:92|444:148,1,197.99999409914,2|8,0:0|0:0,0:0:0:0:
432,228,169076,1,0,0:0:0:0:
396,300,169259,1,2,0:0:0:0:
256,372,169624,1,8,0:0:0:0:
116,300,169990,1,0,0:0:0:0:
32,168,170356,5,8,0:0:0:0:
92,116,170539,1,0,0:0:0:0:
164,84,170722,2,2,B|192:64|216:68|216:68|256:84|256:84|296:100|296:100|320:104|348:84,2,197.99999409914,2|10|2,0:0|0:0|0:0,0:0:0:0:
256,212,171820,1,8,0:0:0:0:
256,212,172002,1,2,0:0:0:0:
420,116,172368,1,2,0:0:0:0:
480,168,172551,1,8,0:0:0:0:
256,80,172917,21,4,0:0:0:0:
112,164,173283,2,0,B|140:196|140:196|140:252,1,99.0000030212403,8|0,0:0|0:0,0:0:0:0:
168,328,173649,2,0,B|256:376|256:376|344:328,1,198.000006042481,2|8,0:0|0:0,0:0:0:0:
368,256,174198,1,0,0:0:0:0:
372,176,174381,2,2,B|256:152|256:152|140:176,1,237.599999274902,2|8,0:0|0:0,0:0:0:0:
120,100,174930,1,0,0:0:0:0:
104,24,175113,1,2,0:0:0:0:
256,64,175478,1,8,0:0:0:0:
408,24,175844,5,0,0:0:0:0:
436,180,176210,2,0,B|456:224|416:232|436:276,1,99.0000030212403,8|0,0:0|0:0,0:0:0:0:
484,340,176576,2,0,B|432:364|388:344|388:336|344:316|292:340,1,198.000006042481,2|8,0:0|0:0,0:0:0:0:
256,268,177125,1,0,0:0:0:0:
220,340,177308,2,0,B|168:316|124:336|124:344|80:364|28:340,1,198.000006042481,2|8,0:0|0:0,0:0:0:0:
40,180,178039,37,10,0:0:0:0:
472,180,178405,1,10,0:0:0:0:
400,40,178771,38,0,B|368:16|316:24|296:60|296:92|296:116|296:116|296:149,1,198.000006042481,4|8,0:0|0:0,0:0:0:0:
320,224,179320,1,0,0:0:0:0:
340,300,179503,2,0,P|256:344|172:300,1,198.000006042481,2|8,0:0|0:0,0:0:0:0:
192,224,180052,1,0,0:0:0:0:
216,149,180235,2,2,B|216:116|216:116|216:92|216:60|196:24|144:16|112:40,1,198.000006042481,2|8,0:0|0:0,0:0:0:0:
88,124,180783,1,0,0:0:0:0:
116,200,180966,1,2,0:0:0:0:
256,276,181332,1,8,0:0:0:0:
396,200,181698,1,0,0:0:0:0:
468,60,182064,5,8,0:0:0:0:
392,44,182247,1,0,0:0:0:0:
352,112,182430,2,2,B|304:144|256:112|208:80|160:112,2,198.000006042481,2|10|2,0:0|0:0|0:0,0:0:0:0:
256,240,183527,1,8,0:0:0:0:
256,240,183710,1,2,0:0:0:0:
120,44,184076,1,2,0:0:0:0:
44,60,184259,1,8,0:0:0:0:
128,176,184624,21,0,0:0:0:0:
166,236,184808,2,0,L|358:236,1,180,2|0,0:0|0:0,0:0:0:0:
388,296,185356,2,0,P|488:288|512:224,1,180,10|0,0:0|0:0,0:0:0:0:
500,152,185905,2,0,B|456:116|416:152|376:188|332:152,1,180,2|0,0:0|0:0,0:0:0:0:
316,80,186454,2,0,B|300:40|300:40|256:24|256:24|212:40|212:40|196:80,1,180,10|0,0:0|0:0,0:0:0:0:
260,124,187002,1,8,0:0:0:0:
260,124,187185,1,8,0:0:0:0:
256,268,187552,5,4,0:0:0:0:
256,192,187734,12,0,191576,0:0:0:0:
