osu file format v14

[General]
AudioFilename: Celebrity Status.mp3
AudioLeadIn: 0
PreviewTime: 47065
Countdown: 0
SampleSet: Soft
StackLeniency: 0.7
Mode: 0
LetterboxInBreaks: 0
EpilepsyWarning: 1
WidescreenStoryboard: 1

[Editor]
DistanceSpacing: 0.4
BeatDivisor: 4
GridSize: 4
TimelineZoom: 2.999999

[Metadata]
Title:Celebrity Status
TitleUnicode:Celebrity Status
Artist:Marianas Trench
ArtistUnicode:Marianas Trench
Creator:Krisom
Version:Extra
Source:
Tags:pop punk rock english Masterpiece Theatre
BeatmapID:152185
BeatmapSetID:49351

[Difficulty]
HPDrainRate:6.3
CircleSize:4.8
OverallDifficulty:8
ApproachRate:9
SliderMultiplier:2.32
SliderTickRate:2

[Events]
//Background and Video events
0,0,"BG.jpg",0,0
//Break Periods
2,58972,64026
2,123362,128421
2,146739,148902
//Storyboard Layer 0 (Background)
//Storyboard Layer 1 (Fail)
//Storyboard Layer 2 (Pass)
//Storyboard Layer 3 (Foreground)
//Storyboard Layer 4 (Overlay)
//Storyboard Sound Samples

[TimingPoints]
236,365.853658536585,4,1,2,80,1,0
47065,-86.9565217391304,4,1,2,80,0,1
58772,-86.9565217391304,4,1,2,80,0,0
64534,-100,4,1,2,80,0,0
64717,-100,4,2,2,80,0,0
66912,-100,4,1,2,80,0,0
76973,-86.9565217391304,4,1,2,80,0,0
77522,-100,4,1,2,80,0,0
82095,-86.9565217391304,4,1,2,80,0,0
82644,-100,4,1,2,80,0,0
99748,-86.9565217391304,4,1,2,80,0,1
123162,366.188587122368,4,1,2,80,1,0
123162,-100,4,1,2,80,0,0
128924,-100,4,1,1,80,0,0
129021,364.409353173398,4,1,2,80,1,0
129107,-100,4,2,0,80,0,0
129290,-100,4,1,1,80,0,0
129565,-100,4,2,0,80,0,0
129656,-100,4,1,1,80,0,0
129930,-100,4,2,0,80,0,0
130022,-100,4,1,1,80,0,0
130296,-100,4,2,0,80,0,0
130388,-100,4,1,1,80,0,0
130479,361.3369467028,4,1,2,80,1,0
130936,-100,4,2,0,80,0,0
131202,367.534456355283,4,1,1,80,1,0
131394,-100,4,2,0,80,0,0
131485,-100,4,1,2,80,0,0
131760,-100,4,2,0,80,0,0
131851,-100,4,1,1,80,0,0
131937,366.97247706422,4,1,2,80,1,0
132034,-100,4,2,0,80,0,0
132217,-100,4,1,1,80,0,0
132491,-100,4,2,0,80,0,0
132583,-100,4,1,1,80,0,0
132857,-100,4,2,0,80,0,0
132949,-100,4,1,1,80,0,0
133223,-100,4,2,0,80,0,0
133405,360.36036036036,4,1,1,80,1,0
133863,-100,4,2,0,80,0,0
134126,368.211107701749,4,1,1,80,1,0
134229,-100,4,2,0,80,0,0
134412,-100,4,1,2,80,0,0
134595,-100,4,2,0,80,0,0
134778,-100,4,1,1,80,0,0
134862,364.741641337385,4,1,2,80,1,0
134961,-100,4,2,0,80,0,0
135144,-100,4,1,1,80,0,0
135418,-100,4,2,0,80,0,0
135510,-100,4,1,1,80,0,0
135784,-100,4,2,0,80,0,0
135875,-100,4,1,1,80,0,0
136150,-100,4,2,0,80,0,0
136241,-100,4,1,1,80,0,0
136321,373.018340068387,4,1,2,80,1,0
136607,-100,4,1,2,80,0,0
136790,-100,4,2,0,80,0,0
137067,363.636363636364,4,1,1,80,1,0
137156,-100,4,2,0,80,0,0
137339,-100,4,1,2,80,0,0
137522,-100,4,2,0,80,0,0
137750,-100,4,1,1,80,0,0
137794,365.742151782993,4,1,2,80,1,0
137888,-100,4,2,0,80,0,0
138071,-100,4,1,1,80,0,0
138345,-100,4,2,0,80,0,0
138436,-100,4,1,1,80,0,0
138711,-100,4,2,0,80,0,0
138802,-100,4,1,1,80,0,0
139077,-100,4,2,0,80,0,0
139168,-100,4,1,1,80,0,0
139257,366.524129505192,4,1,2,80,1,0
139351,-100,4,2,0,80,0,0
139534,-100,4,1,1,80,0,0
139717,-100,4,2,0,80,0,0
139990,359.604435121367,4,1,1,80,1,0
140083,-100,4,2,0,80,0,0
140311,-100,4,1,2,80,0,0
140632,-100,4,1,1,80,0,0
140710,365.742151782993,4,1,2,80,1,0
140906,-100,4,2,0,80,0,0
140997,-100,4,1,1,80,0,0
141272,-100,4,2,0,80,0,0
141363,-100,4,1,1,80,0,0
141638,-100,4,2,0,80,0,0
141729,-100,4,1,1,80,0,0
142004,-100,4,2,0,80,0,0
142095,-100,4,1,1,80,0,0
142173,362.537764350453,4,1,2,80,1,0
142278,-100,4,2,0,80,0,0
142461,-100,4,1,1,80,0,0
142644,-100,4,2,0,80,0,0
142899,368.550368550369,4,1,1,80,1,0
143010,-100,4,2,0,80,0,0
143193,-100,4,1,2,80,0,0
143375,-100,4,2,0,80,0,0
143558,-100,4,1,1,80,0,0
143636,366.97247706422,4,1,1,80,1,0
145104,359.712230215828,4,1,1,80,1,0
145205,-100,4,2,0,80,0,0
145388,-100,4,1,1,80,0,0
145571,-100,4,2,0,80,0,0
145823,358.208955223881,4,1,1,80,1,0
145936,-100,4,2,0,80,0,0
146165,-100,4,1,2,80,0,0
146302,-100,4,2,0,80,0,0
146485,-100,4,1,1,80,0,0
146539,370.484717505403,4,1,1,80,1,0
149321,-100,4,1,2,80,0,0
149503,365.853658536585,4,1,2,80,1,0
149595,-100,4,1,1,80,0,0
149778,-100,4,1,2,80,0,0
150693,-100,4,1,1,80,0,0
150875,-100,4,1,2,80,0,0
152522,-100,4,1,1,80,0,0
152705,-100,4,1,2,80,0,0
153619,-100,4,1,1,80,0,0
153802,-100,4,1,2,80,0,0
155449,-100,4,2,0,80,0,0
155632,-100,4,1,2,80,0,0
156546,-100,4,2,0,80,0,0
156729,-100,4,1,2,80,0,0
159015,-129.87012987013,4,1,2,80,0,0
159382,-100,4,1,2,80,0,0
161210,-86.9565217391304,4,1,2,80,0,1
161302,-86.9565217391304,4,2,0,80,0,1
161485,-86.9565217391304,4,1,2,80,0,1
164321,-86.9565217391304,4,1,1,80,0,1
164412,-86.9565217391304,4,1,2,80,0,1
167156,-86.9565217391304,4,1,1,80,0,1
167339,-86.9565217391304,4,1,2,80,0,1
173010,-86.9565217391304,4,1,1,80,0,1
173193,-86.9565217391304,4,1,2,80,0,1
176028,-86.9565217391304,4,1,1,80,0,1
176119,-86.9565217391304,4,1,2,80,0,1
178863,-86.9565217391304,4,1,1,80,0,1
179046,-86.9565217391304,4,1,2,80,0,1
184624,-100,4,1,2,80,0,0
184717,-100,4,1,1,80,0,0
184900,-100,4,1,2,80,0,0
185815,-100,4,1,1,80,0,0
185997,-100,4,1,2,80,0,0
190113,-100,4,1,2,70,0,0
190296,-100,4,1,2,60,0,0
190479,-100,4,1,2,50,0,0
190662,-100,4,1,2,40,0,0
190845,-100,4,1,2,30,0,0
191028,-100,4,1,2,20,0,0
191211,-100,4,1,2,10,0,0
191394,-100,4,1,2,5,0,0

[Colours]
Combo1 : 105,49,168
Combo2 : 244,37,0
Combo3 : 21,196,78
Combo4 : 7,74,252
Combo5 : 255,202,40
SliderBorder : 63,63,63

[HitObjects]
207,178,11943,5,12,0:0:0:0:
304,81,12126,1,0,0:0:0:0:
207,81,12309,1,8,0:0:0:0:
304,178,12492,1,0,0:0:0:0:
304,276,12675,2,0,B|322:338|392:360|462:338|480:276,2,232,0|8|0,0:0|0:0|0:0,0:0:0:0:
256,192,13589,1,0,0:0:0:0:
207,108,13772,2,0,B|190:46|119:24|49:46|31:108,1,232,8|0,0:0|0:0,0:0:0:0:
44,205,14321,1,0,0:0:0:0:
58,302,14504,1,8,0:0:0:0:
154,288,14687,1,0,0:0:0:0:
256,283,14870,5,0,0:0:0:0:
322,200,15053,1,0,0:0:0:0:
190,200,15235,1,8,0:0:0:0:
256,130,15418,1,0,0:0:0:0:
326,59,15601,2,0,B|273:7|188:24|154:86|157:130,2,232,0|8|0,0:0|0:0|0:0,0:0:0:0:
328,156,16516,1,0,0:0:0:0:
344,244,16699,2,0,B|379:244|379:244|410:271|410:271|449:271,1,116,8|0,0:0|0:0,0:0:0:0:
256,271,17065,2,0,B|247:310|247:310|264:350|264:350|256:381,1,116
168,244,17431,2,0,B|132:244|132:244|102:271|102:271|62:271,1,116,8|0,0:0|0:0,0:0:0:0:
13,192,17796,6,0,B|16:148|52:84|144:76|188:132,1,232,0|8,0:0|0:0,0:0:0:0:
115,196,18345,1,0,0:0:0:0:
44,260,18528,2,0,B|82:316|174:308|216:244|212:200,1,232,0|8,0:0|0:0,0:0:0:0:
168,112,19077,1,0,0:0:0:0:
256,64,19260,1,0,0:0:0:0:
344,16,19443,1,0,0:0:0:0:
168,16,19626,1,8,0:0:0:0:
256,64,19809,1,0,0:0:0:0:
344,112,19992,1,0,0:0:0:0:
420,176,20175,2,0,B|452:208|452:208|479:210|479:210|510:241,2,116,8|0|0,0:0|0:0|0:0,0:0:0:0:
352,248,20723,6,0,B|321:308|255:300,1,116
160,136,21089,2,0,B|190:75|256:83,1,116,8|0,0:0|0:0,0:0:0:0:
308,168,21455,1,0,0:0:0:0:
404,144,21638,1,8,0:0:0:0:
500,120,21821,1,0,0:0:0:0:
320,240,22004,1,0,0:0:0:0:
416,216,22187,1,8,0:0:0:0:
512,192,22370,1,0,0:0:0:0:
332,312,22553,2,0,B|380:356|444:332,1,116
256,272,22918,2,0,B|224:304|256:324|288:344|256:376,1,116,8|8,0:0|0:0,0:0:0:0:
180,312,23284,2,0,B|132:356|68:332,1,116,8|0,0:0|0:0,0:0:0:0:
256,192,23650,21,0,0:0:0:0:
203,117,23833,2,0,B|256:76|308:117,2,116,0|8|0,0:0|0:0|0:0,0:0:0:0:
150,42,24382,2,0,B|256:-40|361:42,2,232,0|8|0,0:0|0:0|0:0,0:0:0:0:
115,126,25296,1,0,0:0:0:0:
84,214,25479,1,8,0:0:0:0:
396,126,25845,1,0,0:0:0:0:
427,214,26028,1,0,0:0:0:0:
308,156,26211,1,8,0:0:0:0:
339,244,26394,1,0,0:0:0:0:
203,156,26577,5,0,0:0:0:0:
172,244,26760,2,0,B|128:244|128:244|102:262|102:262|62:262,2,116,0|8|0,0:0|0:0|0:0,0:0:0:0:
203,332,27309,2,0,B|159:359|159:359|93:359,1,116
308,332,27675,2,0,B|352:359|352:359|418:359,1,116,8|0,0:0|0:0,0:0:0:0:
339,244,28040,2,0,B|383:244|383:244|410:262|410:262|449:262,1,116
436,165,28406,1,8,0:0:0:0:
392,77,28589,1,0,0:0:0:0:
304,29,28772,1,0,0:0:0:0:
207,29,28955,1,0,0:0:0:0:
119,77,29138,1,8,0:0:0:0:
75,165,29321,1,0,0:0:0:0:
168,205,29504,6,0,B|188:144|256:120|324:144|344:205,1,232,0|8,0:0|0:0,0:0:0:0:
256,244,30053,1,0,0:0:0:0:
168,288,30235,2,0,B|115:302|88:368|88:368|62:302|9:288,1,232,0|8,0:0|0:0,0:0:0:0:
256,332,30784,1,0,0:0:0:0:
344,288,30967,2,0,B|396:302|423:368|423:368|449:302|502:288,1,232,0|8,0:0|0:0,0:0:0:0:
432,236,31516,1,0,0:0:0:0:
335,126,31699,1,0,0:0:0:0:
476,161,31882,1,8,0:0:0:0:
344,208,32065,1,8,0:0:0:0:
418,95,32248,1,0,0:0:0:0:
504,48,32431,6,0,B|476:12|476:12|404:12,1,116
320,60,32796,2,0,B|348:96|348:96|420:96,1,116,8|0,0:0|0:0,0:0:0:0:
476,160,33162,1,0,0:0:0:0:
380,172,33345,1,8,0:0:0:0:
280,184,33528,1,0,0:0:0:0:
456,244,33711,1,0,0:0:0:0:
360,256,33894,1,8,0:0:0:0:
260,268,34077,1,0,0:0:0:0:
203,332,34260,2,0,B|181:271|110:280,1,116
260,268,34626,2,0,B|238:228|282:210|260:153,1,116,8|8,0:0|0:0,0:0:0:0:
308,332,34992,2,0,B|330:271|401:280,1,116,2|0,0:0|0:0,0:0:0:0:
423,192,35357,21,0,0:0:0:0:
445,104,35540,1,0,0:0:0:0:
467,15,35723,1,2,0:0:0:0:
467,368,36089,1,8,0:0:0:0:
256,15,36455,1,2,0:0:0:0:
256,368,36821,1,0,0:0:0:0:
44,15,37187,1,2,0:0:0:0:
44,368,37553,1,8,0:0:0:0:
66,280,37735,1,0,0:0:0:0:
88,192,37918,1,0,0:0:0:0:
88,192,38284,5,0,0:0:0:0:
66,104,38467,1,0,0:0:0:0:
44,15,38650,1,2,0:0:0:0:
44,368,39016,1,8,0:0:0:0:
256,15,39382,1,2,0:0:0:0:
256,368,39748,1,0,0:0:0:0:
467,15,40114,1,2,0:0:0:0:
467,368,40479,1,8,0:0:0:0:
445,280,40662,1,0,0:0:0:0:
423,192,40845,1,0,0:0:0:0:
445,104,41028,1,0,0:0:0:0:
467,15,41211,1,0,0:0:0:0:
256,40,41577,5,2,0:0:0:0:
352,344,41943,1,8,0:0:0:0:
352,40,42309,1,2,0:0:0:0:
160,344,42675,1,0,0:0:0:0:
160,40,43040,1,2,0:0:0:0:
352,344,43406,2,0,B|302:386|232:376|188:320|200:256,1,232,8|0,0:0|0:0,0:0:0:0:
312,256,43955,6,0,B|324:320|280:376|209:386|159:344,1,232,4|0,0:0|0:0,0:0:0:0:
72,340,44504,2,8,B|32:288|72:232,1,116
152,140,44870,2,0,B|196:192|152:244,1,116
71,151,45235,2,8,B|32:96|72:44,1,116,8|0,0:0|0:0,0:0:0:0:
172,36,45601,1,0,0:0:0:0:
304,114,45784,1,8,0:0:0:0:
207,114,45967,1,8,0:0:0:0:
340,36,46150,1,0,0:0:0:0:
256,192,46333,1,8,0:0:0:0:
256,211,46425,1,8,0:0:0:0:
256,230,46516,1,8,0:0:0:0:
256,250,46607,1,8,0:0:0:0:
256,269,46699,1,8,0:0:0:0:
256,288,46790,1,0,0:0:0:0:
256,308,46882,1,0,0:0:0:0:
256,327,46973,1,0,0:0:0:0:
256,348,47065,21,12,0:0:0:0:
132,196,47431,2,0,B|84:136|132:73,1,133.400004373193,8|0,0:0|0:0,0:0:0:0:
304,15,47796,1,2,0:0:0:0:
207,15,47979,1,0,0:0:0:0:
380,74,48162,2,0,B|428:136|379:196,1,133.400004373193,8|0,0:0|0:0,0:0:0:0:
383,293,48528,2,2,B|317:337|256:292|194:249|128:293,1,266.800008746386,2|8,0:0|0:0,0:0:0:0:
168,200,49077,1,0,0:0:0:0:
207,112,49260,2,0,B|150:64|84:104,1,133.400004373193,8|0,0:0|0:0,0:0:0:0:
304,112,49626,2,8,B|361:64|427:104,1,133.400004373193
304,214,49992,5,0,0:0:0:0:
332,324,50175,1,0,0:0:0:0:
208,214,50357,1,8,0:0:0:0:
180,324,50540,1,0,0:0:0:0:
150,152,50723,2,2,B|172:92|256:52|340:92|361:152,1,266.800008746386,2|8,0:0|0:0,0:0:0:0:
427,95,51272,1,0,0:0:0:0:
356,32,51455,1,0,0:0:0:0:
256,7,51638,1,0,0:0:0:0:
156,32,51821,1,8,0:0:0:0:
84,95,52004,1,0,0:0:0:0:
181,161,52187,37,2,0:0:0:0:
330,306,52370,1,2,0:0:0:0:
330,161,52553,1,2,0:0:0:0:
181,306,52735,1,2,0:0:0:0:
256,86,52918,37,4,0:0:0:0:
454,99,53284,1,8,0:0:0:0:
467,196,53467,1,0,0:0:0:0:
484,293,53650,2,0,B|460:356|380:392|300:356|273:293,1,266.800008746386,2|8,0:0|0:0,0:0:0:0:
256,192,54199,1,0,0:0:0:0:
238,90,54382,2,2,B|212:28|132:-8|52:28|27:90,1,266.800008746386,2|8,0:0|0:0,0:0:0:0:
44,187,54931,1,0,0:0:0:0:
137,222,55114,2,0,B|188:268|188:268|188:336,1,133.400004373193,8|0,0:0|0:0,0:0:0:0:
374,222,55479,2,8,B|324:268|324:268|324:336,1,133.400004373193
168,148,55845,6,0,B|228:200|228:200|236:168|236:168|256:160|256:160|276:168|276:168|284:200|284:200|344:148,1,266.800005088806,0|8,0:0|0:0,0:0:0:0:
464,180,56394,1,0,0:0:0:0:
500,72,56577,2,0,B|456:12|380:40,1,133.400004373193,2|0,0:0|0:0,0:0:0:0:
344,148,56943,2,0,B|391:208|462:178,1,133.400004373193,8|0,0:0|0:0,0:0:0:0:
381,39,57309,1,0,0:0:0:0:
200,96,57492,1,8,0:0:0:0:
312,96,57675,1,8,0:0:0:0:
131,39,57857,1,0,0:0:0:0:
84,96,58040,5,8,0:0:0:0:
60,104,58132,1,8,0:0:0:0:
36,112,58223,1,8,0:0:0:0:
12,120,58315,1,0,0:0:0:0:
20,144,58406,1,8,0:0:0:0:
28,168,58498,1,0,0:0:0:0:
36,192,58589,1,0,0:0:0:0:
44,216,58681,1,0,0:0:0:0:
56,240,58772,1,12,0:0:0:0:
256,341,64626,5,4,0:0:0:0:
212,266,64809,1,0,0:0:0:0:
300,266,64992,1,8,0:0:0:0:
256,192,65175,1,8,0:0:0:0:
300,117,65357,2,0,B|374:135|406:85|437:34|512:52,2,232,2|8|0,0:0|0:0|0:0,0:0:0:0:
256,192,66272,1,2,0:0:0:0:
212,266,66455,2,0,B|137:248|105:298|74:349|0:331,1,232,8|0,0:0|0:0,0:0:0:0:
24,236,67004,1,8,0:0:0:0:
24,236,67187,2,2,B|6:180|46:119|125:105|173:158,1,232,10|4,0:0|0:0,0:0:0:0:
124,244,67735,5,0,0:0:0:0:
160,336,67918,1,8,0:0:0:0:
256,352,68101,1,0,0:0:0:0:
313,258,68284,2,0,B|361:214|420:244,1,116
198,258,68650,2,0,B|150:214|92:244,1,116,8|0,0:0|0:0,0:0:0:0:
256,192,69016,2,0,B|256:72,1,116
317,11,69382,1,8,0:0:0:0:
194,11,69565,1,0,0:0:0:0:
328,88,69748,1,0,0:0:0:0:
184,88,69931,1,0,0:0:0:0:
320,160,70114,1,8,0:0:0:0:
192,160,70296,1,8,0:0:0:0:
144,244,70479,5,0,0:0:0:0:
120,340,70662,1,0,0:0:0:0:
48,220,70845,1,8,0:0:0:0:
24,316,71028,1,0,0:0:0:0:
144,244,71211,2,0,B|256:192|368:244,1,232,2|8,0:2|0:0,0:0:0:0:
488,316,71760,1,0,0:0:0:0:
392,340,71943,1,0,0:0:0:0:
464,220,72126,1,0,0:0:0:0:
424,128,72309,2,0,B|364:128|364:128|320:92,1,116,8|0,0:0|0:0,0:0:0:0:
256,236,72675,2,0,B|247:192|247:192|260:165|260:165|256:117,1,116
88,128,73040,2,0,B|148:128|148:128|192:92,1,116,8|0,0:0|0:0,0:0:0:0:
256,20,73406,5,4,0:0:0:0:
460,340,73772,1,0,0:0:0:0:
504,252,73955,1,8,0:0:0:0:
52,340,74321,1,0,0:0:0:0:
8,252,74504,1,8,0:0:0:0:
256,20,74870,1,0,0:0:0:0:
256,20,75053,1,8,0:0:0:0:
176,276,75418,1,0,0:0:0:0:
304,364,75601,1,2,0:0:0:0:
256,220,75784,1,0,0:0:0:0:
208,364,75967,1,8,0:0:0:0:
336,276,76150,1,8,0:0:0:0:
496,172,76333,22,0,B|456:108|456:108|416:112|376:108|376:108|336:172,1,232,0|8,0:0|0:0,0:0:0:0:
336,276,76882,1,2,0:0:0:0:
336,171,77065,2,0,B|305:92|305:92|256:96|208:92|208:92|177:171,1,266.800008746386,0|8,0:0|0:0,0:0:0:0:
176,276,77614,1,2,0:0:0:0:
176,172,77796,2,0,B|136:108|136:108|96:112|56:108|56:108|16:172,1,232,0|8,0:0|0:0,0:0:0:0:
104,220,78345,1,2,0:0:0:0:
156,336,78528,1,0,0:0:0:0:
256,212,78711,1,0,0:0:0:0:
356,336,78894,1,8,0:0:0:0:
408,220,79077,1,8,0:0:0:0:
256,348,79260,1,0,0:0:0:0:
339,148,79626,5,8,0:0:0:0:
484,183,79809,1,2,0:0:0:0:
439,48,79992,1,0,0:0:0:0:
404,203,80175,1,0,0:0:0:0:
505,95,80357,1,8,0:0:0:0:
359,62,80540,1,8,0:0:0:0:
484,183,80723,2,2,B|502:237|464:300|383:310|336:256,1,232,2|8,0:0|0:0,0:0:0:0:
288,168,81272,1,8,0:0:0:0:
256,76,81455,2,0,B|203:36|149:75,1,116,2|2,0:0|0:0,0:0:0:0:
28,168,81821,2,0,B|80:207|136:166,1,116,8|0,0:0|0:0,0:0:0:0:
256,76,82187,6,2,B|256:89|256:89|260:98|260:98|251:98|251:98|260:106|260:106|251:106|251:106|260:115|260:115|251:115|251:115|260:124|260:124|251:124|251:124|260:133|260:133|251:133|251:133|260:142|260:142|251:142|251:142|256:150|256:150|256:269,1,266.800008746386,2|8,0:0|0:0,0:0:0:0:
184,336,82735,1,8,0:0:0:0:
148,358,82827,1,8,0:0:0:0:
113,379,82918,1,2,0:0:0:0:
25,358,83101,1,0,0:0:0:0:
87,292,83284,1,2,0:0:0:0:
113,379,83467,2,8,B|46:396|-27:348|-23:264|29:216,1,232
78,177,84016,1,8,0:0:0:0:
140,115,84199,1,0,0:0:0:0:
179,133,84290,1,0,0:0:0:0:
219,151,84382,2,2,B|279:188|352:153|373:82|340:33,1,232,2|8,0:0|0:0,0:0:0:0:
263,76,84931,1,0,0:0:0:0:
180,24,85114,5,0,0:0:0:0:
140,116,85296,2,0,B|100:72|100:72|40:72,2,116,2|8|0,0:0|0:0|0:0,0:0:0:0:
80,184,85845,1,0,0:0:0:0:
62,267,86028,1,8,0:0:0:0:
44,351,86211,1,0,0:0:0:0:
163,205,86394,1,0,0:0:0:0:
146,289,86577,1,8,0:0:0:0:
128,373,86760,1,0,0:0:0:0:
224,352,86943,1,0,0:0:0:0:
320,324,87126,2,8,B|359:324|359:324|388:340|388:340|436:340,2,116,8|8|0,0:0|0:0|0:0,0:0:0:0:
296,224,87675,2,0,B|356:224|356:224|396:192|396:192|460:192,1,174,10|8,0:0|0:0,0:0:0:0:
476,192,88040,21,4,0:0:0:0:
476,104,88223,1,0,0:0:0:0:
476,15,88406,1,2,0:0:0:0:
476,368,88772,1,8,0:0:0:0:
256,24,89138,1,2,0:0:0:0:
256,359,89504,1,0,0:0:0:0:
35,15,89870,1,2,0:0:0:0:
35,368,90235,1,8,0:0:0:0:
35,280,90418,1,0,0:0:0:0:
35,192,90601,1,0,0:0:0:0:
35,192,90967,5,0,0:0:0:0:
35,104,91150,1,0,0:0:0:0:
35,15,91333,1,2,0:0:0:0:
35,368,91699,1,8,0:0:0:0:
256,24,92065,1,2,0:0:0:0:
256,359,92431,1,0,0:0:0:0:
476,15,92796,1,2,0:0:0:0:
476,368,93162,1,8,0:0:0:0:
476,280,93345,1,0,0:0:0:0:
476,192,93528,1,0,0:0:0:0:
476,104,93711,1,0,0:0:0:0:
476,15,93894,1,0,0:0:0:0:
256,40,94260,5,2,0:0:0:0:
148,336,94626,1,8,0:0:0:0:
60,48,94992,1,2,0:0:0:0:
364,336,95357,1,0,0:0:0:0:
452,48,95723,1,2,0:0:0:0:
160,344,96089,2,0,B|210:386|280:376|324:320|312:256,1,232,8|0,0:0|0:0,0:0:0:0:
256,172,96638,1,0,0:0:0:0:
200,256,96821,6,0,B|188:320|232:376|303:386|353:344,1,232,4|8,0:0|0:0,0:0:0:0:
312,256,97370,2,0,B|324:320|280:376|209:386|159:344,1,232,4|8,0:0|0:0,0:0:0:0:
76,288,97918,2,0,B|120:236|76:184,1,116,4|8,0:0|0:0,0:0:0:0:
178,182,98284,1,0,0:0:0:0:
333,182,98467,1,8,0:0:0:0:
207,274,98650,1,8,0:0:0:0:
256,124,98833,1,0,0:0:0:0:
304,274,99016,1,8,0:0:0:0:
318,279,99107,1,8,0:0:0:0:
333,283,99199,1,8,0:0:0:0:
347,288,99290,1,8,0:0:0:0:
362,293,99382,1,8,0:0:0:0:
377,298,99473,1,0,0:0:0:0:
391,303,99565,1,0,0:0:0:0:
406,308,99656,1,0,0:0:0:0:
425,313,99748,21,4,0:0:0:0:
317,130,100114,2,0,B|361:68|317:7,1,133.400004373193,8|0,0:0|0:0,0:0:0:0:
198,130,100479,2,0,B|154:192|198:253,1,133.400004373193,2|0,0:0|0:0,0:0:0:0:
317,376,100845,2,0,B|361:315|317:253,1,133.400004373193,8|0,0:0|0:0,0:0:0:0:
379,178,101211,2,2,B|256:90|132:178,1,266.800008746386,2|8,0:0|0:0,0:0:0:0:
168,271,101760,1,0,0:0:0:0:
194,367,101943,2,0,B|141:367|141:367|110:346|110:346|66:346,1,133.400004373193,8|0,0:0|0:0,0:0:0:0:
317,367,102309,2,0,B|370:367|370:367|401:346|401:346|445:346,1,133.400004373193,8|8,0:0|0:0,0:0:0:0:
423,249,102675,6,0,B|365:196|295:236,1,133.400004373193
84,275,103040,2,0,B|141:328|212:288,1,133.400004373193,8|0,0:0|0:0,0:0:0:0:
423,249,103406,2,2,B|350:197|383:51|509:71,1,266.800008746386,2|8,0:0|0:0,0:0:0:0:
484,170,103955,1,0,0:0:0:0:
326,209,104138,1,0,0:0:0:0:
431,86,104321,1,0,0:0:0:0:
423,249,104504,1,8,0:0:0:0:
335,112,104687,1,0,0:0:0:0:
176,112,104870,37,2,0:0:0:0:
335,271,105053,1,2,0:0:0:0:
335,112,105235,1,2,0:0:0:0:
176,271,105418,1,2,0:0:0:0:
256,192,105601,37,4,0:0:0:0:
146,359,105967,1,8,0:0:0:0:
97,271,106150,1,0,0:0:0:0:
49,183,106333,2,0,B|18:86|141:11|216:104,1,266.800008746386,2|8,0:0|0:0,0:0:0:0:
256,192,106882,1,0,0:0:0:0:
296,281,107065,2,2,B|370:372|493:297|462:200,1,266.800008746386,2|8,0:0|0:0,0:0:0:0:
414,112,107614,1,0,0:0:0:0:
344,42,107796,2,0,B|339:90|339:90|304:112|304:112|300:156,1,133.400004373193,8|0,0:0|0:0,0:0:0:0:
168,42,108162,2,0,B|172:90|172:90|207:112|207:112|212:156,1,133.400004373193,8|8,0:0|0:0,0:0:0:0:
141,227,108528,6,0,B|185:280|242:244|242:244|256:257|256:257|269:244|269:244|326:280|370:227,1,266.800008746386,0|8,0:0|0:0,0:0:0:0:
330,134,109077,1,0,0:0:0:0:
300,42,109260,2,0,B|361:-1|427:33,1,133.400004373193,2|0,0:0|0:0,0:0:0:0:
212,42,109626,2,0,B|150:-1|84:33,1,133.400004373193,8|0,0:0|0:0,0:0:0:0:
181,134,109992,1,0,0:0:0:0:
256,192,110175,1,8,0:0:0:0:
330,249,110357,1,8,0:0:0:0:
181,249,110540,1,0,0:0:0:0:
256,192,110723,1,8,0:0:0:0:
330,134,110906,1,8,0:0:0:0:
308,38,111089,1,8,0:0:0:0:
203,38,111272,1,8,0:0:0:0:
176,46,111364,1,8,0:0:0:0:
154,55,111455,21,4,0:0:0:0:
40,200,111821,2,0,B|116:188|152:256,1,133.400004373193,8|0,0:0|0:0,0:0:0:0:
308,174,112187,1,2,0:0:0:0:
203,174,112370,1,0,0:0:0:0:
360,254,112553,2,0,B|396:188|471:200,1,133.400004373193,8|0,0:0|0:0,0:0:0:0:
364,340,112918,2,2,B|352:388|296:400|256:372|256:372|216:400|160:388|148:340,1,266.800008746386,2|8,0:0|0:0,0:0:0:0:
124,232,113467,1,0,0:0:0:0:
207,152,113650,2,0,B|198:104|163:104|128:104|120:60,1,133.400004373193,8|0,0:0|0:0,0:0:0:0:
304,152,114016,2,0,B|313:104|348:104|383:104|392:60,1,133.400004373193,8|8,0:0|0:0,0:0:0:0:
348,204,114382,5,0,0:0:0:0:
196,284,114565,1,0,0:0:0:0:
316,284,114748,1,8,0:0:0:0:
164,204,114931,1,0,0:0:0:0:
128,332,115114,2,2,B|194:288|256:332|317:376|383:332,1,266.800008746386,2|8,0:0|0:0,0:0:0:0:
401,236,115662,1,0,0:0:0:0:
330,165,115845,1,0,0:0:0:0:
256,231,116028,1,0,0:0:0:0:
181,165,116211,1,8,0:0:0:0:
110,236,116394,1,0,0:0:0:0:
180,344,116577,37,2,0:0:0:0:
330,165,116760,1,2,0:0:0:0:
332,344,116943,1,2,0:0:0:0:
181,165,117126,1,2,0:0:0:0:
256,328,117309,37,4,0:0:0:0:
392,183,117675,1,8,0:0:0:0:
467,117,117857,1,0,0:0:0:0:
370,86,118040,2,0,B|326:29|256:7|185:29|141:86,1,266.800008746386,2|8,0:0|0:0,0:0:0:0:
119,183,118589,1,0,0:0:0:0:
128,284,118772,2,2,B|194:328|256:284|317:240|383:284,1,266.800008746386,2|8,0:0|0:0,0:0:0:0:
392,183,119321,1,0,0:0:0:0:
370,86,119504,2,0,B|322:86|322:86|292:116|292:116|292:160,1,133.400004373193,8|0,0:0|0:0,0:0:0:0:
141,86,119870,2,0,B|190:86|190:86|220:116|220:116|220:160,1,133.400004373193,8|8,0:0|0:0,0:0:0:0:
150,231,120235,6,0,B|216:297|216:297|295:297|295:297|361:231,1,266.800008746386,0|8,0:0|0:0,0:0:0:0:
432,156,120784,1,0,0:0:0:0:
480,52,120967,2,0,B|444:-12|360:8,1,133.400004373193,2|0,0:0|0:0,0:0:0:0:
316,108,121333,2,0,B|355:169|434:156,1,133.400004373193,8|0,0:0|0:0,0:0:0:0:
256,176,121699,2,0,B|229:224|282:259|256:308,1,133.400004373193,2|0,0:0|0:0,0:0:0:0:
196,108,122065,2,0,B|156:169|77:156,1,133.400004373193,8|0,0:0|0:0,0:0:0:0:
88,272,122431,5,8,0:0:0:0:
120,312,122522,1,8,0:0:0:0:
160,344,122614,1,8,0:0:0:0:
204,360,122705,1,8,0:0:0:0:
256,368,122796,1,8,0:0:0:0:
308,360,122888,1,0,0:0:0:0:
352,344,122979,1,0,0:0:0:0:
392,312,123071,1,0,0:0:0:0:
424,272,123162,1,4,0:0:0:0:
256,170,129021,5,4,0:0:0:0:
308,104,129203,1,2,0:0:0:0:
357,29,129385,2,0,B|412:-12|462:29,1,116,8|0,0:0|0:0,0:0:0:0:
308,104,129749,2,0,B|256:148|203:104,1,116,2|0,0:0|0:0,0:0:0:0:
48,29,130114,2,0,B|104:-12|154:29,1,116,8|0,0:0|0:0,0:0:0:0:
150,161,130479,2,0,P|256:202|361:161,1,232,0|8,0:0|0:0,0:0:0:0:
392,244,131021,1,0,0:0:0:0:
313,275,131202,2,0,B|313:315|313:315|348:332|348:332|348:372,1,116,2|0,0:0|0:0,0:0:0:0:
198,275,131569,2,0,B|198:315|198:315|163:332|163:332|164:372,1,116,8|0,0:0|0:0,0:0:0:0:
119,244,131937,5,0,0:0:0:0:
44,200,132120,1,0,0:0:0:0:
102,133,132303,2,0,B|137:196|225:170,1,116,8|0,0:0|0:0,0:0:0:0:
347,15,132670,2,0,B|273:11|248:96,1,116,2|0,0:0|0:0,0:0:0:0:
306,282,133037,2,0,B|352:222|298:154,1,116,8|0,0:0|0:0,0:0:0:0:
102,134,133405,2,0,B|70:181|91:250|163:284|226:243,1,232,2|8,0:0|0:0,0:0:0:0:
181,170,133945,1,0,0:0:0:0:
256,37,134125,1,2,0:0:0:0:
330,170,134310,1,0,0:0:0:0:
181,77,134494,1,8,0:0:0:0:
330,77,134678,1,0,0:0:0:0:
256,214,134862,5,0,0:0:0:0:
256,126,135044,1,0,0:0:0:0:
330,77,135226,2,0,B|379:33|440:64,1,116,8|0,0:0|0:0,0:0:0:0:
181,77,135591,2,0,B|132:33|72:64,1,116,2|0,0:0|0:0,0:0:0:0:
256,214,135956,2,0,B|225:253|282:288|256:324,1,116,8|0,0:0|0:0,0:0:0:0:
181,192,136321,2,0,B|176:126|256:92|335:126|330:192,1,232,0|8,0:0|0:0,0:0:0:0:
256,214,136880,1,0,0:0:0:0:
256,363,137067,1,2,0:0:0:0:
300,288,137248,1,0,0:0:0:0:
168,363,137430,1,8,0:0:0:0:
344,363,137612,1,0,0:0:0:0:
344,363,137703,1,0,0:0:0:0:
344,363,137794,1,0,0:0:0:0:
212,288,137976,5,0,0:0:0:0:
163,218,138159,2,0,B|119:170|57:200,1,116,8|0,0:0|0:0,0:0:0:0:
203,152,138525,2,0,B|256:196|308:152,1,116,2|0,0:0|0:0,0:0:0:0:
452,199,138891,2,0,B|392:170|348:218,1,116,8|0,0:0|0:0,0:0:0:0:
256,90,139256,1,0,0:0:0:0:
256,249,139440,1,0,0:0:0:0:
326,134,139623,1,8,0:0:0:0:
185,205,139806,1,0,0:0:0:0:
326,205,139990,1,2,0:0:0:0:
185,134,140169,1,0,0:0:0:0:
185,134,140259,1,0,0:0:0:0:
185,134,140349,1,8,0:0:0:0:
256,249,140529,1,0,0:0:0:0:
326,134,140710,22,0,B|370:134|370:134|388:117|388:117|436:117,1,116
185,134,141075,2,0,B|141:134|141:134|124:117|124:117|75:117,1,116,8|0,0:0|0:0,0:0:0:0:
326,205,141441,2,0,B|370:205|370:205|388:222|388:222|436:222,1,116,2|0,0:0|0:0,0:0:0:0:
185,205,141807,2,0,B|141:205|141:205|124:222|124:222|75:222,1,116,8|0,0:0|0:0,0:0:0:0:
256,249,142173,1,0,0:0:0:0:
256,90,142354,1,0,0:0:0:0:
185,205,142535,1,8,0:0:0:0:
326,134,142716,1,0,0:0:0:0:
185,134,142898,1,2,0:0:0:0:
326,205,143083,1,0,0:0:0:0:
256,90,143267,1,8,0:0:0:0:
185,205,143451,1,0,0:0:0:0:
326,205,143636,6,0,B|364:264|326:315,1,116,0|0,0:0|2:0,0:0:0:0:
184,312,144002,2,0,B|148:264|185:204,1,116,8|0,0:1|2:0,0:0:0:0:
326,134,144369,2,0,B|361:77|326:24,1,116,2|0,0:0|2:0,0:0:0:0:
184,25,144736,2,0,B|150:77|185:134,1,116,8|0,0:0|2:0,0:0:0:0:
326,205,145103,1,0,0:0:0:0:
440,253,145283,1,0,0:0:0:0:
427,117,145463,1,8,0:0:0:0:
326,205,145643,1,0,0:0:0:0:
185,205,145823,1,2,0:0:0:0:
71,253,146002,1,0,0:0:0:0:
84,117,146181,1,8,0:0:0:0:
185,205,146360,1,0,0:0:0:0:
256,90,146539,5,2,0:0:0:0:
256,384,149502,5,4,0:0:0:0:
313,328,149685,1,2,0:0:0:0:
198,328,149868,1,8,0:0:0:0:
361,258,150051,1,0,0:0:0:0:
150,258,150234,2,2,B|71:258|44:192|71:126|150:126,1,232,2|8,0:0|0:0,0:0:0:0:
313,55,150783,1,2,0:0:0:0:
198,55,150966,1,8,0:0:0:0:
256,156,151149,1,0,0:0:0:0:
361,126,151332,2,2,B|440:126|468:192|440:258|361:258,1,232,10|8,0:0|0:0,0:0:0:0:
198,328,151881,1,0,0:0:0:0:
313,328,152064,1,8,0:0:0:0:
467,187,152430,21,0,0:0:0:0:
401,240,152613,1,2,0:0:0:0:
401,143,152795,1,8,0:0:0:0:
326,280,152978,1,0,0:0:0:0:
326,104,153161,2,2,B|313:46|313:46|198:46|198:46|185:104,1,232,2|8,0:0|0:0,0:0:0:0:
110,240,153710,1,2,0:0:0:0:
110,143,153893,1,8,0:0:0:0:
194,192,154076,1,0,0:0:0:0:
185,280,154259,2,2,B|198:337|198:337|313:337|313:337|326:280,1,232,10|8,0:0|0:0,0:0:0:0:
317,192,154808,1,0,0:0:0:0:
194,192,154991,1,8,0:0:0:0:
256,29,155356,5,0,0:0:0:0:
194,192,155539,1,2,0:0:0:0:
344,99,155722,1,2,0:0:0:0:
168,99,155905,1,0,0:0:0:0:
317,192,156088,2,2,B|382:164|448:209|458:283|417:326,1,232,10|0,0:0|0:0,0:0:0:0:
194,363,156637,1,2,0:0:0:0:
256,249,156820,1,2,0:0:0:0:
317,363,157003,1,0,0:0:0:0:
91,324,157186,2,2,B|52:283|62:209|128:164|194:192,1,232,10|8,0:0|0:0,0:0:0:0:
256,249,157734,1,0,0:0:0:0:
256,249,157917,1,8,0:0:0:0:
256,77,158283,5,8,0:0:0:0:
322,139,158466,2,2,B|311:193|357:249|437:252|479:189,1,232,6|8,0:0|0:0,0:0:0:0:
256,156,159015,2,2,B|244:202|244:202|255:242|268:282|268:282|256:330,1,178.639996456421,6|8,0:0|0:0,0:0:0:0:
190,139,159564,2,2,B|201:193|154:249|74:252|32:189,1,232,6|8,0:0|0:0,0:0:0:0:
256,77,160113,1,2,0:0:0:0:
256,77,160295,1,0,0:0:0:0:
335,42,160478,5,8,0:0:0:0:
348,82,160570,1,8,0:0:0:0:
330,121,160661,1,8,0:0:0:0:
300,152,160753,1,8,0:0:0:0:
256,161,160844,1,8,0:0:0:0:
212,152,160936,1,8,0:0:0:0:
181,121,161027,1,8,0:0:0:0:
163,82,161119,1,8,0:0:0:0:
176,42,161210,21,4,0:0:0:0:
80,59,161393,1,2,0:0:0:0:
18,139,161576,2,0,B|80:183|141:139,1,133.400004373193,8|0,0:0|0:0,0:0:0:0:
317,90,161942,2,0,B|256:46|194:90,1,133.400004373193,2|0,0:0|0:0,0:0:0:0:
370,139,162308,2,0,B|432:183|493:139,1,133.400004373193,8|0,0:0|0:0,0:0:0:0:
361,218,162674,2,2,B|335:280|256:320|176:280|150:218,1,266.800008746386,2|8,0:0|0:0,0:0:0:0:
176,121,163222,1,0,0:0:0:0:
335,121,163405,1,8,0:0:0:0:
203,214,163588,1,0,0:0:0:0:
256,59,163771,1,8,0:0:0:0:
308,214,163954,1,8,0:0:0:0:
176,121,164137,6,0,B|115:77|53:121,1,133.400004373193,0|2,0:0|0:0,0:0:0:0:
335,121,164503,2,0,B|396:77|458:121,1,133.400004373193,8|0,0:0|0:0,0:0:0:0:
256,60,164869,2,2,B|268:148|268:148|256:192|244:236|244:236|256:324,1,266.800008746386,2|8,0:0|0:0,0:0:0:0:
340,264,165417,2,0,B|376:324|376:324|356:384,1,133.400004373193
256,320,165783,1,0,0:0:0:0:
156,384,165966,2,0,B|136:324|136:324|172:264,1,133.400004373193,8|0,0:0|0:0,0:0:0:0:
176,161,166332,37,2,0:0:0:0:
376,8,166515,1,2,0:0:0:0:
136,8,166698,1,2,0:0:0:0:
335,161,166881,1,2,0:0:0:0:
200,276,167064,37,4,0:0:0:0:
256,352,167247,1,2,0:0:0:0:
312,276,167430,1,8,0:0:0:0:
256,196,167613,1,0,0:0:0:0:
168,178,167795,2,0,B|198:82|75:7|0:99,1,266.800008746386,2|8,0:0|0:0,0:0:0:0:
256,196,168344,1,0,0:0:0:0:
344,178,168527,2,2,B|313:82|436:7|511:99,1,266.800008746386,2|8,0:0|0:0,0:0:0:0:
256,196,169076,1,0,0:0:0:0:
313,271,169259,2,0,B|326:315|326:315|361:332|361:332|374:381,1,133.400004373193,8|0,0:0|0:0,0:0:0:0:
198,271,169625,2,8,B|185:315|185:315|150:332|150:332|137:381,1,133.400004373193
141,227,169991,6,0,B|185:174|242:209|242:209|256:196|256:196|269:209|269:209|326:174|370:227,1,266.800008746386,0|8,0:0|0:0,0:0:0:0:
432,148,170539,1,0,0:0:0:0:
493,68,170722,2,0,B|432:24|370:68,1,133.400004373193,2|0,0:0|0:0,0:0:0:0:
194,117,171088,2,0,B|256:160|317:117,1,133.400004373193,8|0,0:0|0:0,0:0:0:0:
142,68,171454,2,0,B|80:24|19:68,1,133.400004373193,2|0,0:0|0:0,0:0:0:0:
80,148,171820,1,8,0:0:0:0:
159,209,172003,1,0,0:0:0:0:
256,236,172186,1,0,0:0:0:0:
352,209,172369,1,0,0:0:0:0:
352,209,172460,1,0,0:0:0:0:
352,209,172552,1,8,0:0:0:0:
432,148,172734,1,0,0:0:0:0:
256,99,172917,21,4,0:0:0:0:
190,174,173100,1,2,0:0:0:0:
128,253,173283,2,0,B|80:320|128:376,1,133.400004373193,8|0,0:0|0:0,0:0:0:0:
308,310,173649,1,2,0:0:0:0:
203,310,173832,1,0,0:0:0:0:
383,375,174015,2,0,B|432:320|383:253,1,133.400004373193,8|0,0:0|0:0,0:0:0:0:
357,156,174381,2,2,B|330:86|256:55|181:86|154:156,1,266.800008746386,2|8,0:0|0:0,0:0:0:0:
194,249,174930,1,0,0:0:0:0:
256,381,175113,1,8,0:0:0:0:
317,249,175295,1,0,0:0:0:0:
176,337,175478,1,8,0:0:0:0:
335,337,175661,1,8,0:0:0:0:
194,249,175844,6,0,B|160:192|160:192|194:134,1,133.400004373193,0|2,0:0|0:0,0:0:0:0:
316,133,176210,2,0,B|352:192|352:192|317:249,1,133.400004373193,8|0,0:0|0:0,0:0:0:0:
256,319,176576,2,2,B|256:200|256:200|260:192|260:192|251:192|251:192|256:183|256:183|256:64,1,266.800008746386,2|8,0:0|0:0,0:0:0:0:
335,2,177125,1,0,0:0:0:0:
344,99,177308,1,0,0:0:0:0:
256,156,177491,1,0,0:0:0:0:
168,99,177674,1,8,0:0:0:0:
176,2,177856,1,0,0:0:0:0:
384,4,178039,37,2,0:0:0:0:
160,160,178222,1,2,0:0:0:0:
352,160,178405,1,2,0:0:0:0:
128,4,178588,1,2,0:0:0:0:
256,156,178771,37,4,0:0:0:0:
326,86,178954,1,2,0:0:0:0:
256,15,179137,1,8,0:0:0:0:
185,86,179320,1,0,0:0:0:0:
168,183,179503,2,0,B|136:186|111:220|124:293|124:293|80:233|38:228|13:248,1,266.800008746386,2|8,0:0|0:0,0:0:0:0:
256,192,180052,1,0,0:0:0:0:
344,200,180234,2,2,B|375:197|400:163|388:90|388:90|432:150|473:155|498:135,1,266.800008746386,2|8,0:0|0:0,0:0:0:0:
256,192,180783,1,0,0:0:0:0:
295,275,180966,2,0,B|295:324|295:324|328:356|328:356|368:356,1,133.400004373193,8|0,0:0|0:0,0:0:0:0:
216,275,181332,2,0,B|216:324|216:324|184:356|184:356|144:356,1,133.400004373193,8|8,0:0|0:0,0:0:0:0:
159,231,181698,6,0,B|203:170|203:170|256:192|256:192|308:170|308:170|352:231,1,266.800008746386,0|8,0:0|0:0,0:0:0:0:
256,112,182247,1,0,0:0:0:0:
326,42,182430,2,0,B|374:99|448:68,1,133.400004373193,2|0,0:0|0:0,0:0:0:0:
185,42,182795,2,0,B|137:99|64:68,1,133.400004373193,8|0,0:0|0:0,0:0:0:0:
220,130,183161,6,0,B|136:168,2,88.9333362487953,8|0|8,0:0|0:0|0:0,0:0:0:0:
291,130,183527,2,0,B|376:168,2,88.9333362487953,8|0|8,0:0|0:0|0:0,0:0:0:0:
256,187,183893,1,8,0:0:0:0:
313,218,184015,1,8,0:0:0:0:
330,284,184137,1,8,0:0:0:0:
291,337,184259,1,8,0:0:0:0:
220,337,184381,1,8,0:0:0:0:
181,284,184503,1,8,0:0:0:0:
198,218,184625,5,4,0:0:0:0:
150,143,184808,1,2,0:0:0:0:
110,64,184991,1,8,0:0:0:0:
22,104,185174,1,0,0:0:0:0:
57,183,185356,2,2,B|40:237|80:297|159:310|207:253,1,232,10|0,0:0|0:0,0:0:0:0:
322,161,185905,1,2,0:0:0:0:
256,95,186088,1,8,0:0:0:0:
190,161,186271,1,0,0:0:0:0:
304,253,186454,2,2,B|352:310|432:297|471:237|454:183,1,232,10|8,0:0|0:0,0:0:0:0:
489,104,187003,1,0,0:0:0:0:
401,64,187186,1,8,0:0:0:0:
256,350,187552,5,4,0:0:0:0:
256,192,187734,12,0,191576,0:0:0:0:
