osu file format v14

[General]
AudioFilename: Celebrity Status.mp3
AudioLeadIn: 0
PreviewTime: 47065
Countdown: 0
SampleSet: Normal
StackLeniency: 0.7
Mode: 0
LetterboxInBreaks: 0
EpilepsyWarning: 1
WidescreenStoryboard: 1

[Editor]
Bookmarks: 38581
DistanceSpacing: 0.9
BeatDivisor: 12
GridSize: 4
TimelineZoom: 6.299996

[Metadata]
Title:Celebrity Status
TitleUnicode:Celebrity Status
Artist:Marianas Trench
ArtistUnicode:Marianas Trench
Creator:Krisom
Version:Easy
Source:
Tags:pop punk rock english Masterpiece Theatre
BeatmapID:2458422
BeatmapSetID:49351

[Difficulty]
HPDrainRate:2
CircleSize:2.5
OverallDifficulty:2
ApproachRate:2
SliderMultiplier:1
SliderTickRate:1

[Events]
//Background and Video events
0,0,"BG.jpg",0,0
//Break Periods
2,58972,63431
2,123361,127461
2,146739,147943
//Storyboard Layer 0 (Background)
//Storyboard Layer 1 (Fail)
//Storyboard Layer 2 (Pass)
//Storyboard Layer 3 (Foreground)
//Storyboard Layer 4 (Overlay)
//Storyboard Sound Samples

[TimingPoints]
236,365.853658536585,4,1,2,80,1,0
47065,-100,4,1,2,80,0,1
58772,-100,4,1,2,80,0,0
64534,-100,4,1,2,80,0,0
67186,-100,4,1,2,80,0,0
99748,-100,4,1,2,80,0,1
123162,366.188587122368,4,1,2,80,1,0
123162,-100,4,1,2,80,0,0
128924,-100,4,1,1,80,0,0
129021,364.409353173398,4,1,2,80,1,0
130479,361.3369467028,4,1,2,80,1,0
131202,367.534456355283,4,1,2,80,1,0
131937,366.97247706422,4,1,2,80,1,0
133405,360.36036036036,4,1,2,80,1,0
134126,368.211107701749,4,1,2,80,1,0
134862,364.741641337385,4,1,2,80,1,0
136321,373.018340068387,4,1,2,80,1,0
137067,363.636363636364,4,1,2,80,1,0
137248,-100,4,1,2,5,0,0
137430,-100,4,1,2,80,0,0
137794,365.742151782993,4,1,2,80,1,0
139257,366.524129505192,4,1,2,80,1,0
139990,359.604435121367,4,1,2,80,1,0
140710,365.742151782993,4,1,2,80,1,0
142173,362.537764350453,4,1,2,80,1,0
142899,368.550368550369,4,1,2,80,1,0
143636,366.97247706422,4,1,2,80,1,0
145104,359.712230215828,4,1,2,80,1,0
145823,358.208955223881,4,1,2,80,1,0
146539,370.484717505403,4,1,1,80,1,0
149321,-100,4,1,2,80,0,0
149503,365.853658536585,4,1,2,80,1,0
161210,-100,4,1,2,80,0,1
184624,-100,4,1,2,80,0,0
184717,-100,4,1,1,80,0,0
184900,-100,4,1,2,80,0,0
185815,-100,4,1,1,80,0,0
185997,-100,4,1,2,80,0,0
190113,-100,4,1,2,70,0,0
190296,-100,4,1,2,60,0,0
190479,-100,4,1,2,50,0,0
190662,-100,4,1,2,40,0,0
190845,-100,4,1,2,30,0,0
191028,-100,4,1,2,20,0,0
191211,-100,4,1,2,10,0,0
191394,-100,4,1,2,5,0,0

[Colours]
Combo1 : 105,49,168
Combo2 : 244,37,0
Combo3 : 21,196,78
Combo4 : 7,74,252
Combo5 : 255,202,40
SliderBorder : 63,63,63

[HitObjects]
256,168,12309,6,0,P|340:122|424:168,1,200,8|8,0:0|0:0,0:0:0:0:
476,240,13406,1,0,0:0:0:0:
424,312,13772,2,0,P|340:358|256:312,1,200,8|8,0:0|0:0,0:0:0:0:
96,222,15235,6,0,B|96:152|96:152|96:108|120:56|164:56,1,200,8|8,0:0|0:0,0:0:0:0:
256,52,16333,1,0,0:0:0:0:
347,56,16699,2,0,B|392:56|416:108|416:152|416:152|416:222,1,200,8|8,0:0|0:0,0:0:0:0:
300,360,18162,6,0,L|300:252,1,100,8|0,0:0|0:0,0:0:0:0:
208,260,18894,2,0,L|208:360,1,100,8|0,0:0|0:0,0:0:0:0:
116,358,19626,6,0,B|116:256|116:256|116:192|116:192|116:156|152:108|206:115,1,300,8|0,0:0|0:0,0:0:0:0:
305,115,21089,2,0,B|360:108|396:156|396:192|396:192|396:256|396:256|396:360,1,300,8|0,0:0|0:0,0:0:0:0:
308,336,22553,2,0,P|257:267|204:336,1,200,8|8,0:0|0:0,0:0:0:0:
48,248,24016,22,0,B|8:200|44:156|52:156|88:112|48:64,1,200,8|8,0:0|0:0,0:0:0:0:
132,28,25114,1,0,0:0:0:0:
216,64,25479,2,0,B|176:112|212:156|220:156|256:200|216:248,1,200,8|8,0:0|0:0,0:0:0:0:
372,336,26943,5,8,0:0:0:0:
420,260,27309,2,0,P|384:244|324:260,1,100,0|8,0:0|0:0,0:0:0:0:
252,304,28040,2,0,P|205:318|158:301,1,100,0|8,0:0|0:0,0:0:0:0:
88,244,28772,2,0,B|160:176|160:176|176:76,1,200
256,36,29870,5,8,0:0:0:0:
336,76,30235,2,0,B|352:176|352:176|424:244,1,200
344,284,31333,1,8,0:0:0:0:
256,304,31699,1,0,0:0:0:0:
168,284,32065,1,8,0:0:0:0:
92,236,32431,6,0,P|80:100|212:108,1,300,0|8,0:0|0:0,0:0:0:0:
304,104,33894,2,0,P|436:103|420:235,1,300,0|8,0:0|0:0,0:0:0:0:
432,324,35357,21,6,0:0:0:0:
80,324,36821,1,6,0:0:0:0:
256,12,38284,1,6,0:0:0:0:
348,360,39748,5,4,0:0:0:0:
164,360,40479,1,4,0:0:0:0:
64,208,41211,5,6,0:0:0:0:
448,208,42675,1,6,0:0:0:0:
88,128,44138,6,2,B|144:200|232:204|256:132|256:124|280:52|368:56|424:128,1,400,6|8,0:0|0:0,0:0:0:0:
132,344,47065,21,4,0:0:0:0:
148,256,47431,1,8,0:0:0:0:
164,168,47796,1,2,0:0:0:0:
348,168,48528,1,0,0:0:0:0:
364,256,48894,1,8,0:0:0:0:
380,344,49260,1,2,0:0:0:0:
212,328,49992,6,0,B|156:300|156:240|156:240|156:148,1,200,0|2,0:0|0:0,0:0:0:0:
300,56,51455,2,0,B|356:84|356:144|356:144|356:236,1,200,0|2,0:0|0:0,0:0:0:0:
256,240,52553,1,10,0:0:0:0:
76,188,53284,6,8,B|76:258|76:258|76:302|100:354|144:354,1,200
208,292,54382,2,0,P|256:280|304:292,1,100,2|8,0:0|0:0,0:0:0:0:
368,354,55114,2,0,B|412:354|436:302|436:258|436:258|436:188,1,200,2|0,0:0|0:0,0:0:0:0:
324,44,56577,5,2,0:0:0:0:
256,104,56943,1,10,0:0:0:0:
188,44,57309,1,2,0:0:0:0:
168,224,58040,1,8,0:0:0:0:
344,224,58772,1,4,0:0:0:0:
256,168,64991,22,0,P|172:122|88:168,1,200,8|8,0:0|0:0,0:0:0:0:
36,240,66089,1,0,0:0:0:0:
88,312,66455,2,0,P|172:358|256:312,1,200,8|8,0:0|0:0,0:0:0:0:
416,222,67918,6,0,B|416:152|416:152|416:108|392:56|348:56,1,200,8|8,0:0|0:0,0:0:0:0:
256,52,69016,1,0,0:0:0:0:
165,56,69382,2,0,B|120:56|96:108|96:152|96:152|96:222,1,200,8|8,0:0|0:0,0:0:0:0:
306,265,70845,6,0,L|198:265,1,100,8|0,0:0|0:0,0:0:0:0:
206,357,71577,2,0,L|306:357,1,100,8|0,0:0|0:0,0:0:0:0:
396,358,72308,6,0,B|396:256|396:256|396:192|396:192|396:156|360:108|306:115,1,300,8|0,0:0|0:0,0:0:0:0:
207,115,73772,2,0,B|152:108|116:156|116:192|116:192|116:256|116:256|116:360,1,300,8|0,0:0|0:0,0:0:0:0:
204,336,75235,2,0,P|255:267|308:336,1,200,8|8,0:0|0:0,0:0:0:0:
464,248,76699,22,0,B|504:200|468:156|460:156|424:112|464:64,1,200,8|8,0:0|0:0,0:0:0:0:
380,28,77796,1,0,0:0:0:0:
296,64,78162,2,0,B|336:112|300:156|292:156|256:200|296:248,1,200,8|8,0:0|0:0,0:0:0:0:
140,336,79625,5,8,0:0:0:0:
92,260,79991,2,0,P|128:244|188:260,1,100,0|8,0:0|0:0,0:0:0:0:
260,304,80723,2,0,P|307:318|354:301,1,100,0|8,0:0|0:0,0:0:0:0:
424,244,81455,2,0,B|352:176|352:176|336:76,1,200,0|2,0:0|0:0,0:0:0:0:
256,36,82552,5,8,0:0:0:0:
176,76,82918,2,0,B|160:176|160:176|88:244,1,200
168,284,84016,1,8,0:0:0:0:
256,304,84382,1,0,0:0:0:0:
344,284,84747,1,8,0:0:0:0:
420,236,85113,6,0,P|432:100|300:108,1,300,0|8,0:0|0:0,0:0:0:0:
208,104,86577,2,0,P|76:103|92:235,1,300,0|8,0:0|0:0,0:0:0:0:
80,324,88040,21,6,0:0:0:0:
432,324,89504,1,6,0:0:0:0:
256,12,90967,1,6,0:0:0:0:
164,360,92430,5,4,0:0:0:0:
348,360,93162,1,4,0:0:0:0:
448,208,93894,5,6,0:0:0:0:
64,208,95357,1,6,0:0:0:0:
424,128,96821,6,2,B|368:200|280:204|256:132|256:124|232:52|144:56|88:128,1,400,6|8,0:0|0:0,0:0:0:0:
380,344,99747,21,4,0:0:0:0:
364,256,100113,1,8,0:0:0:0:
348,168,100479,1,2,0:0:0:0:
164,168,101211,1,0,0:0:0:0:
148,256,101577,1,8,0:0:0:0:
132,344,101943,1,2,0:0:0:0:
300,328,102674,6,0,B|356:300|356:240|356:240|356:148,1,200,0|2,0:0|0:0,0:0:0:0:
212,56,104138,2,0,B|156:84|156:144|156:144|156:236,1,200,0|2,0:0|0:0,0:0:0:0:
256,240,105235,1,10,0:0:0:0:
436,188,105967,6,8,B|436:258|436:258|436:302|412:354|368:354,1,200
304,292,107065,2,0,P|256:280|208:292,1,100,2|8,0:0|0:0,0:0:0:0:
144,354,107796,2,0,B|100:354|76:302|76:258|76:258|76:188,1,200,2|0,0:0|0:0,0:0:0:0:
188,44,109260,5,2,0:0:0:0:
256,104,109625,1,10,0:0:0:0:
324,44,109991,1,2,0:0:0:0:
440,192,110723,1,8,0:0:0:0:
324,340,111455,21,4,0:0:0:0:
252,288,111821,2,0,P|192:300|156:268,1,100,8|2,0:0|0:0,0:0:0:0:
172,100,112918,1,0,0:0:0:0:
260,96,113284,2,0,P|320:84|356:116,1,100,8|2,0:0|0:0,0:0:0:0:
376,300,114382,6,0,B|348:344|348:344|288:352,1,100,0|8,0:0|0:0,0:0:0:0:
212,350,115113,2,0,B|164:344|164:344|136:300,1,100,2|8,0:0|0:0,0:0:0:0:
208,244,115845,2,0,P|256:256|304:244,1,100,0|8,0:0|0:0,0:0:0:0:
256,168,116577,1,10,0:0:0:0:
308,96,116943,1,10,0:0:0:0:
388,136,117308,6,4,B|392:224|392:224|396:292|344:320,1,200,4|2,0:0|0:0,0:0:0:0:
166,318,118772,2,4,B|116:292|120:224|120:224|124:136,1,200,0|2,0:0|0:0,0:0:0:0:
36,128,119869,2,0,L|32:228,1,100,8|0,0:0|0:0,0:0:0:0:
184,324,120967,5,2,0:0:0:0:
256,268,121333,1,10,0:0:0:0:
328,324,121699,1,2,0:0:0:0:
344,60,122430,2,0,P|256:20|168:60,1,200,0|4,0:0|0:0,0:0:0:0:
108,332,129021,22,0,P|256:352|404:332,1,300,0|0,0:0|0:1,0:0:0:0:
404,240,130479,2,0,P|256:266|108:240,1,302,0|8,0:0|0:0,0:0:0:0:
44,176,131937,6,0,P|74:41|211:54,1,300
299,55,133405,2,0,P|435:42|466:176,1,302,0|8,0:0|0:0,0:0:0:0:
480,264,134862,6,0,B|456:336|456:336|428:368|392:368|392:368|356:368|328:336|328:336|304:264,1,300
208,264,136321,2,0,B|184:336|184:336|156:368|120:368|120:368|84:368|56:336|56:336|32:264,1,297.5,0|8,0:0|0:0,0:0:0:0:
120,248,137794,5,0,0:0:0:0:
392,136,139256,1,2,0:2:0:0:
120,136,140709,21,0,0:0:0:0:
392,248,142172,1,2,0:2:0:0:
256,28,143636,5,0,0:0:0:0:
256,356,145103,1,2,0:2:0:0:
256,192,146539,5,2,0:0:0:0:
40,192,149503,5,0,0:0:0:0:
80,112,149868,1,8,0:0:0:0:
164,76,150234,1,2,0:0:0:0:
348,76,150966,1,0,0:0:0:0:
432,112,151332,1,8,0:0:0:0:
472,192,151698,1,2,0:0:0:0:
356,328,152429,22,0,L|252:328,1,100,0|8,0:0|0:0,0:0:0:0:
164,328,153161,1,2,0:0:0:0:
152,148,153893,2,0,L|256:148,1,100,0|8,0:0|0:0,0:0:0:0:
344,148,154624,1,2,0:0:0:0:
360,328,155356,5,4,0:0:0:0:
152,328,156088,1,2,0:0:0:0:
152,148,156820,5,4,0:0:0:0:
360,148,157551,1,2,0:0:0:0:
456,300,158283,6,0,B|384:332|384:332|344:300|344:300|288:300|288:300|256:356|256:356|224:300|224:300|168:300|168:300|128:332|128:332|56:300,1,500,4|8,0:0|0:0,0:0:0:0:
188,44,161210,21,4,0:0:0:0:
260,96,161576,2,0,P|320:84|356:116,1,100,8|2,0:0|0:0,0:0:0:0:
340,284,162673,1,0,0:0:0:0:
252,288,163039,2,0,P|192:300|156:268,1,100,8|2,0:0|0:0,0:0:0:0:
136,84,164137,6,0,B|164:40|164:40|224:32,1,100,0|8,0:0|0:0,0:0:0:0:
300,34,164868,2,0,B|348:40|348:40|376:84,1,100,2|8,0:0|0:0,0:0:0:0:
304,140,165600,2,0,B|256:116|208:140,1,100,0|8,0:0|0:0,0:0:0:0:
256,216,166332,1,10,0:0:0:0:
308,288,166698,1,10,0:0:0:0:
388,248,167063,6,4,B|392:160|392:160|396:92|344:64,1,200,4|2,0:0|0:0,0:0:0:0:
166,65,168527,2,4,B|116:92|120:160|120:160|124:248,1,200,0|2,0:0|0:0,0:0:0:0:
36,256,169625,2,0,L|32:156,1,100,8|0,0:0|0:0,0:0:0:0:
168,36,170722,5,2,0:0:0:0:
256,60,171088,1,10,0:0:0:0:
344,36,171454,1,2,0:0:0:0:
344,324,172185,2,0,P|256:364|168:324,1,200,0|4,0:0|0:0,0:0:0:0:
172,232,173283,21,8,0:0:0:0:
208,148,173649,2,0,P|256:136|304:148,1,100,2|8,0:0|0:0,0:0:0:0:
340,231,174381,2,2,P|396:152|348:68,1,200,2|0,0:0|0:0,0:0:0:0:
256,48,175478,1,8,0:0:0:0:
160,70,175844,6,0,P|116:156|172:232,1,200
212,312,176942,2,0,B|256:288|256:288|300:312,1,100,8|0,0:0|0:0,0:0:0:0:
340,232,177673,1,8,0:0:0:0:
256,192,178039,1,10,0:0:0:0:
172,152,178405,1,10,0:0:0:0:
164,64,178771,6,4,B|212:24|256:60|256:68|300:104|348:64,1,200,4|2,0:0|0:0,0:0:0:0:
348,244,180234,2,0,B|300:284|256:248|256:240|212:204|164:244,1,200,0|2,0:0|0:0,0:0:0:0:
128,328,181332,2,0,P|80:288|64:244,1,100,8|0,0:0|0:0,0:0:0:0:
168,104,182429,5,2,0:0:0:0:
256,72,182795,1,10,0:0:0:0:
344,104,183161,1,2,0:0:0:0:
344,284,183893,1,8,0:0:0:0:
168,284,184624,1,4,0:0:0:0:
256,192,184807,12,0,191576,0:0:0:0:
