osu file format v14

[General]
AudioFilename: 09 Celebrity Status.mp3
AudioLeadIn: 0
PreviewTime: 47032
Countdown: 1
SampleSet: Soft
StackLeniency: 0.7
Mode: 0
LetterboxInBreaks: 0
WidescreenStoryboard: 0

[Editor]
Bookmarks: 11910,35325,47032,58739,82154,93861,117276
DistanceSpacing: 0.9
BeatDivisor: 2
GridSize: 8
TimelineZoom: 1

[Metadata]
Title:Celebrity Status
TitleUnicode:Celebrity Status
Artist:Marianas Trench
ArtistUnicode:Marianas Trench
Creator:0_o
Version:Normal
Source:
Tags:rock pop punk english masterpiece theatre
BeatmapID:311975
BeatmapSetID:121830

[Difficulty]
HPDrainRate:4
CircleSize:4
OverallDifficulty:4
ApproachRate:5
SliderMultiplier:1.2
SliderTickRate:1

[Events]
//Background and Video events
0,0,"red_star.png",0,0
//Break Periods
2,58946,60474
2,117483,119013
//Storyboard Layer 0 (Background)
//Storyboard Layer 1 (Fail)
//Storyboard Layer 2 (Pass)
//Storyboard Layer 3 (Foreground)
//Storyboard Layer 4 (Overlay)
//Storyboard Sound Samples

[TimingPoints]
211,365.853658536585,4,2,0,70,1,0
44095,-100,4,1,0,80,0,0
58729,-100,4,2,0,70,0,0
61290,-133.333333333333,4,2,0,70,0,0
61656,-100,4,2,0,70,0,0
67876,-133.333333333333,4,2,0,70,0,0
69522,-100,4,2,0,70,0,0
82162,-100,4,2,0,80,0,0
90193,-133.333333333333,4,2,0,80,0,0
90925,-100,4,1,0,80,0,0
117284,366.188587122368,4,2,0,65,1,0
123143,364.409353173398,4,2,0,80,1,0
124601,361.3369467028,4,2,0,80,1,0
125324,367.534456355283,4,2,0,80,1,0
126059,366.97247706422,4,2,0,80,1,0
127527,360.36036036036,4,2,0,80,1,0
128248,368.211107701749,4,2,0,80,1,0
128984,364.741641337385,4,2,0,80,1,0
130443,373.018340068387,4,2,0,80,1,0
131189,363.636363636364,4,2,0,80,1,0
131916,365.742151782993,4,2,0,80,1,0
133379,366.524129505192,4,2,0,80,1,0
134112,359.604435121367,4,2,0,80,1,0
134832,365.742151782993,4,2,0,80,1,0
136295,362.537764350453,4,2,0,80,1,0
137021,368.550368550369,4,2,0,80,1,0
137758,366.97247706422,4,2,0,80,1,0
139042,-99.009900990099,4,2,0,80,0,0
139226,359.712230215828,4,2,0,80,1,0
139945,358.208955223881,4,2,0,80,1,0
140661,370.484717505403,4,2,0,80,1,0
143625,365.853658536585,4,1,0,80,1,1
152405,-100,4,1,0,80,0,0
155332,-100,4,1,0,80,0,1
167038,-100,4,1,0,80,0,0
167039,-100,4,1,0,80,0,1
178746,-100,4,1,0,80,0,0

[Colours]
Combo1 : 251,40,17
Combo2 : 0,202,0
Combo3 : 18,124,255
Combo4 : 250,194,5
Combo5 : 244,51,225

[HitObjects]
257,101,11918,5,2,1:0:0:0:
158,57,12284,5,0,0:0:0:0:
116,156,12650,2,0,P|68:220|13:213,2,120,2|2|0,0:0|0:0|0:0,0:0:0:0:
41,77,13747,1,2,0:0:0:0:
143,43,14113,1,8,0:0:0:0:
210,127,14479,2,0,P|258:175|330:191,1,120,0|4,1:0|1:0,0:0:0:0:
408,153,15210,5,0,0:0:0:0:
426,259,15576,2,8,P|474:227|506:163,1,120,2|2,0:0|0:0,0:0:0:0:
488,66,16308,1,0,0:0:0:0:
382,87,16674,1,2,0:0:0:0:
277,60,17040,2,0,P|221:116|213:180,1,120,8|0,0:0|1:0,0:0:0:0:
328,160,17771,1,4,1:0:0:0:
356,264,18137,5,2,0:0:0:0:
262,318,18503,2,0,P|182:334|126:310,1,120,2|0,0:0|0:0,0:0:0:0:
43,281,19235,1,8,0:0:0:0:
115,200,19601,2,0,B|115:128|11:128|19:40,2,180,2|2|4,0:0|0:0|1:0,0:0:0:0:
99,307,21064,5,0,0:0:0:0:
201,354,21430,1,4,0:0:0:0:
201,354,21613,1,0,0:0:0:0:
312,356,21979,1,4,0:0:0:0:
312,356,22162,1,0,0:0:0:0:
256,264,22528,1,2,0:0:0:0:
200,168,22893,1,8,0:0:0:0:
256,72,23259,2,0,B|304:40|328:112|376:72,1,120,0|4,1:0|1:0,0:0:0:0:
488,48,23991,5,0,0:0:0:0:
432,144,24357,1,8,0:0:0:0:
432,144,24723,1,8,0:0:0:0:
432,256,25089,2,0,L|288:256,1,120,2|8,0:0|0:0,0:0:0:0:
256,160,25820,1,2,0:0:0:0:
176,88,26186,2,0,P|128:144|136:216,1,120,0|4,1:0|1:0,0:0:0:0:
224,240,26918,5,0,0:0:0:0:
152,320,27284,1,2,0:0:0:0:
46,295,27650,1,2,0:0:0:0:
96,200,28015,2,0,P|72:136|16:104,2,120,2|0|8,0:0|0:0|0:0,0:0:0:0:
45,296,29113,2,0,L|181:296,1,120,0|4,1:0|1:0,0:0:0:0:
280,320,29845,6,0,P|336:264|408:240,1,120
440,336,30576,1,0,0:0:0:0:
512,264,30942,1,2,0:0:0:0:
456,184,31308,1,2,0:0:0:0:
456,184,31491,1,0,0:0:0:0:
456,184,31674,2,0,B|424:136|384:240|336:168,2,120,0|8|4,0:0|1:2|1:0,0:0:0:0:
408,280,32771,5,0,0:0:0:0:
320,344,33137,1,4,0:0:0:0:
224,304,33503,1,0,0:0:0:0:
224,304,33686,1,4,0:0:0:0:
128,264,34052,1,0,0:0:0:0:
128,264,34235,2,0,P|64:288|32:352,2,120,2|8|0,0:0|0:0|1:0,0:0:0:0:
224,200,35332,1,4,1:0:0:0:
272,88,35698,5,0,0:0:0:0:
384,152,36064,1,0,1:0:0:0:
240,192,36430,5,0,0:0:0:0:
128,240,36796,1,4,1:0:0:0:
272,288,37162,5,0,0:0:0:0:
384,352,37528,2,0,L|528:352,2,120,8|0|4,0:0|0:0|1:0,0:0:0:0:
376,224,38625,5,0,0:0:0:0:
472,136,38991,2,0,P|408:64|344:48,1,120,0|0,1:0|0:0,0:0:0:0:
264,112,39723,2,0,P|248:168|184:208,1,120,0|0,1:0|0:0,0:0:0:0:
104,112,40454,2,2,P|24:208|56:336,1,240,2|4,1:0|1:0,0:0:0:0:
160,360,41552,5,0,0:0:0:0:
288,360,41918,1,0,1:0:0:0:
352,240,42284,5,0,0:0:0:0:
216,240,42650,1,4,1:0:0:0:
192,112,43015,5,2,0:0:0:0:
320,112,43381,1,0,0:0:0:0:
256,224,43747,1,0,0:0:0:0:
168,323,44113,2,0,P|257:303|347:326,2,180,4|0|0,0:0|0:0|0:0,0:0:0:0:
256,192,45393,12,0,46674,0:0:0:0:
112,40,47406,5,0,0:0:0:0:
48,128,47771,2,0,P|128:176|176:168,1,120
248,120,48503,2,0,P|320:152|336:208,1,120,2|0,0:0|0:0,0:0:0:0:
232,232,49235,1,8,0:0:0:0:
320,288,49601,1,0,0:0:0:0:
256,376,49967,1,4,0:0:0:0:
160,312,50332,5,0,0:0:0:0:
114,282,50515,1,0,0:0:0:0:
75,243,50698,2,0,P|139:235|187:171,1,120,2|0,0:0|0:0,0:0:0:0:
124,103,51430,1,8,0:0:0:0:
231,117,51796,1,0,0:0:0:0:
324,62,52162,2,2,P|412:62|468:102,2,120,2|2|4,0:0|0:0|0:0,0:0:0:0:
221,95,53259,5,0,0:0:0:0:
160,184,53625,2,0,P|104:240|48:224,1,120
11,144,54357,2,2,P|59:96|147:112,1,120,2|0,0:0|0:0,0:0:0:0:
223,126,55089,5,0,0:0:0:0:
256,241,55454,1,8,0:0:0:0:
291,355,55820,1,4,0:0:0:0:
356,188,56369,5,0,0:0:0:0:
356,188,56552,2,0,B|401:155|435:233|474:189,2,120,2|10|10,0:0|0:0|0:0,0:0:0:0:
260,235,57650,1,0,0:0:0:0:
260,235,57832,1,4,0:0:0:0:
206,330,58198,1,0,0:0:0:0:
206,330,58381,2,0,P|258:351|323:323,1,120,0|4,0:0|2:0,0:0:0:0:
256,330,61674,5,4,1:0:0:0:
361,307,62040,5,0,0:0:0:0:
309,212,62406,1,8,0:0:0:0:
384,135,62771,2,0,L|232:135,1,120,2|8,0:0|0:0,0:0:0:0:
196,50,63503,1,2,0:0:0:0:
160,90,63686,1,0,0:0:0:0:
148,142,63869,2,0,P|100:190|36:190,2,120,8|0|4,0:0|1:0|1:0,0:0:0:0:
227,56,64967,5,0,0:0:0:0:
265,156,65332,2,2,B|311:263|419:142|472:258,1,240
408,336,66430,1,0,0:0:0:0:
312,288,66796,1,8,0:0:0:0:
200,288,67162,1,0,1:0:0:0:
104,336,67528,1,4,1:0:0:0:
32,240,67893,5,0,0:0:0:0:
32,240,68076,2,8,L|136:160,1,90.0000034332277,8|0,0:0|0:0,0:0:0:0:
174,214,68625,2,8,L|272:136,1,90.0000034332277,8|0,0:0|0:0,0:0:0:0:
319,186,69174,2,8,L|421:106,1,90.0000034332277,8|0,0:0|0:0,0:0:0:0:
476,77,69723,1,2,0:0:0:0:
476,77,69906,1,0,0:0:0:0:
476,77,70089,2,0,P|500:141|476:197,1,120,8|4,0:0|1:0,0:0:0:0:
432,319,70820,5,2,0:0:0:0:
432,319,71003,1,0,0:0:0:0:
432,319,71186,2,0,P|364:308|314:234,1,120,0|2,0:0|0:0,0:0:0:0:
266,185,71918,1,2,0:0:0:0:
166,136,72284,1,2,0:0:0:0:
141,184,72467,1,0,0:0:0:0:
100,220,72650,2,0,P|44:268|52:348,2,120,8|0|4,0:0|1:0|1:0,0:0:0:0:
176,312,73747,5,2,0:0:0:0:
176,312,73930,1,0,0:0:0:0:
176,312,74113,2,0,P|248:275|275:217,1,120,2|8,0:0|0:0,0:0:0:0:
163,212,74845,1,2,0:0:0:0:
103,121,75210,1,8,0:0:0:0:
145,88,75393,1,0,0:0:0:0:
161,36,75576,2,0,P|221:47|279:100,1,120,0|0,0:0|1:0,0:0:0:0:
201,168,76308,1,4,1:1:0:0:
312,168,76674,1,8,2:2:0:0:
376,64,77040,5,2,0:0:0:0:
376,64,77223,1,0,0:0:0:0:
376,64,77406,2,0,L|464:168,1,120,2|0,0:0|0:0,0:0:0:0:
496,256,78137,1,8,0:0:0:0:
424,336,78503,2,0,L|280:336,1,120,2|0,0:0|1:0,0:0:0:0:
192,336,79235,1,4,1:0:0:0:
120,240,79601,5,2,0:0:0:0:
168,144,79967,1,4,0:0:0:0:
168,144,80150,1,0,0:0:0:0:
256,80,80515,1,4,0:0:0:0:
256,80,80698,1,0,0:0:0:0:
344,152,81064,1,2,0:0:0:0:
344,152,81247,2,0,B|312:280|128:224|144:360,1,300,0|4,0:0|1:0,0:0:0:0:
264,360,82528,5,0,0:0:0:0:
376,312,82893,1,0,1:0:0:0:
240,272,83259,5,0,0:0:0:0:
136,216,83625,1,4,1:0:0:0:
256,128,83991,5,0,0:0:0:0:
256,128,84357,2,0,L|392:128,2,120,8|0|4,0:0|0:0|1:0,0:0:0:0:
120,64,85454,5,0,0:0:0:0:
120,64,85820,2,0,P|96:128|120:184,1,120,0|0,1:0|0:0,0:0:0:0:
232,152,86552,2,0,P|256:216|224:280,1,120,0|0,1:0|0:0,0:0:0:0:
120,336,87284,2,0,B|208:288|264:392|376:336,1,240,2|4,1:0|1:0,0:0:0:0:
448,256,88381,5,0,0:0:0:0:
384,144,88747,1,0,1:0:0:0:
256,64,89113,5,0,0:0:0:0:
256,200,89479,1,4,1:0:0:0:
136,136,89845,5,2,0:0:0:0:
56,256,90210,2,0,P|136:336|208:360,1,180.000006866455,4|4,0:0|1:0,0:0:0:0:
316,263,91308,5,8,0:0:0:0:
316,263,91491,1,4,0:0:0:0:
221,197,91857,1,0,0:0:0:0:
221,197,92040,1,8,0:0:0:0:
257,82,92406,2,0,B|201:42|127:150|79:70,2,180,4|0|0,0:0|0:0|0:0,0:0:0:0:
376,88,93869,1,0,0:0:0:0:
454,179,94235,5,0,0:0:0:0:
456,299,94601,2,0,P|398:329|323:299,1,120
347,197,95332,2,0,L|243:109,1,120,2|0,0:0|0:0,0:0:0:0:
166,39,96064,1,8,0:0:0:0:
52,77,96430,1,0,0:0:0:0:
52,197,96796,1,4,0:0:0:0:
168,144,97162,5,0,0:0:0:0:
168,144,97345,1,0,0:0:0:0:
168,144,97528,2,0,P|224:200|240:256,1,120,2|0,0:0|0:0,0:0:0:0:
136,272,98259,1,8,0:0:0:0:
192,360,98625,1,0,0:0:0:0:
296,352,98991,2,2,P|384:336|432:288,2,120,2|2|4,0:0|0:0|0:0,0:0:0:0:
256,248,100089,5,0,0:0:0:0:
312,152,100454,2,0,P|328:72|304:32,1,120
208,80,101186,2,2,P|182:138|208:216,1,120,2|0,0:0|0:0,0:3:0:0:
312,152,101918,5,0,0:0:0:0:
191,191,102284,1,8,0:0:0:0:
256,304,102650,1,4,0:0:0:0:
424,216,103198,5,0,0:0:0:0:
424,216,103381,2,0,B|376:192|344:247|301:213,1,120,2|10,0:0|0:0,0:0:0:0:
304,112,104113,1,10,0:0:0:0:
210,162,104479,1,0,0:0:0:0:
210,162,104662,2,0,P|170:202|202:306,1,120,4|0,0:0|0:0,0:0:0:0:
172,316,105210,2,0,L|12:316,1,120,0|4,0:0|0:0,0:0:0:0:
10,215,105942,5,0,0:0:0:0:
111,236,106308,2,0,P|183:204|199:156,1,120
131,83,107040,1,2,0:0:0:0:
226,31,107406,1,0,0:0:0:0:
288,128,107771,2,0,P|339:184|418:161,2,120,8|0|4,0:0|0:0|0:0,0:0:0:0:
382,51,108869,5,0,0:0:0:0:
432,71,109052,1,0,0:0:0:0:
474,105,109235,2,0,P|511:193|484:256,1,120,2|0,0:0|0:0,0:0:0:0:
399,209,109967,1,8,0:0:0:0:
408,320,110332,1,0,0:0:0:0:
408,320,110515,1,0,0:0:0:0:
408,320,110698,2,2,P|344:344|263:304,1,120
233,243,111430,1,4,0:0:0:0:
137,182,111796,5,0,0:0:0:0:
198,77,112162,2,0,L|342:77,1,120
313,185,112893,2,2,P|257:161|194:189,1,120,2|0,0:0|0:0,0:0:0:0:
156,290,113625,1,0,0:0:0:0:
255,232,113991,1,8,0:0:0:0:
352,296,114357,1,4,0:0:0:0:
376,128,114906,5,0,0:0:0:0:
376,128,115089,1,2,0:0:0:0:
256,128,115454,1,10,0:0:0:0:
136,128,115820,1,10,0:0:0:0:
112,248,116186,1,0,0:0:0:0:
112,248,116369,2,0,B|224:192|320:304|408:248,1,300,4|4,0:0|0:0,0:0:0:0:
256,192,120213,12,2,122410,0:0:0:0:
40,312,123143,6,0,P|80:232|136:208,1,120,4|10,0:0|0:0,0:0:0:0:
189,151,123871,1,2,0:0:0:0:
303,174,124236,1,8,0:0:0:0:
303,174,124418,1,0,0:0:0:0:
303,174,124601,2,0,P|287:238|239:278,1,120,2|8,0:0|0:0,0:0:0:0:
143,248,125323,1,0,0:0:0:0:
82,158,125691,1,2,0:0:0:0:
139,49,126059,5,0,0:0:0:0:
236,96,126425,2,0,P|283:135|377:127,2,120,8|2|8,0:0|0:0|0:0,0:0:0:0:
162,175,127526,1,2,0:0:0:0:
201,275,127887,1,8,0:0:0:0:
308,323,128247,1,0,0:0:0:0:
308,323,128432,1,0,0:0:0:0:
308,323,128616,2,0,P|356:259|436:235,1,120,2|0,0:0|0:0,0:0:0:0:
496,296,129348,5,8,0:0:0:0:
507,243,129531,1,0,0:0:0:0:
499,189,129713,2,0,P|451:133|387:109,1,120,2|8,0:0|0:0,0:0:0:0:
306,83,130442,1,2,0:0:0:0:
198,89,130816,1,8,1:2:0:0:
136,177,131189,1,0,0:0:0:0:
157,282,131552,1,0,1:2:0:0:
247,341,131916,1,4,0:0:0:0:
258,233,132281,5,8,0:0:0:0:
354,281,132647,2,0,P|423:309|490:273,1,120,2|8,0:0|0:0,0:0:0:0:
499,236,133196,1,2,0:0:0:0:
464,133,133562,1,8,0:0:0:0:
363,165,133928,1,0,0:0:0:0:
363,165,134112,2,0,P|304:137|267:69,2,120,2|8|4,0:0|0:0|0:1,0:0:0:0:
406,65,135197,5,8,0:0:0:0:
492,130,135563,2,0,P|500:210|484:274,1,120,2|8,0:0|0:0,0:0:0:0:
462,311,136112,1,2,0:0:0:0:
378,242,136476,1,2,0:0:0:0:
303,171,136838,1,0,0:0:0:0:
303,171,137021,2,0,P|239:227|223:283,1,120,2|8,0:0|0:0,0:0:0:0:
136,344,137758,6,0,P|104:264|48:224,1,120,4|8,0:1|0:0,0:0:0:0:
19,152,138491,1,2,0:0:0:0:
91,71,138858,1,8,0:0:0:0:
140,121,139042,2,0,P|196:169|290:169,1,120,2|2,0:0|0:0,0:0:0:0:
357,187,139765,1,0,0:0:0:0:
330,251,139945,2,0,P|266:267|194:243,1,120,8|4,0:0|0:0,0:0:0:0:
256,192,141031,12,4,142883,1:0:0:0:
421,78,143624,5,4,0:0:0:0:
475,195,143990,1,8,0:0:0:0:
475,195,144173,1,0,0:0:0:0:
475,195,144356,2,2,P|403:259|395:307,1,120,2|8,0:0|0:0,0:0:0:0:
264,344,145088,5,2,0:0:0:0:
196,331,145271,1,0,0:0:0:0:
147,280,145454,1,10,0:0:0:0:
176,120,145820,6,0,P|120:64|48:56,2,120,0|0|4,0:0|0:0|0:0,0:0:0:0:
64,208,146917,5,8,0:0:0:0:
64,208,147100,1,0,0:0:0:0:
64,208,147283,2,2,P|96:272|144:312,1,120,2|8,0:0|0:0,0:0:0:0:
246,213,148015,1,2,0:0:0:0:
301,167,148198,1,0,0:0:0:0:
370,150,148381,1,10,0:0:0:0:
459,262,148746,6,0,L|327:262,1,120
206,338,149478,6,0,P|142:290|126:226,1,120,4|0,0:0|0:0,0:0:0:0:
160,184,150027,1,0,0:0:0:0:
160,184,150210,1,0,0:0:0:0:
270,241,150576,2,0,P|334:193|350:129,1,120,4|0,0:0|0:0,0:0:0:0:
339,84,151125,1,0,0:0:0:0:
339,84,151307,1,0,0:0:0:0:
213,41,151673,6,0,L|125:41,2,60,0|2|4,0:0|0:0|0:0,0:0:0:0:
346,108,152405,5,0,0:0:0:0:
346,108,152588,1,4,0:0:0:0:
208,138,152954,5,0,0:0:0:0:
208,138,153137,1,4,0:0:0:0:
334,216,153503,5,0,0:0:0:0:
334,216,153685,1,4,0:0:0:0:
258,340,154051,5,0,0:0:0:0:
258,340,154234,1,4,0:0:0:0:
143,252,154600,6,0,B|224:214|319:313|391:247,1,240,0|4,0:0|0:0,0:0:0:0:
471,165,155698,5,0,0:0:0:0:
410,61,156064,2,0,P|362:125|298:133,1,120
238,52,156795,1,2,0:0:0:0:
126,78,157161,1,0,0:0:0:0:
126,78,157344,1,0,0:0:0:0:
126,78,157527,2,0,P|70:134|46:198,2,120,8|0|4,0:0|0:0|0:0,0:0:0:0:
217,169,158624,5,0,0:0:0:0:
199,226,158807,1,0,0:0:0:0:
181,283,158990,2,0,P|230:323|290:325,1,120,2|0,0:0|0:0,0:0:0:0:
372,244,159722,1,8,0:0:0:0:
327,142,160088,1,0,0:0:0:0:
327,142,160271,1,0,0:0:0:0:
327,142,160454,2,2,P|383:86|431:70,1,120
504,157,161185,1,4,0:0:0:0:
490,276,161551,5,0,0:0:0:0:
378,338,161917,2,0,P|306:322|258:266,1,120
168,204,162649,2,2,P|240:196|296:148,1,120,2|0,0:0|0:0,0:3:0:0:
192,56,163381,5,0,0:0:0:0:
320,56,163746,1,8,0:0:0:0:
256,168,164112,1,4,0:0:0:0:
320,352,164661,5,0,0:0:0:0:
320,352,164844,2,0,B|256:376|193:347,2,120,2|10|10,0:0|0:0|0:0,0:0:0:0:
240,248,165942,1,0,0:0:0:0:
183,204,166124,1,4,0:0:0:0:
320,136,166490,1,0,0:0:0:0:
320,64,166673,2,0,L|160:64,1,120,0|4,0:0|0:0,0:0:0:0:
68,89,167405,5,0,0:0:0:0:
165,158,167771,2,0,P|229:214|237:286,1,120
118,243,168503,1,2,0:0:0:0:
150,358,168868,1,0,0:0:0:0:
213,367,169051,1,0,0:0:0:0:
272,355,169234,2,0,P|304:307|408:283,2,120,8|0|4,0:0|0:0|0:0,0:0:0:0:
408,352,170332,5,0,0:0:0:0:
468,327,170515,1,0,0:0:0:0:
484,269,170698,2,0,P|423:247|393:192,1,120,2|0,0:0|0:0,0:0:0:0:
433,88,171429,1,8,0:0:0:0:
323,68,171795,1,0,0:0:0:0:
323,68,171978,1,0,0:0:0:0:
323,68,172161,2,2,L|169:69,2,120,2|2|4,0:0|0:0|0:0,0:0:0:0:
230,144,173259,5,0,0:0:0:0:
193,257,173624,2,0,P|177:329|217:385,1,120
328,320,174356,2,2,P|352:248|312:192,1,120,2|0,0:0|0:0,0:0:0:0:
256,112,175088,5,4,0:0:0:0:
256,232,175454,1,8,0:0:0:0:
256,352,175820,1,4,0:0:0:0:
192,168,176368,5,0,0:0:0:0:
192,168,176551,1,2,0:0:0:0:
328,168,176917,1,10,0:0:0:0:
192,168,177283,1,10,0:0:0:0:
256,48,177649,5,0,0:0:0:0:
256,48,177832,2,0,B|168:136|352:224|256:352,1,300,4|4,0:0|0:0,0:0:0:0:
160,256,179112,5,0,0:0:0:0:
88,144,179478,1,4,0:0:0:0:
176,48,179844,5,0,0:0:0:0:
176,48,180027,1,2,0:0:0:0:
176,48,180210,2,0,L|320:48,1,120,0|4,0:0|0:0,0:0:0:0:
328,176,180942,5,0,0:0:0:0:
200,208,181307,1,0,0:0:0:0:
256,328,181673,1,4,0:0:0:0:
256,192,182039,12,4,184234,0:0:0:0:
