osu file format v14

[General]
AudioFilename: 09 Celebrity Status.mp3
AudioLeadIn: 0
PreviewTime: 47032
Countdown: 1
SampleSet: Soft
StackLeniency: 0.7
Mode: 0
LetterboxInBreaks: 0
WidescreenStoryboard: 1

[Editor]
Bookmarks: 11910,47032,58739,82154,93861,117276
DistanceSpacing: 1
BeatDivisor: 4
GridSize: 8
TimelineZoom: 3.799998

[Metadata]
Title:Celebrity Status
TitleUnicode:Celebrity Status
Artist:Marianas Trench
ArtistUnicode:Marianas Trench
Creator:0_o
Version:Insane
Source:
Tags:rock pop punk english masterpiece theatre
BeatmapID:2939606
BeatmapSetID:121830

[Difficulty]
HPDrainRate:7
CircleSize:5
OverallDifficulty:7
ApproachRate:7.7
SliderMultiplier:1.8
SliderTickRate:1

[Events]
//Background and Video events
0,0,"red_star.png",0,0
//Break Periods
2,58946,60513
2,117483,119418
//Storyboard Layer 0 (Background)
//Storyboard Layer 1 (Fail)
//Storyboard Layer 2 (Pass)
//Storyboard Layer 3 (Foreground)
//Storyboard Layer 4 (Overlay)
//Storyboard Sound Samples

[TimingPoints]
211,365.853658536585,4,2,0,70,1,0
44095,-100,4,1,0,80,0,0
58729,-100,4,2,0,70,0,0
61290,-133.333333333333,4,2,0,70,0,0
61656,-100,4,2,0,70,0,0
67876,-133.333333333333,4,2,0,70,0,0
69522,-100,4,2,0,70,0,0
82162,-100,4,2,0,80,0,0
90193,-133.333333333333,4,2,0,80,0,0
90925,-100,4,1,0,80,0,0
117284,366.188587122368,4,2,0,65,1,0
123143,364.409353173398,4,2,0,80,1,0
124601,361.3369467028,4,2,0,80,1,0
125324,367.534456355283,4,2,0,80,1,0
126059,366.97247706422,4,2,0,80,1,0
127527,360.36036036036,4,2,0,80,1,0
128248,368.211107701749,4,2,0,80,1,0
128984,364.741641337385,4,2,0,80,1,0
130443,373.018340068387,4,2,0,80,1,0
131189,363.636363636364,4,2,0,80,1,0
131916,365.742151782993,4,2,0,80,1,0
133379,366.524129505192,4,2,0,80,1,0
134112,359.604435121367,4,2,0,80,1,0
134832,365.742151782993,4,2,0,80,1,0
136295,362.537764350453,4,2,0,80,1,0
137021,368.550368550369,4,2,0,80,1,0
137758,366.97247706422,4,2,0,80,1,0
139226,359.712230215828,4,2,0,80,1,0
139945,358.208955223881,4,2,0,80,1,0
140661,370.484717505403,4,2,0,80,1,0
143625,365.853658536585,4,1,0,80,1,1
152405,-100,4,1,0,80,0,0
155332,-100,4,1,0,80,0,1
167038,-100,4,1,0,80,0,0
167039,-100,4,1,0,80,0,1
178746,-100,4,1,0,80,0,0

[Colours]
Combo1 : 251,40,17
Combo2 : 0,202,0
Combo3 : 18,124,255
Combo4 : 250,194,5
Combo5 : 244,51,225

[HitObjects]
64,144,11918,5,2,1:1:0:0:
64,144,12101,5,0,0:0:0:0:
104,72,12284,1,0,0:0:0:0:
184,80,12467,1,0,0:0:0:0:
248,136,12650,2,0,P|312:168|360:120,1,90,2|0,0:0|0:0,0:0:0:0:
376,104,13015,2,0,P|456:168|440:272,1,180,2|0,0:0|0:0,0:0:0:0:
400,352,13564,5,0,0:0:0:0:
344,288,13747,2,0,P|312:248|264:240,1,90,2|0,0:0|0:0,0:0:0:0:
208,280,14113,1,8,0:0:0:0:
136,320,14296,1,0,0:0:0:0:
56,312,14479,1,0,1:0:0:0:
16,240,14662,1,0,0:0:0:0:
16,112,14845,6,0,L|232:112,1,180,4|0,1:0|0:0,0:0:0:0:
224,240,15393,5,0,0:0:0:0:
296,288,15576,2,0,P|352:256|368:200,1,90,2|0,0:0|0:0,0:0:0:0:
432,192,15942,2,0,P|336:144|296:40,1,180,2|2,0:0|0:0,0:0:0:0:
224,48,16491,1,0,0:0:0:0:
152,80,16674,1,0,0:0:0:0:
176,160,16857,1,0,0:0:0:0:
256,136,17040,2,0,L|296:232,1,90,8|0,0:0|0:0,0:0:0:0:
368,240,17406,1,0,1:1:0:0:
328,312,17589,1,0,0:0:0:0:
208,352,17771,6,0,L|48:352,1,90,4|0,1:0|0:0,0:0:0:0:
0,264,18137,5,2,0:0:0:0:
24,184,18320,1,0,0:0:0:0:
88,232,18503,2,0,P|176:240|232:152,1,180,2|0,0:0|0:0,0:0:0:0:
256,96,19052,1,0,0:0:0:0:
176,120,19235,1,8,0:0:0:0:
112,72,19418,1,0,0:0:0:0:
184,32,19601,2,2,L|304:16,1,90
344,56,19967,1,0,0:0:0:0:
400,112,20150,2,0,P|448:80|456:32,2,90,2|0|0,0:0|1:0|0:0,0:0:0:0:
320,128,20698,1,4,1:0:0:0:
192,64,20881,5,0,0:0:0:0:
112,48,21064,1,2,0:0:0:0:
64,112,21247,1,0,0:0:0:0:
136,144,21430,2,0,L|256:144,1,90,4|0,0:0|0:0,0:0:0:0:
304,144,21796,1,0,0:0:0:0:
200,224,21979,2,0,L|296:224,1,90,4|0,0:0|0:0,0:0:0:0:
368,224,22345,1,0,0:0:0:0:
488,224,22528,5,2,0:0:0:0:
488,224,22710,1,0,0:0:0:0:
408,240,22893,1,8,0:0:0:0:
344,288,23076,1,0,0:0:0:0:
304,360,23259,2,0,P|264:288|168:240,1,180,0|4,1:0|1:0,2:0:0:0:
32,48,23991,5,0,0:0:0:0:
72,120,24174,1,0,0:0:0:0:
144,152,24357,1,8,0:0:0:0:
368,152,24723,1,8,0:0:0:0:
144,152,25089,1,2,0:0:0:0:
144,152,25271,1,0,0:0:0:0:
144,152,25454,2,0,P|136:216|168:240,1,90,8|0,0:0|0:0,0:0:0:0:
224,264,25820,1,2,0:0:0:0:
296,224,26003,1,0,0:0:0:0:
376,216,26186,2,0,P|424:248|440:280,1,90,0|0,1:0|0:0,0:0:0:0:
312,352,26552,6,0,L|192:352,1,90,4|0,1:0|0:0,0:0:0:0:
80,288,26918,5,0,0:0:0:0:
40,216,27101,1,0,0:3:0:0:
120,192,27284,2,0,P|168:160|176:128,1,90,2|0,0:0|0:0,0:0:0:0:
96,104,27650,1,2,0:0:0:0:
144,40,27832,1,0,0:0:0:0:
224,64,28015,2,0,P|264:56|312:16,2,90,2|0|0,0:0|0:0|0:0,0:0:0:0:
168,120,28564,1,0,0:0:0:0:
208,192,28747,1,8,0:0:0:0:
288,192,28930,1,0,0:0:0:0:
312,112,29113,2,0,B|376:72|424:184|480:120,1,180,0|4,1:0|1:0,0:0:0:0:
200,24,29845,5,2,0:0:0:0:
144,80,30028,1,0,0:0:0:0:
64,63,30210,2,0,P|16:151|48:247,1,180,2|2,0:0|0:0,0:0:0:0:
112,208,30759,1,0,0:0:0:0:
176,160,30942,2,0,P|232:192|240:232,1,90,2|0,0:0|0:0,0:0:0:0:
152,320,31308,5,2,0:0:0:0:
224,352,31491,1,0,0:0:0:0:
296,312,31674,1,2,0:0:0:0:
264,240,31857,1,8,0:0:0:0:
312,176,32040,1,8,1:2:0:0:
392,160,32223,1,0,0:0:0:0:
448,224,32406,2,0,P|488:192|496:144,2,90,4|0|2,1:0|0:0|0:0,0:0:0:0:
384,88,32954,5,0,0:0:0:0:
384,88,33137,2,0,L|224:88,1,90,4|0,0:0|0:0,0:0:0:0:
216,88,33503,1,0,0:0:0:0:
128,176,33686,2,0,L|288:176,1,90,4|0,0:0|0:0,0:0:0:0:
296,176,34052,1,0,0:0:0:0:
456,240,34235,6,0,P|440:312|400:336,1,90,2|0,0:0|0:0,0:0:0:0:
360,280,34601,1,8,0:0:0:0:
280,288,34784,1,0,1:0:0:0:
208,328,34967,1,0,1:0:0:0:
128,328,35150,1,0,0:0:0:0:
64,280,35332,1,4,1:0:0:0:
48,56,35698,5,0,0:0:0:0:
240,152,36064,1,0,1:0:0:0:
464,120,36430,5,0,0:0:0:0:
272,232,36796,1,4,1:0:0:0:
48,208,37162,5,0,0:0:0:0:
168,352,37528,1,8,1:0:0:0:
256,304,37710,1,0,0:0:0:0:
344,352,37893,2,0,L|448:352,2,90,0|0|4,1:0|0:0|1:0,0:0:0:0:
256,48,38625,5,0,0:0:0:0:
184,144,38991,2,0,P|112:200|32:176,1,180,0|0,1:0|0:0,0:0:0:0:
328,224,39723,2,0,P|400:280|480:256,2,180,4|0|0,1:0|0:0|1:0,0:0:0:0:
256,184,40637,1,0,0:0:0:0:
177,203,40820,1,2,0:0:0:0:
124,264,41003,1,0,0:0:0:0:
144,342,41186,1,4,1:0:0:0:
336,72,41552,5,0,0:0:0:0:
432,280,41918,1,0,1:0:0:0:
168,152,42284,5,0,0:0:0:0:
72,352,42650,1,4,1:0:0:0:
128,72,43015,5,0,0:0:0:0:
384,176,43381,1,2,1:2:0:0:
254,354,43747,1,0,0:0:0:0:
254,354,43930,1,0,0:0:0:0:
254,354,44113,6,0,P|161:329|94:255,1,180,4|8,0:0|0:0,0:0:0:0:
207,205,44662,2,0,P|307:176|356:110,1,180
256,47,45210,1,8,0:0:0:0:
256,47,45393,1,4,0:0:0:0:
256,192,45576,12,4,47040,0:0:0:0:
288,48,47406,5,0,0:0:0:0:
352,96,47589,1,0,0:0:0:0:
432,72,47771,2,0,P|488:88|512:128,1,90
432,144,48137,1,0,0:0:0:0:
408,224,48320,1,0,0:0:0:0:
336,192,48503,2,0,P|304:224|296:288,1,90,2|0,0:0|0:0,0:0:0:0:
312,344,48869,1,0,0:0:0:0:
232,352,49052,1,0,0:0:0:0:
184,288,49235,2,0,P|80:264|-8:296,2,180,8|0|4,0:0|0:0|0:0,0:0:0:0:
368,304,50150,5,0,0:0:0:0:
448,288,50332,2,0,L|472:192,1,90
504,128,50698,2,0,B|424:80|400:184|328:120,1,180,2|0,0:0|0:0,0:0:0:0:
373,55,51247,1,0,0:0:0:0:
373,55,51430,1,8,0:0:0:0:
292,45,51613,1,0,0:0:0:0:
245,111,51796,1,0,0:0:0:0:
165,125,51979,1,0,0:0:0:0:
188,47,52162,2,2,L|76:47,1,90,2|0,0:0|0:0,0:0:0:0:
60,119,52528,2,2,P|12:239|52:303,1,180,2|4,0:0|0:0,0:0:0:0:
312,344,53259,5,0,0:0:0:0:
312,344,53442,1,0,0:0:0:0:
312,344,53625,2,0,P|416:288|448:224,1,180
248,224,54174,5,0,0:0:0:0:
248,224,54357,2,2,P|168:136|168:72,1,180,2|0,0:0|0:0,0:0:0:0:
280,32,54906,5,0,0:0:0:0:
360,48,55089,1,0,0:0:0:0:
152,144,55454,1,8,0:0:0:0:
400,256,55820,2,0,P|320:272|264:368,1,180,4|0,0:0|0:0,0:0:0:0:
448,320,56369,5,0,0:0:0:0:
448,320,56552,2,0,P|480:256|464:224,1,90,2|0,0:0|0:0,0:0:0:0:
360,192,56918,2,0,P|304:184|272:136,1,90,10|0,0:0|0:0,0:0:0:0:
336,48,57284,2,0,L|232:48,1,90,10|0,0:0|0:0,0:0:0:0:
160,48,57650,1,0,0:0:0:0:
208,128,57832,2,0,P|136:216|48:200,1,180,4|0,0:0|0:0,0:0:0:0:
168,296,58381,2,0,B|256:256|344:296,1,180,0|4,0:0|0:0,0:0:0:0:
192,192,61308,6,0,B|240:160|280:232|328:184,1,135.000005149842,2|4,0:0|1:0,0:0:0:0:
464,128,61857,6,0,P|464:72|416:40,1,90,0|2,0:0|0:0,0:0:0:0:
360,32,62223,1,0,0:0:0:0:
288,64,62406,2,0,L|152:64,1,90,8|0,0:0|0:0,0:0:0:0:
96,24,62771,2,0,P|56:64|40:112,1,90,2|0,0:0|0:0,0:0:0:0:
128,128,63137,2,0,L|216:216,1,90,8|0,0:0|0:0,0:0:0:0:
264,160,63503,1,2,0:0:0:0:
336,200,63686,1,0,0:0:0:0:
312,280,63869,1,8,0:0:0:0:
376,328,64052,1,0,0:0:0:0:
456,328,64235,2,0,P|480:280|464:224,1,90,0|0,1:0|0:0,0:0:0:0:
512,96,64601,6,0,P|456:88|424:112,1,90,4|0,1:0|0:0,0:0:0:0:
368,160,64967,1,2,0:0:0:0:
352,240,65150,1,0,0:0:0:0:
304,304,65332,2,2,P|224:224|144:216,1,180
120,288,65881,1,0,0:0:0:0:
120,288,66064,1,2,0:0:0:0:
16,344,66247,5,0,0:0:0:0:
8,264,66430,1,2,0:0:0:0:
56,200,66613,1,0,0:0:0:0:
136,216,66796,2,0,P|184:176|192:136,1,90,8|0,0:0|0:0,0:0:0:0:
200,40,67162,2,0,P|264:56|280:80,1,90,0|0,1:0|0:0,0:0:0:0:
280,160,67528,2,0,L|400:160,1,90,4|0,1:0|0:0,0:0:0:0:
464,96,67893,5,0,0:0:0:0:
464,96,68076,2,0,L|520:256,1,135.000005149842,8|0,0:0|0:0,0:0:0:0:
368,336,68625,2,0,L|432:176,1,135.000005149842,8|0,0:0|0:0,0:0:0:0:
288,96,69174,2,0,L|344:256,1,135.000005149842,8|0,0:0|0:0,0:0:0:0:
433,273,69723,1,2,0:0:0:0:
394,344,69906,1,0,0:0:0:0:
314,360,70089,1,4,0:2:0:0:
246,315,70271,1,0,0:0:0:0:
302,188,70454,6,0,L|198:188,1,90,4|0,1:0|0:0,0:0:0:0:
72,248,70820,5,2,0:0:0:0:
32,176,71003,1,0,0:0:0:0:
40,96,71186,2,0,P|136:88|192:144,1,180,0|2,0:0|0:0,0:0:0:0:
184,256,71735,1,0,0:0:0:0:
184,256,71918,2,2,P|240:184|344:192,1,180
368,248,72467,1,0,0:0:0:0:
472,320,72650,5,8,0:0:0:0:
504,248,72832,1,0,0:0:0:0:
496,168,73015,1,0,1:0:0:0:
424,136,73198,1,0,0:0:0:0:
368,192,73381,2,0,B|320:240|240:192,2,90,4|0|2,1:0|0:0|0:0,0:0:0:0:
397,60,73930,5,0,0:0:0:0:
321,31,74113,1,2,0:0:0:0:
249,69,74296,1,0,0:0:0:0:
256,152,74479,2,0,P|224:208|176:224,1,90,8|0,0:0|0:0,0:0:0:0:
136,168,74845,1,2,0:0:0:0:
56,184,75028,1,0,0:0:0:0:
32,264,75210,1,8,0:0:0:0:
104,304,75393,1,0,0:0:0:0:
168,248,75576,2,0,P|208:280|224:352,1,90,2|0,0:0|0:0,0:0:0:0:
320,352,75942,2,0,L|368:248,1,90,0|0,1:2|0:0,0:0:0:0:
296,176,76308,2,2,B|384:144|416:224|472:176,1,180,6|10,1:0|0:0,0:0:0:0:
504,48,76857,5,0,0:0:0:0:
504,48,76948,1,0,0:0:0:0:
504,48,77040,2,0,P|480:88|416:96,1,90,2|0,0:0|0:0,0:0:0:0:
320,64,77406,2,0,P|392:144|384:224,1,180,2|0,0:0|0:0,0:0:0:0:
328,264,77954,1,2,0:0:0:0:
264,208,78137,1,8,0:0:0:0:
184,232,78320,1,0,0:0:0:0:
216,304,78503,2,2,L|104:304,1,90,6|0,0:0|0:0,0:0:0:0:
72,248,78869,1,2,1:2:0:0:
32,176,79052,1,0,0:0:0:0:
0,104,79235,2,0,L|104:104,1,90,4|0,1:0|0:0,0:0:0:0:
168,32,79601,5,8,0:0:0:0:
240,72,79784,1,0,0:0:0:0:
192,136,79967,2,0,L|296:200,1,90,4|2,0:0|0:0,0:0:0:0:
320,120,80332,1,0,0:0:0:0:
408,152,80515,2,0,L|344:232,1,90,4|2,0:0|0:0,0:0:0:0:
456,232,80881,1,2,0:0:0:0:
512,335,81064,6,0,B|408:240|256:320|120:384|-16:320,1,540,0|4,0:0|1:0,0:0:0:0:
248,40,82528,5,0,0:0:0:0:
32,40,82893,1,0,1:0:0:0:
272,192,83259,5,0,0:0:0:0:
488,192,83625,1,4,1:0:0:0:
256,344,83991,5,0,0:0:0:0:
256,112,84357,1,8,1:0:0:0:
336,112,84540,1,0,0:0:0:0:
256,192,84723,2,0,L|144:192,2,90,0|0|4,1:0|0:0|1:0,0:0:0:0:
512,192,85454,5,0,0:0:0:0:
224,35,85820,2,0,P|136:72|72:136,1,180,0|0,1:0|0:0,0:0:0:0:
288,160,86552,2,0,P|376:197|440:261,2,180,4|0|0,1:0|0:0|1:0,0:0:0:0:
205,206,87467,1,2,0:0:0:0:
227,283,87650,1,0,0:0:0:0:
295,326,87832,1,0,0:0:0:0:
373,306,88015,1,4,1:0:0:0:
480,64,88381,5,0,0:0:0:0:
480,320,88747,1,0,1:0:0:0:
256,64,89113,5,0,0:0:0:0:
256,320,89479,1,4,1:0:0:0:
32,64,89845,5,0,0:0:0:0:
32,64,90210,2,0,B|40:152|104:176|176:200|176:280,1,270.000010299683,4|4,0:0|0:0,0:0:0:0:
345,359,91308,5,8,0:0:0:0:
419,308,91491,1,4,0:0:0:0:
155,215,91857,1,0,0:0:0:0:
94,148,92040,1,8,0:0:0:0:
168,97,92223,2,0,P|256:77|345:99,2,180,4|0|0,0:0|0:0|0:0,0:0:0:0:
256,192,93046,12,4,93869,0:0:0:0:
64,72,94235,37,0,0:0:0:0:
112,136,94418,1,0,0:0:0:0:
192,112,94601,2,0,P|232:136|240:192,1,90
176,216,94967,1,0,0:0:0:0:
152,296,95150,1,0,0:0:0:0:
216,352,95332,2,0,P|240:312|304:280,1,90,2|0,0:0|0:0,0:0:0:0:
352,312,95698,1,0,0:0:0:0:
368,232,95881,1,0,0:0:0:0:
448,200,96064,2,0,P|496:272|472:384,2,180,8|0|4,0:0|0:0|0:0,0:0:0:0:
328,104,96979,6,0,P|304:56|320:16,2,90
464,64,97528,2,0,L|336:200,1,180,2|0,0:0|0:0,0:0:0:0:
280,144,98076,1,0,0:0:0:0:
200,128,98259,1,8,0:0:0:0:
144,184,98442,1,0,0:0:0:0:
176,256,98625,1,0,0:0:0:0:
120,312,98808,1,0,0:0:0:0:
48,272,98991,2,0,L|24:168,1,90,2|0,0:0|0:0,0:0:0:0:
16,104,99357,2,2,B|80:64|136:160|192:96,1,180,2|4,0:0|0:0,0:0:0:0:
416,40,100089,5,0,0:0:0:0:
416,40,100271,1,0,0:0:0:0:
416,40,100454,2,0,P|392:128|320:176,1,180,0|0,0:0|0:0,0:0:0:0:
144,144,101003,5,0,0:0:0:0:
144,144,101186,2,2,P|224:200|256:288,1,180,2|0,0:0|0:0,0:0:0:0:
168,344,101735,5,0,0:0:0:0:
168,344,101918,1,0,0:0:0:0:
368,208,102284,1,8,0:0:0:0:
256,40,102650,2,0,L|256:232,1,180,4|0,0:0|0:0,0:0:0:0:
256,344,103198,5,0,0:0:0:0:
136,304,103381,2,0,P|80:264|72:224,1,90,2|0,0:0|0:0,0:0:0:0:
192,192,103747,2,0,P|152:136|104:128,1,90,10|0,0:0|0:0,0:0:0:0:
16,176,104113,2,0,P|8:128|24:80,1,90,10|0,0:0|0:0,0:0:0:0:
96,32,104479,1,0,0:0:0:0:
192,72,104662,2,0,L|304:72,1,90,4|0,0:0|0:0,0:0:0:0:
376,72,105028,1,0,0:0:0:0:
304,160,105210,2,0,L|424:160,1,90
512,112,105576,6,0,P|464:176|480:296,1,180,4|0,0:0|0:0,0:0:0:0:
512,352,106125,1,0,0:0:0:0:
432,360,106308,2,0,P|360:280|264:248,1,180
264,144,106857,1,0,0:0:0:0:
264,144,107040,2,0,P|205:219|90:218,1,180,2|0,0:0|0:0,0:0:0:0:
64,160,107589,1,0,0:0:0:0:
64,160,107771,2,0,P|120:128|128:88,1,90,8|0,0:0|0:0,0:0:0:0:
192,32,108137,2,0,L|296:32,1,90
392,32,108503,6,0,P|416:96|456:104,1,90,4|0,0:0|0:0,0:0:0:0:
504,72,108869,1,0,0:0:0:0:
496,152,109052,1,0,0:0:0:0:
416,168,109235,2,0,P|352:208|344:248,2,90,2|0|0,0:0|0:0|0:0,0:0:0:0:
480,216,109784,1,0,0:0:0:0:
504,296,109967,1,8,0:0:0:0:
504,296,110150,1,0,0:0:0:0:
424,296,110332,1,0,0:0:0:0:
368,352,110515,1,0,0:0:0:0:
288,344,110698,2,0,P|240:320|216:264,1,90,2|0,0:0|0:0,0:0:0:0:
328,224,111064,2,2,P|360:176|344:136,1,90,2|0,0:0|0:0,0:0:0:0:
240,48,111430,6,0,P|168:120|80:104,1,180,4|0,0:0|0:0,0:0:0:0:
0,224,111979,5,0,0:0:0:0:
0,224,112162,2,0,P|96:248|152:360,1,180,0|0,0:0|0:0,0:0:0:0:
296,352,112710,5,0,0:0:0:0:
296,352,112893,2,2,P|368:288|456:264,1,180,2|0,0:0|0:0,0:0:0:0:
512,192,113442,5,0,0:0:0:0:
512,192,113625,1,0,0:0:0:0:
256,48,113991,1,8,0:0:0:0:
256,320,114357,1,4,0:0:0:0:
0,192,114723,5,0,0:0:0:0:
0,192,114906,1,0,0:0:0:0:
64,112,115089,2,0,L|176:112,1,90,2|0,0:0|0:0,0:0:0:0:
256,208,115454,2,0,L|160:208,1,90,10|0,0:0|0:0,0:0:0:0:
304,128,115820,2,0,L|416:128,1,90,10|0,0:0|0:0,0:0:0:0:
496,128,116186,1,0,0:0:0:0:
456,232,116369,2,0,L|336:232,1,90,4|0,0:0|0:0,0:0:0:0:
256,232,116735,1,0,0:0:0:0:
184,320,116918,2,0,B|237:290|306:368|359:320,1,180,0|4,0:0|0:0,0:0:0:0:
256,192,120213,12,8,122776,0:0:0:0:
24,48,123143,6,0,P|88:96|112:192,1,180,4|8,0:0|0:0,0:0:0:0:
48,280,123689,1,0,0:0:0:0:
48,280,123871,2,0,P|96:208|200:184,1,180,2|8,0:0|0:0,0:0:0:0:
319,249,124418,5,0,0:0:0:0:
376,304,124601,2,0,P|432:272|440:233,1,90,2|0,0:0|0:0,0:0:0:0:
312,136,124962,2,0,P|240:192|256:280,1,180,8|0,0:0|0:0,0:0:0:0:
304,336,125507,1,0,0:0:0:0:
376,304,125691,2,0,P|440:328|464:352,2,90,10|0|0,0:0|0:0|0:0,0:0:0:0:
192,344,126242,6,0,P|136:304|120:256,1,90,0|8,0:0|0:0,0:0:0:0:
152,208,126609,1,0,0:0:0:0:
232,216,126792,2,0,P|320:168|352:96,1,180,2|8,0:0|0:0,0:0:0:0:
208,40,127343,5,0,0:0:0:0:
208,40,127527,2,0,P|126:72|72:152,1,180,2|8,0:0|0:0,0:0:0:0:
88,224,128067,1,0,0:0:0:0:
152,272,128248,1,2,0:0:0:0:
233,270,128432,1,0,0:0:0:0:
299,224,128616,1,8,0:0:0:0:
317,145,128800,1,0,0:0:0:0:
273,22,128984,6,0,P|337:86|449:94,1,180,0|8,0:0|0:0,0:0:0:0:
384,18,129531,1,0,0:0:0:0:
277,124,129713,2,0,P|221:212|261:292,1,180,2|8,0:0|0:0,0:0:0:0:
398,207,130260,5,0,0:0:0:0:
398,207,130443,2,0,P|478:255|478:287,1,90,2|0,0:0|0:0,0:0:0:0:
384,336,130816,2,0,P|328:344|280:320,1,90,8|0,0:0|0:0,0:0:0:0:
312,240,131189,2,0,P|272:192|224:192,1,90,2|0,0:0|0:0,0:0:0:0:
144,224,131552,2,0,P|128:272|176:328,1,90,8|0,0:0|0:0,0:0:0:0:
264,344,131916,6,0,P|320:280|424:248,1,180,4|8,0:0|0:0,0:0:0:0:
496,56,132647,2,2,P|432:112|328:120,1,180,2|8,0:0|0:0,0:0:0:0:
320,40,133196,2,0,P|256:56|232:96,1,90,2|0,0:0|0:0,0:0:0:0:
272,144,133562,1,0,0:0:0:0:
240,216,133745,1,8,0:0:0:0:
160,224,133928,1,0,0:0:0:0:
88,192,134112,2,0,P|16:128|0:32,2,180,2|4|4,0:0|0:0|0:1,0:0:0:0:
256,40,135197,5,8,0:0:0:0:
408,96,135563,2,2,P|480:168|472:264,1,180,2|8,0:0|0:0,0:0:0:0:
408,208,136112,1,2,0:0:0:0:
328,208,136295,1,0,0:0:0:0:
272,272,136476,2,0,P|200:248|184:216,2,90,2|8|0,0:0|0:0|0:0,0:0:0:0:
328,208,137021,2,0,P|248:136|144:112,1,180,2|4,0:0|0:0,0:0:0:0:
40,192,137573,5,0,0:0:0:0:
40,192,137758,2,0,P|87:263|176:304,3,180,4|8|2|0,0:1|0:0|0:0|0:0,0:0:0:0:
272,240,139042,2,0,P|328:272|344:304,1,90,2|0,0:0|0:0,0:0:0:0:
384,360,139405,1,2,0:0:0:0:
464,336,139585,1,8,0:0:0:0:
472,256,139765,1,0,0:0:0:0:
416,184,139945,5,2,0:0:0:0:
112,184,140303,1,4,0:0:0:0:
256,192,141031,12,4,142883,0:1:0:0:
256,64,143254,5,8,0:0:0:0:
256,64,143625,6,0,L|176:144,1,90,4|0,0:0|0:0,0:0:0:0:
120,80,143990,1,8,0:0:0:0:
56,144,144173,1,0,0:0:0:0:
96,224,144356,2,0,P|96:280|64:312,2,90,2|0|8,0:0|0:0|0:0,0:0:0:0:
32,88,144905,5,2,0:0:0:0:
112,136,145088,1,0,0:0:0:0:
200,112,145271,1,0,0:0:0:0:
168,24,145454,2,0,L|280:24,1,90,2|0,0:0|0:0,0:0:0:0:
416,24,145820,5,0,0:0:0:0:
488,88,146003,1,0,0:0:0:0:
408,136,146185,2,0,P|384:200|400:240,1,90
496,344,146551,6,0,L|392:344,1,90,4|0,0:0|0:0,0:0:0:0:
352,272,146917,1,8,0:0:0:0:
264,256,147100,1,0,0:0:0:0:
224,336,147283,2,0,L|144:280,1,90,2|0,0:0|0:0,0:0:0:0:
79,228,147649,1,8,0:0:0:0:
40,88,147832,5,2,0:0:0:0:
128,64,148015,1,2,0:0:0:0:
192,120,148198,1,0,0:0:0:0:
208,208,148381,2,0,P|272:176|288:152,1,90,2|0,0:0|0:0,0:0:0:0:
352,64,148746,5,0,0:0:0:0:
256,32,148929,1,0,0:0:0:0:
256,120,149112,2,0,P|320:176|416:176,1,180,0|4,0:0|0:0,0:0:0:0:
488,80,149661,5,0,0:0:0:0:
504,168,149844,1,0,0:0:0:0:
488,256,150027,1,0,0:0:0:0:
437,330,150210,2,0,P|365:234|277:210,1,180,4|0,0:0|0:0,0:0:0:0:
224,321,150759,5,0,0:0:0:0:
161,256,150942,1,4,0:0:0:0:
72,266,151125,1,0,0:0:0:0:
28,187,151307,2,0,P|148:179|196:131,1,180,0|0,0:0|0:0,0:0:0:0:
176,24,151856,5,2,0:0:0:0:
336,24,152039,1,4,0:0:0:0:
192,312,152405,5,0,0:0:0:0:
80,224,152588,1,4,0:0:0:0:
344,240,152954,5,0,0:0:0:0:
472,128,153137,1,4,0:0:0:0:
192,160,153503,5,0,0:0:0:0:
48,24,153685,1,4,0:0:0:0:
376,352,154051,5,0,0:0:0:0:
136,352,154234,1,4,0:0:0:0:
256,88,154600,5,0,0:0:0:0:
256,99,154692,1,0,0:0:0:0:
256,110,154783,1,0,0:0:0:0:
256,121,154875,1,0,0:0:0:0:
256,133,154966,1,0,0:0:0:0:
256,144,155057,1,0,0:0:0:0:
256,155,155149,1,0,0:0:0:0:
256,166,155240,1,0,0:0:0:0:
256,176,155332,6,0,P|200:240|112:280,1,180,4|0,0:0|0:0,0:0:0:0:
32,240,155881,1,0,0:0:0:0:
80,168,156064,2,0,P|136:136|152:88,1,90
88,48,156429,1,0,0:0:0:0:
176,24,156612,1,0,0:0:0:0:
232,96,156795,2,0,P|272:128|320:136,1,90,2|0,0:0|0:0,0:0:0:0:
368,72,157161,1,0,0:0:0:0:
440,128,157344,1,0,0:0:0:0:
376,192,157527,2,0,L|464:256,1,90,8|0,0:0|0:0,0:0:0:0:
496,360,157893,2,0,L|408:296,1,90
296,240,158259,6,0,L|192:240,1,90,4|0,0:0|0:0,0:0:0:0:
136,184,158624,1,0,0:0:0:0:
56,224,158807,1,0,0:0:0:0:
120,288,158990,2,0,P|72:320|16:312,2,90,2|0|0,0:0|0:0|0:0,0:0:0:0:
168,216,159539,1,0,0:0:0:0:
248,176,159722,1,8,0:0:0:0:
304,240,159905,1,0,0:0:0:0:
384,272,160088,1,0,0:0:0:0:
464,224,160271,1,0,0:0:0:0:
376,192,160454,2,0,P|400:136|432:120,1,90,2|0,0:0|0:0,0:0:0:0:
512,72,160820,2,0,P|480:24|432:16,1,90,2|0,0:0|0:0,0:0:0:0:
352,40,161185,2,0,P|304:112|192:160,1,180,4|0,0:0|0:0,0:0:0:0:
144,48,161734,5,0,0:0:0:0:
144,48,161917,2,0,P|88:80|72:160,2,90,0|0|0,0:0|0:0|0:0,0:0:0:0:
328,96,162466,5,0,0:0:0:0:
328,96,162649,2,2,P|384:144|392:256,1,180,2|0,0:0|0:0,0:0:0:0:
312,320,163198,5,0,0:0:0:0:
312,320,163381,1,0,0:0:0:0:
256,64,163746,1,8,0:0:0:0:
200,320,164112,1,4,0:0:0:0:
408,192,164478,5,0,0:0:0:0:
408,192,164661,1,0,0:0:0:0:
336,112,164844,2,0,L|224:112,1,90,2|0,0:0|0:0,0:0:0:0:
126,240,165210,2,0,L|238:240,1,90,10|0,0:0|0:0,0:0:0:0:
320,352,165576,2,0,P|360:336|376:272,1,90,10|0,0:0|0:0,0:0:0:0:
320,200,165942,1,0,0:0:0:0:
216,240,166124,2,0,P|168:200|176:160,1,90,4|0,0:0|0:0,0:0:0:0:
216,56,166490,1,0,0:0:0:0:
312,136,166673,2,0,L|192:136,1,90
136,32,167039,6,0,P|56:80|16:168,1,180,4|0,0:0|0:0,0:0:0:0:
48,240,167588,1,0,0:0:0:0:
128,288,167771,2,0,P|176:256|224:256,1,90
296,240,168137,1,0,0:0:0:0:
256,320,168320,1,0,0:0:0:0:
336,360,168503,2,0,P|392:376|432:360,2,90,2|0|0,0:0|0:0|0:0,0:0:0:0:
304,280,169051,1,0,0:0:0:0:
224,240,169234,2,0,P|240:192|288:168,1,90,8|0,0:0|0:0,0:0:0:0:
432,112,169600,2,0,P|408:168|352:184,1,90
256,232,169966,6,0,P|194:232|144:304,1,90,4|0,0:0|0:0,0:0:0:0:
192,336,170332,1,0,0:0:0:0:
104,344,170515,1,0,0:0:0:0:
48,272,170698,2,2,B|48:200|144:200|144:104,1,180,2|0,0:0|0:0,0:0:0:0:
56,88,171246,1,0,0:0:0:0:
128,32,171429,1,8,0:0:0:0:
128,32,171612,1,0,0:0:0:0:
192,96,171795,1,0,0:0:0:0:
280,88,171978,1,0,0:0:0:0:
352,32,172161,2,0,P|400:72|408:112,1,90,2|0,0:0|0:0,0:0:0:0:
320,192,172527,2,0,P|264:168|216:184,1,90,2|0,0:0|0:0,0:0:0:0:
168,320,172893,6,0,P|256:344|344:320,1,180,4|0,0:0|0:0,0:0:0:0:
440,264,173442,5,0,0:0:0:0:
440,264,173624,2,0,P|408:160|328:104,1,180,0|0,0:0|0:0,0:0:0:0:
120,192,174173,5,0,0:0:0:0:
120,192,174356,2,2,P|152:88|216:40,1,180,2|0,0:0|0:0,0:0:0:0:
344,40,174905,5,0,0:0:0:0:
344,40,175088,1,0,0:0:0:0:
120,144,175454,1,8,0:0:0:0:
256,352,175820,1,4,0:0:0:0:
176,64,176185,5,0,0:0:0:0:
264,64,176368,1,0,0:0:0:0:
176,144,176551,2,0,L|72:144,1,90,2|0,0:0|0:0,0:0:0:0:
200,232,176917,2,0,L|312:232,1,90,10|0,0:0|0:0,0:0:0:0:
392,144,177283,2,0,L|280:144,1,90,10|0,0:0|0:0,0:0:0:0:
200,144,177649,1,0,0:0:0:0:
176,264,177832,2,0,P|272:240|360:280,1,180,4|0,0:0|0:0,0:0:0:0:
304,360,178381,2,0,L|192:360,1,90,4|0,0:0|0:0,0:0:0:0:
32,352,178746,6,0,P|8:256|32:208,1,90,4|0,0:0|0:0,0:0:0:0:
96,275,179112,1,8,0:0:0:0:
86,186,179295,1,0,0:0:0:0:
155,128,179478,2,0,P|251:184|275:256,1,180,4|0,0:0|0:0,0:0:0:0:
352,352,180027,5,2,0:0:0:0:
384,264,180210,1,0,0:0:0:0:
472,280,180393,1,0,0:0:0:0:
504,192,180576,2,0,P|408:168|360:88,1,180,4|0,0:0|0:0,0:0:0:0:
312,24,181124,5,0,0:0:0:0:
208,24,181307,1,0,0:0:0:0:
256,352,181673,1,4,0:0:0:0:
256,192,182039,12,4,184234,0:0:0:0:
