osu file format v14

[General]
AudioFilename: 09 Celebrity Status.mp3
AudioLeadIn: 0
PreviewTime: 47032
Countdown: 1
SampleSet: Soft
StackLeniency: 0.7
Mode: 0
LetterboxInBreaks: 0
WidescreenStoryboard: 1

[Editor]
Bookmarks: 11910,47032,58739,82154,93861,117276
DistanceSpacing: 1.2
BeatDivisor: 4
GridSize: 8
TimelineZoom: 1.5

[Metadata]
Title:Celebrity Status
TitleUnicode:Celebrity Status
Artist:Marianas Trench
ArtistUnicode:Marianas Trench
Creator:0_o
Version:Hard
Source:
Tags:rock pop punk english masterpiece theatre
BeatmapID:311974
BeatmapSetID:121830

[Difficulty]
HPDrainRate:6
CircleSize:4.6
OverallDifficulty:6
ApproachRate:7
SliderMultiplier:1.5
SliderTickRate:1

[Events]
//Background and Video events
0,0,"red_star.png",0,0
//Break Periods
2,58946,60408
2,117483,119313
//Storyboard Layer 0 (Background)
//Storyboard Layer 1 (Fail)
//Storyboard Layer 2 (Pass)
//Storyboard Layer 3 (Foreground)
//Storyboard Layer 4 (Overlay)
//Storyboard Sound Samples

[TimingPoints]
211,365.853658536585,4,2,0,70,1,0
44095,-100,4,1,0,80,0,0
58729,-100,4,2,0,70,0,0
61290,-133.333333333333,4,2,0,70,0,0
61656,-100,4,2,0,70,0,0
67876,-133.333333333333,4,2,0,70,0,0
69522,-100,4,2,0,70,0,0
82162,-100,4,2,0,80,0,0
90193,-133.333333333333,4,2,0,80,0,0
90925,-100,4,1,0,80,0,0
117284,366.188587122368,4,2,0,65,1,0
123143,364.409353173398,4,2,0,80,1,0
124601,361.3369467028,4,2,0,80,1,0
125324,367.534456355283,4,2,0,80,1,0
126059,366.97247706422,4,2,0,80,1,0
127527,360.36036036036,4,2,0,80,1,0
128248,368.211107701749,4,2,0,80,1,0
128984,364.741641337385,4,2,0,80,1,0
130443,373.018340068387,4,2,0,80,1,0
131189,363.636363636364,4,2,0,80,1,0
131916,365.742151782993,4,2,0,80,1,0
133379,366.524129505192,4,2,0,80,1,0
134112,359.604435121367,4,2,0,80,1,0
134832,365.742151782993,4,2,0,80,1,0
136295,362.537764350453,4,2,0,80,1,0
137021,368.550368550369,4,2,0,80,1,0
137758,366.97247706422,4,2,0,80,1,0
139226,359.712230215828,4,2,0,80,1,0
139945,358.208955223881,4,2,0,80,1,0
140661,370.484717505403,4,2,0,80,1,0
143625,365.853658536585,4,1,0,80,1,1
152405,-100,4,1,0,80,0,0
155332,-100,4,1,0,80,0,1
167038,-100,4,1,0,80,0,0
167039,-100,4,1,0,80,0,1
178746,-100,4,1,0,80,0,0

[Colours]
Combo1 : 251,40,17
Combo2 : 0,202,0
Combo3 : 18,124,255
Combo4 : 250,194,5
Combo5 : 244,51,225

[HitObjects]
72,128,11918,5,2,1:0:0:0:
236,57,12284,5,2,0:0:0:0:
303,48,12467,1,0,0:0:0:0:
354,92,12650,2,0,B|394:159|489:141,1,150,2|2,0:0|0:0,0:0:0:0:
358,259,13381,2,0,P|283:311|208:299,1,150,0|2,0:0|0:0,0:0:0:0:
169,283,13930,1,0,0:0:0:0:
169,283,14113,2,0,P|105:231|76:163,2,150,8|0|4,0:0|1:0|1:1,0:0:0:0:
293,353,15210,5,2,0:0:0:0:
333,298,15393,1,0,0:0:0:0:
400,295,15576,2,0,P|462:248|478:176,1,150,8|8,0:0|0:0,0:0:0:0:
410,63,16308,2,0,P|349:108|320:179,1,150,0|2,0:0|0:0,0:0:0:0:
334,245,16857,1,0,0:0:0:0:
334,245,17040,2,0,B|256:289|193:245,1,150,2|0,0:0|1:1,0:0:0:0:
256,104,17771,1,4,1:1:0:0:
112,40,18137,5,2,0:0:0:0:
112,40,18320,1,0,0:0:0:0:
112,40,18503,2,0,P|160:112|152:192,1,150,2|0,0:0|0:0,0:0:0:0:
88,168,19052,1,0,0:0:0:0:
48,224,19235,2,0,P|56:256|96:296,1,75,8|0,0:0|0:0,0:0:0:0:
152,272,19601,2,0,P|224:272|288:328,3,150,2|0|0|4,0:0|0:0|1:0|1:1,0:0:0:0:
440,352,21064,5,2,0:0:0:0:
464,288,21247,1,0,0:0:0:0:
480,224,21430,2,8,L|408:80,1,150,4|0,0:0|0:0,0:0:0:0:
376,184,21979,2,0,L|296:32,1,150,4|0,0:0|0:0,0:0:0:0:
216,32,22528,1,2,0:0:0:0:
248,104,22710,1,0,0:0:0:0:
272,176,22893,2,0,P|216:248|144:272,1,150,8|0,0:0|1:0,0:0:0:0:
48,168,23625,1,4,1:1:0:0:
176,40,23991,6,0,P|224:72|248:72,1,75,2|0,0:0|0:0,0:0:0:0:
312,48,24357,1,8,0:0:0:0:
312,48,24723,1,8,0:0:0:0:
416,136,25089,2,0,P|368:168|344:168,1,75,2|0,0:0|0:0,0:0:0:0:
288,136,25454,1,8,0:0:0:0:
144,208,25820,2,0,P|192:240|216:240,1,75,2|0,0:0|0:0,0:0:0:0:
272,216,26186,2,0,P|352:240|392:296,1,150,0|4,1:2|1:1,0:0:0:0:
176,344,26918,5,2,0:0:0:0:
112,320,27101,1,0,0:0:0:0:
80,256,27284,2,0,P|152:216|176:144,1,150,2|2,0:0|0:0,0:0:0:0:
152,96,27832,1,0,0:0:0:0:
152,96,28015,2,0,P|192:160|296:176,1,150,2|0,0:0|0:0,0:0:0:0:
288,120,28564,1,0,0:0:0:0:
344,80,28747,2,0,P|416:112|464:176,2,150,8|0|4,0:0|1:0|1:1,0:0:0:0:
216,32,29845,5,0,0:0:0:0:
192,96,30028,1,0,0:0:0:0:
128,120,30210,2,0,P|56:160|32:240,1,150,2|0,0:0|0:0,0:0:0:0:
63,280,30759,1,0,0:0:0:0:
127,299,30942,1,8,0:0:0:0:
253,189,31308,1,2,0:0:0:0:
309,225,31491,1,0,0:0:0:0:
340,286,31674,2,0,B|380:334|436:246|484:294,2,150,0|8|4,0:0|1:2|1:1,0:0:0:0:
388,119,32771,5,2,0:0:0:0:
388,119,32954,1,0,0:0:0:0:
388,119,33137,2,0,P|297:151|223:121,1,150,4|0,0:0|0:0,0:0:0:0:
297,221,33686,2,0,P|206:253|132:223,1,150,4|0,0:0|0:0,0:0:0:0:
89,308,34235,2,0,P|180:340|254:310,1,150,2|8,0:0|0:0,0:0:0:0:
305,301,34784,1,0,1:0:0:0:
305,301,34967,2,0,P|366:299|443:349,1,150,0|4,1:0|1:1,0:0:0:0:
256,368,35698,5,0,2:0:0:0:
96,288,36064,1,0,1:0:0:0:
256,208,36430,5,0,2:0:0:0:
416,120,36796,1,4,1:0:0:0:
256,24,37162,5,0,2:0:0:0:
256,208,37528,2,0,L|256:288,2,75,8|0|0,1:0|0:0|1:0,0:0:0:0:
256,24,38259,1,4,1:1:0:0:
88,88,38625,5,0,0:0:0:0:
192,240,38991,2,0,P|136:288|56:288,1,150,0|0,1:0|2:0,0:0:0:0:
184,152,39723,2,0,P|256:136|336:155,1,150,4|0,1:1|2:0,0:0:0:0:
456,288,40454,1,2,0:0:0:0:
456,288,40637,1,2,0:0:0:0:
456,288,40820,2,0,P|382:291|326:339,1,150,0|4,0:0|1:0,0:0:0:0:
146,335,41552,5,0,2:0:0:0:
42,191,41918,1,0,1:0:0:0:
209,233,42284,5,0,2:0:0:0:
310,84,42650,1,4,1:0:0:0:
157,29,43015,5,2,2:0:0:0:
255,180,43381,1,0,0:0:0:0:
357,338,43747,1,0,2:0:0:0:
357,338,43930,1,0,0:0:0:0:
357,338,44113,2,0,B|269:266|229:386|141:322,2,225,4|0|0,1:0|0:0|0:0,0:0:0:0:
256,192,45393,12,0,47040,0:0:0:0:
59,36,47406,5,0,0:0:0:0:
109,80,47589,1,0,0:0:0:0:
97,146,47771,2,0,P|143:236|193:257,1,150
232,208,48320,1,0,0:0:0:0:
232,208,48503,2,0,P|271:146|348:123,1,150,2|0,0:0|0:0,0:0:0:0:
407,109,49052,1,0,0:0:0:0:
407,109,49235,2,0,P|477:182|480:238,2,150,8|0|4,0:0|0:0|0:0,0:0:0:0:
260,19,50332,5,0,0:0:0:0:
196,41,50515,1,0,0:0:0:0:
198,108,50698,2,0,P|127:178|43:173,1,150,2|0,0:0|0:0,0:0:0:0:
13,180,51247,1,0,0:0:0:0:
11,248,51430,2,0,P|99:311|113:361,1,150,8|0,0:0|0:0,0:0:0:0:
181,356,51979,1,0,0:0:0:0:
181,356,52162,2,2,P|263:338|337:361,2,150,2|2|4,0:0|0:0|0:0,0:0:0:0:
72,206,53259,5,0,0:0:0:0:
72,206,53442,1,0,0:0:0:0:
72,206,53625,2,0,P|151:172|196:83,1,150
245,155,54174,1,0,0:0:0:0:
307,181,54357,2,2,P|386:147|431:58,1,150,2|0,0:0|0:0,0:0:0:0:
384,32,54906,1,0,0:0:0:0:
312,24,55089,1,0,0:0:0:0:
256,192,55454,1,8,0:0:0:0:
184,344,55820,1,4,0:0:0:0:
368,160,56369,5,0,0:0:0:0:
368,160,56552,2,0,B|424:120|456:208|512:160,2,150,2|10|10,0:0|0:0|0:0,0:0:0:0:
292,272,57650,1,0,0:0:0:0:
236,233,57832,1,4,0:0:0:0:
189,106,58198,1,0,0:0:0:0:
146,158,58381,2,0,P|82:206|2:182,1,150,0|4,0:0|0:0,0:0:0:0:
72,56,61308,5,2,0:0:0:0:
72,56,61674,6,0,P|147:97|181:177,1,150,4|0,1:1|0:0,0:0:0:0:
111,168,62223,1,0,0:0:0:0:
80,228,62406,2,0,P|119:246|149:299,1,75,8|0,0:0|0:0,0:0:0:0:
67,297,62771,2,0,P|89:337|150:352,1,75,2|0,0:0|0:0,0:0:0:0:
178,329,63137,2,0,L|332:264,1,150,8|2,0:0|0:0,0:0:0:0:
372,234,63686,1,0,0:0:0:0:
437,249,63869,2,0,P|483:199|495:121,1,150,8|0,0:0|1:1,0:0:0:0:
358,47,64601,1,4,1:1:0:0:
251,132,64967,5,2,0:0:0:0:
281,192,65150,1,0,0:0:0:0:
312,251,65332,2,0,B|244:315|159:267,1,150,2|2,0:0|0:0,0:0:0:0:
142,214,65881,1,0,0:0:0:0:
81,242,66064,2,0,P|49:229|34:184,1,75,2|0,0:0|0:0,0:0:0:0:
86,152,66430,2,0,P|127:129|142:94,1,75,2|0,0:0|0:0,0:0:0:0:
117,41,66796,2,0,L|278:41,2,150,8|0|4,0:0|1:2|1:1,0:0:0:0:
40,144,67893,5,0,0:0:0:0:
40,144,68076,2,0,L|160:144,1,112.500004291535,8|0,0:0|0:0,0:0:0:0:
96,216,68625,2,0,L|216:216,1,112.500004291535,8|0,0:0|0:0,0:0:0:0:
152,288,69174,2,0,L|280:288,1,112.500004291535,8|0,0:0|0:0,0:0:0:0:
320,352,69723,1,2,0:0:0:0:
320,352,69906,1,0,0:0:0:0:
320,352,70089,2,0,B|376:312|416:384|472:344,1,150,8|4,0:0|1:1,0:0:0:0:
479,197,70820,5,2,0:0:0:0:
457,133,71003,1,0,0:0:0:0:
400,99,71186,2,0,P|325:125|278:193,1,150,0|2,0:0|0:0,0:0:0:0:
282,179,71735,1,0,0:0:0:0:
253,278,71918,2,0,P|204:205|136:183,1,150,2|2,0:0|0:0,0:0:0:0:
82,168,72467,1,0,0:0:0:0:
82,168,72650,2,0,P|9:117|0:37,2,150,8|0|4,0:0|1:0|1:1,0:0:0:0:
215,65,73747,5,2,0:0:0:0:
276,92,73930,1,0,0:0:0:0:
307,151,74113,1,2,0:0:0:0:
359,193,74296,2,0,P|398:175|403:147,2,75,0|8|0,0:0|0:2|0:0,0:0:0:0:
307,151,74845,2,0,P|239:226|236:283,1,150,2|8,0:0|0:0,0:0:0:0:
234,270,75393,1,0,0:0:0:0:
314,341,75576,2,0,P|360:329|384:289,1,75,2|0,0:2|0:0,0:0:0:0:
344,232,75942,2,0,L|381:159,1,75,0|0,1:2|0:0,0:0:0:0:
409,83,76308,2,2,B|348:53|312:114|263:78,1,150,6|8,1:1|2:2,1:1:0:0:
68,38,77040,5,2,0:0:0:0:
68,38,77223,1,0,0:0:0:0:
68,38,77406,2,0,P|126:113|115:177,1,150,2|0,0:0|0:0,0:0:0:0:
39,137,77954,1,0,0:0:0:0:
39,137,78137,2,0,P|16:174|18:212,1,75,8|0,0:0|0:0,0:0:0:0:
80,256,78503,2,0,L|276:257,1,150,4|0,0:0|1:1,0:0:0:0:
400,256,79235,1,4,1:1:0:0:
456,96,79601,5,2,0:0:0:0:
456,96,79784,1,0,0:0:0:0:
456,96,79967,2,0,P|368:136|320:120,1,150,4|0,0:0|0:0,0:0:0:0:
238,185,80515,2,0,P|326:225|374:209,1,150,4|0,0:0|0:0,0:0:0:0:
456,264,81064,2,0,B|368:400|72:200|24:392,1,450,0|4,0:0|1:1,0:0:0:0:
15,208,82528,5,0,0:0:0:0:
15,208,82893,1,0,1:0:0:0:
181,108,83259,5,0,0:0:0:0:
181,108,83625,1,4,1:0:0:0:
322,258,83991,5,0,0:0:0:0:
322,258,84357,1,8,1:1:0:0:
368,200,84540,2,0,L|472:200,2,75
304,200,85089,6,0,L|152:200,1,150,4|0,1:0|0:0,0:0:0:0:
304,40,85820,2,0,P|336:104|432:112,1,150,0|0,1:0|0:0,0:0:0:0:
216,168,86552,2,0,P|176:232|96:240,1,150,4|0,1:0|0:0,0:0:0:0:
284,254,87284,1,2,1:2:0:0:
304,318,87467,1,0,0:0:0:0:
367,344,87650,2,0,B|447:376|527:336,1,150,0|4,0:0|1:1,0:0:0:0:
472,189,88381,5,0,0:0:0:0:
366,43,88747,1,0,1:0:0:0:
303,264,89113,5,0,0:0:0:0:
197,118,89479,1,4,1:0:0:0:
136,341,89845,5,0,0:0:0:0:
65,193,90210,2,0,B|137:143|196:253|285:193,1,225.000008583069,4|4,0:0|1:0,0:0:0:0:
343,35,91308,5,8,0:0:0:0:
378,101,91491,1,4,0:0:0:0:
188,148,91857,1,0,0:0:0:0:
151,213,92040,1,8,0:0:0:0:
256,369,92406,1,4,0:0:0:0:
256,192,92589,12,0,93869,0:0:0:0:
472,85,94235,5,0,0:0:0:0:
417,45,94418,1,0,0:0:0:0:
349,44,94601,2,0,P|303:134|253:155,1,150
203,80,95150,1,0,0:0:0:0:
203,80,95332,2,0,P|139:109|110:186,1,150,2|0,0:0|0:0,0:0:0:0:
199,214,95881,1,0,0:0:0:0:
199,214,96064,2,0,P|267:277|271:331,2,150,8|0|4,0:0|0:0|0:0,0:0:0:0:
108,350,97162,5,0,0:0:0:0:
55,307,97345,1,0,0:0:0:0:
71,241,97528,2,0,P|121:158|106:78,1,150,2|0,0:0|0:0,0:0:0:0:
58,50,98076,1,0,0:0:0:0:
58,50,98259,2,0,P|133:90|207:68,1,150,8|0,0:0|0:0,0:0:0:0:
283,48,98808,1,0,0:0:0:0:
283,48,98991,2,2,P|365:30|439:53,2,150,2|2|4,0:0|0:0|0:0,0:0:0:0:
432,224,100089,5,0,0:0:0:0:
432,224,100271,1,0,0:0:0:0:
432,224,100454,2,0,P|374:280|299:312,1,150
257,268,101003,1,0,0:0:0:0:
203,308,101186,2,2,P|125:266|89:199,1,150,2|0,0:0|0:0,0:0:0:0:
88,147,101735,1,0,0:0:0:0:
107,82,101918,1,0,0:0:0:0:
256,192,102284,1,8,0:0:0:0:
403,300,102650,1,4,0:0:0:0:
140,297,103198,5,0,0:0:0:0:
140,297,103381,2,0,B|105:362|37:291|4:360,2,150,2|10|10,0:0|0:0|0:0,0:0:0:0:
242,208,104479,1,0,0:0:0:0:
195,158,104662,1,4,0:0:0:0:
281,54,105028,1,0,0:0:0:0:
341,83,105210,2,0,P|403:135|433:198,1,150,0|4,0:0|0:0,0:0:0:0:
272,352,105942,5,0,0:0:0:0:
229,299,106125,1,0,0:0:0:0:
174,259,106308,2,0,P|123:269|97:306,2,75
222,211,106857,1,0,0:0:0:0:
222,211,107040,2,0,P|271:166|271:72,1,150,2|0,0:0|0:0,0:0:0:0:
226,40,107589,1,0,0:0:0:0:
159,48,107771,2,0,P|100:76|6:56,2,150,8|0|4,0:0|0:0|0:0,0:0:0:0:
377,41,108869,5,0,0:0:0:0:
425,94,109052,1,0,0:0:0:0:
389,151,109235,2,0,P|327:198|323:271,1,150,2|0,0:0|0:0,0:0:0:0:
321,265,109784,1,0,0:0:0:0:
417,252,109967,2,0,P|452:293|451:325,1,75,8|0,0:0|0:0,0:0:0:0:
367,360,110332,2,0,L|287:360,1,75
222,291,110698,2,2,P|136:310|75:359,2,150,2|2|4,0:0|0:0|0:0,0:0:0:0:
426,193,111796,5,0,0:0:0:0:
426,193,111979,1,0,0:0:0:0:
426,193,112162,2,0,P|488:150|509:72,1,150
509,81,112710,1,0,0:0:0:0:
413,28,112893,2,0,P|351:71|330:149,1,150,2|0,0:0|0:0,0:0:0:0:
420,117,113442,1,0,0:0:0:0:
420,117,113625,1,0,0:0:0:0:
256,192,113991,1,8,0:0:0:0:
92,267,114357,1,4,0:0:0:0:
392,344,114906,5,0,0:0:0:0:
456,288,115089,2,0,P|480:256|480:216,1,75,2|0,0:0|0:0,0:0:0:0:
383,213,115454,2,0,P|383:173|407:141,1,75,10|0,0:0|0:0,0:0:0:0:
469,73,115820,2,0,B|413:49|373:105|317:73,1,150,10|0,0:0|0:0,0:0:0:0:
256,64,116369,1,4,0:0:0:0:
304,208,116735,1,0,0:0:0:0:
328,272,116918,2,0,P|256:296|184:272,1,150,0|4,0:0|0:0,0:0:0:0:
256,192,120213,12,0,122776,0:0:0:0:
286,109,123143,6,0,P|238:173|158:181,1,150,4|8,0:0|0:0,0:0:0:0:
57,42,123871,2,0,P|137:50|180:105,1,150,2|8,0:0|0:0,0:0:0:0:
92,142,124418,1,0,0:0:0:0:
92,142,124601,2,0,P|45:197|41:278,2,150,2|8|2,0:0|0:0|0:0,0:0:0:0:
92,142,125507,1,0,0:0:0:0:
145,235,125691,2,0,P|202:281|290:271,1,150,8|0,0:0|0:0,0:0:0:0:
342,77,126425,5,8,0:0:0:0:
471,152,126792,1,2,0:0:0:0:
385,276,127159,1,8,0:0:0:0:
385,276,127343,1,0,0:0:0:0:
385,276,127527,2,0,P|300:293|253:347,1,150,2|8,0:0|0:0,0:0:0:0:
258,337,128067,1,0,0:0:0:0:
202,298,128248,2,0,P|161:237|80:193,1,150,2|8,0:0|0:0,0:0:0:0:
80,29,128984,6,0,P|147:75|220:66,1,150,2|8,0:0|0:0,0:0:0:0:
212,69,129531,1,0,0:0:0:0:
327,123,129713,2,0,P|248:137|188:178,1,150,2|8,0:0|0:0,0:0:0:0:
190,175,130260,1,0,0:0:0:0:
294,223,130443,2,0,P|367:278|384:334,1,150,2|8,0:0|0:2,0:0:0:0:
383,331,131002,1,0,0:0:0:0:
266,359,131189,2,0,P|188:344|114:362,2,150,0|8|4,0:0|1:2|0:0,0:0:0:0:
445,291,132281,5,8,0:0:0:0:
445,291,132647,2,0,P|354:245|337:188,1,150,2|8,0:0|0:0,0:0:0:0:
316,110,133196,1,2,0:0:0:0:
316,110,133562,2,0,B|246:172|175:149,1,150,2|0,0:0|0:0,0:0:0:0:
120,70,134112,1,8,0:0:0:0:
120,70,134471,2,0,P|50:125|35:186,1,150,4|4,0:0|0:1,0:0:0:0:
108,333,135197,5,8,0:0:0:0:
108,333,135563,2,0,P|185:309|231:257,1,150,2|8,0:0|0:0,0:0:0:0:
334,231,136112,2,4,P|265:195|234:123,1,150,2|2,0:0|0:0,0:0:0:0:
234,132,136838,1,2,0:0:0:0:
256,49,137021,2,0,L|425:49,2,150,8|4|4,0:0|0:0|1:1,0:0:0:0:
80,47,138124,5,8,0:0:0:0:
80,47,138491,2,0,P|121:129|186:164,1,150,2|8,0:0|0:0,0:0:0:0:
224,112,139042,1,2,0:0:0:0:
384,192,139405,1,2,0:0:0:0:
256,320,139765,1,0,0:0:0:0:
187,260,139945,2,0,P|257:236|330:266,1,150,2|4,0:0|0:0,0:0:0:0:
256,192,141031,12,4,142883,0:1:0:0:
256,44,143254,5,8,0:0:0:0:
256,44,143625,6,0,L|196:113,1,75,4|0,0:0|0:0,0:0:0:0:
127,65,143990,1,8,0:0:0:0:
127,65,144173,1,0,0:0:0:0:
127,65,144356,2,2,P|56:129|52:197,1,150,2|8,0:0|0:0,0:0:0:0:
147,171,144905,2,0,P|182:204|180:237,1,75,0|2,0:0|0:0,0:0:0:0:
109,244,145271,1,0,0:0:0:0:
66,305,145454,2,0,P|121:355|156:356,1,75,10|0,0:0|0:0,0:0:0:0:
185,287,145820,2,0,L|344:288,1,150,4|0,0:0|0:0,0:0:0:0:
510,356,146551,6,0,P|492:272|429:224,1,150,4|8,0:0|0:0,0:0:0:0:
370,233,147100,1,0,0:0:0:0:
316,180,147283,2,0,P|302:131|316:108,2,75,2|0|8,0:0|0:0|0:0,0:0:0:0:
389,161,147832,1,0,0:0:0:0:
462,147,148015,2,0,P|497:116|497:90,1,75,2|0,0:0|0:0,0:0:0:0:
427,42,148381,2,0,L|341:25,1,75,10|0,0:0|0:0,0:0:0:0:
255,41,148746,2,0,L|255:193,1,150,4|0,0:0|0:0,0:0:0:0:
229,356,149478,5,4,0:0:0:0:
229,356,149661,1,0,0:0:0:0:
229,356,149844,2,0,P|160:312|123:253,1,150
301,237,150576,1,4,0:0:0:0:
301,237,150759,1,0,0:0:0:0:
301,237,150942,2,0,P|370:193|407:134,1,150,0|4,0:0|0:0,0:0:0:0:
290,27,151673,1,0,0:0:0:0:
220,55,151856,1,2,0:0:0:0:
258,119,152039,1,4,0:0:0:0:
257,347,152405,5,0,0:0:0:0:
257,347,152588,1,4,0:0:0:0:
152,248,152954,5,0,0:0:0:0:
152,248,153137,1,4,0:0:0:0:
368,176,153503,5,0,0:0:0:0:
368,176,153685,1,4,0:0:0:0:
256,40,154051,5,0,0:0:0:0:
256,40,154234,1,4,0:0:0:0:
256,192,154417,12,4,155332,0:0:0:0:
451,324,155698,5,0,0:0:0:0:
408,262,155881,1,0,0:0:0:0:
333,263,156064,2,0,P|270:206|268:133,1,150
302,58,156612,1,0,0:0:0:0:
302,58,156795,2,0,P|223:88|135:73,1,150,2|0,0:0|0:0,0:0:0:0:
62,55,157344,1,0,0:0:0:0:
62,55,157527,2,8,P|101:157|72:210,2,150,8|0|4,0:0|0:0|0:0,0:0:0:0:
34,270,158624,5,0,0:0:0:0:
90,319,158807,1,0,0:0:0:0:
162,300,158990,2,2,P|207:234|279:202,1,150,2|0,0:0|0:0,0:0:0:0:
337,233,159539,1,0,0:0:0:0:
289,291,159722,2,0,P|317:325|353:329,1,75,8|0,0:0|0:0,0:0:0:0:
414,298,160088,1,0,0:0:0:0:
414,298,160271,1,0,0:0:0:0:
459,238,160454,2,2,P|486:196|476:159,1,75,2|0,0:0|0:0,0:0:0:0:
382,177,160820,2,2,P|341:132|340:108,1,75,2|0,0:0|0:0,0:0:0:0:
419,35,161185,6,0,L|258:34,1,150,4|0,0:0|0:0,0:0:0:0:
269,34,161734,1,0,0:0:0:0:
152,86,161917,2,0,P|222:121|307:126,1,150
292,127,162466,1,0,0:0:0:0:
402,191,162649,2,2,P|335:224|261:232,1,150,2|0,0:0|0:0,0:0:0:0:
186,217,163198,1,0,0:0:0:0:
113,235,163381,1,0,0:0:0:0:
256,296,163746,1,8,0:0:0:0:
414,346,164112,1,4,0:0:0:0:
448,120,164661,5,0,0:0:0:0:
384,56,164844,2,0,P|344:56|304:88,1,75,2|0,0:0|0:0,0:0:0:0:
360,168,165210,2,0,L|280:168,1,75,10|0,0:0|0:0,0:0:0:0:
200,104,165576,2,0,P|144:144|144:224,1,150,10|0,0:0|0:0,0:0:0:0:
208,248,166124,1,4,0:0:0:0:
368,272,166490,1,0,0:0:0:0:
424,328,166673,2,0,P|352:352|280:328,1,150,0|4,0:0|0:0,0:0:0:0:
112,248,167405,5,0,0:0:0:0:
48,208,167588,1,0,0:0:0:0:
32,136,167771,2,0,P|80:104|88:80,1,75,0|0,0:0|0:0,0:0:0:0:
32,32,168137,1,0,0:0:0:0:
104,24,168320,1,0,0:0:0:0:
168,88,168503,2,0,P|176:120|152:160,2,75,2|0|0,0:0|0:0|0:0,0:0:0:0:
168,88,169051,1,0,0:0:0:0:
232,40,169234,2,0,P|344:64|392:88,2,150,8|0|4,0:0|0:0|0:0,0:0:0:0:
24,144,170332,5,0,0:0:0:0:
48,208,170515,1,0,0:0:0:0:
112,232,170698,2,2,B|168:216|192:288|256:280,1,150,2|0,0:0|0:0,0:0:0:0:
304,224,171246,1,0,0:0:0:0:
248,152,171429,2,0,P|288:144|344:160,1,75,8|0,0:0|0:0,0:0:0:0:
408,176,171795,1,0,0:0:0:0:
408,176,171978,1,0,0:0:0:0:
480,240,172161,2,2,B|448:312,1,75,2|0,0:0|0:0,0:0:0:0:
365,266,172527,2,2,P|293:282|253:346,1,150,2|4,0:0|0:0,0:0:0:0:
32,344,173259,5,0,0:0:0:0:
32,344,173442,1,0,0:0:0:0:
32,344,173624,2,0,P|96:296|128:224,1,150
224,200,174173,1,0,0:0:0:0:
224,200,174356,2,2,P|160:152|128:80,1,150,2|0,0:0|0:0,0:0:0:0:
184,40,174905,1,0,0:0:0:0:
256,32,175088,1,4,0:0:0:0:
256,184,175454,1,8,0:0:0:0:
256,336,175820,1,4,0:0:0:0:
456,192,176368,5,0,0:0:0:0:
392,160,176551,2,0,P|352:184|328:232,1,75,2|0,0:0|0:0,0:0:0:0:
264,280,176917,2,8,P|240:232|208:216,1,75,10|0,0:0|0:0,0:0:0:0:
160,136,177283,2,0,P|120:200|56:240,1,150,10|0,0:0|0:0,0:0:0:0:
58,239,177832,1,4,0:0:0:0:
40,80,178198,1,0,0:0:0:0:
40,80,178381,1,4,0:0:0:0:
208,32,178746,6,0,L|288:64,1,75,4|0,0:0|0:0,0:0:0:0:
277,59,179112,1,8,0:0:0:0:
277,59,179295,1,0,0:0:0:0:
399,75,179478,2,0,P|319:147|319:195,1,150,4|0,0:0|0:0,0:0:0:0:
200,191,180027,5,2,0:0:0:0:
139,146,180210,2,0,P|103:180|108:229,1,75,4|0,0:0|0:0,0:0:0:0:
181,278,180576,2,0,P|256:260|330:286,1,150
256,344,181124,1,0,0:0:0:0:
256,344,181307,1,0,0:0:0:0:
256,176,181673,5,4,0:0:0:0:
256,192,182039,12,4,184234,0:0:0:0:
