osu file format v14

[General]
AudioFilename: audio.mp3
AudioLeadIn: 0
PreviewTime: 65473
Countdown: 0
SampleSet: Soft
StackLeniency: 0.7
Mode: 0
LetterboxInBreaks: 0
WidescreenStoryboard: 0

[Editor]
Bookmarks: 281,1024,11975,22966,33931,44902,55873,66845,87380,88790
DistanceSpacing: 1.2
BeatDivisor: 4
GridSize: 32
TimelineZoom: 2.5

[Metadata]
Title:Connect
TitleUnicode:コネクト
Artist:Mariana Sayuri
ArtistUnicode:Mariana Sayuri
Creator:eiri-
Version:Normal
Source:魔法少女まどか☆マギカ
Tags:Ayyri Puella Magi Madoka Magica Anime Opening TV Size ClariS Portuguese Cover Nato Vieira
BeatmapID:2299371
BeatmapSetID:1061817

[Difficulty]
HPDrainRate:4
CircleSize:3
OverallDifficulty:4
ApproachRate:5.5
SliderMultiplier:1
SliderTickRate:1

[Events]
//Background and Video events
0,0,"Madoka 486.jpg",0,0
//Break Periods
//Storyboard Layer 0 (Background)
//Storyboard Layer 1 (Fail)
//Storyboard Layer 2 (Pass)
//Storyboard Layer 3 (Foreground)
//Storyboard Layer 4 (Overlay)
//Storyboard Sound Samples

[TimingPoints]
281,342.857142857143,4,2,1,60,1,0
473,342.857142857143,4,2,1,60,1,0
631,342.857142857143,4,2,1,60,1,0
773,342.857142857143,4,2,1,60,1,0
1024,342.857142857143,4,2,1,60,1,0
10452,-125,4,2,1,60,0,0
11633,342.857142857143,4,2,1,75,1,0
11975,342.857142857143,4,2,1,100,1,0
11975,-100,4,2,1,100,0,0
20588,315.789473684211,4,2,1,100,1,0
20745,324.324324324324,4,2,1,100,1,0
21078,333.333333333333,4,2,1,100,1,0
22299,342.857142857143,4,2,1,97,1,0
22452,342.857142857143,4,2,1,95,1,0
22623,-100,4,2,1,93,0,0
22794,-100,4,2,1,90,0,0
22966,342.857142857143,4,2,1,80,1,0
22966,-100,4,2,1,80,0,0
23333,300,4,2,1,80,1,0
23333,-100,4,2,1,80,0,0
23653,342.857142857143,4,2,1,80,1,0
23809,342.857142857143,4,2,1,80,1,0
24331,342.857142857143,4,2,1,80,1,0
24331,-100,4,2,1,80,0,0
44902,-100,4,2,1,90,0,0
55873,-100,4,2,1,95,0,0
61359,-100,4,2,1,97,0,0
65473,-125,4,2,1,97,0,0
66845,-100,4,2,1,100,0,1
85545,300,4,2,1,100,1,1
85545,-100,4,2,1,100,0,1
85865,300,4,2,1,100,1,1
85865,-100,4,2,1,100,0,1
86015,342.857142857143,4,2,1,100,1,1
86015,-100,4,2,1,100,0,1
86866,342.857142857143,4,2,1,100,1,1
86866,-100,4,2,1,100,0,1
87380,-100,4,2,1,100,0,0
88105,342.857142857143,4,2,1,75,1,0
88790,-100,4,2,1,50,0,0

[Colours]
Combo1 : 147,131,209
Combo2 : 255,149,152
Combo3 : 210,182,222
Combo4 : 235,230,169

[HitObjects]
64,64,281,5,2,0:0:0:0:
64,64,1024,6,0,L|55:184,1,100,2|0,0:0|0:0,0:0:0:0:
83,217,1538,2,0,L|138:202,1,50,2|2,0:0|0:0,0:0:0:0:
189,190,1881,1,2,0:0:0:0:
223,74,2224,2,0,L|278:59,1,50,2|2,0:0|0:0,0:0:0:0:
329,47,2567,1,2,0:0:0:0:
390,149,2909,2,0,L|508:118,1,100,2|2,0:0|0:0,0:0:0:0:
483,247,3595,1,2,0:0:0:0:
483,247,3766,6,0,L|473:366,1,100,2|0,0:0|0:0,0:0:0:0:
414,336,4281,2,0,L|355:374,1,50,2|2,0:0|0:0,0:0:0:0:
307,351,4624,1,2,0:0:0:0:
286,238,4966,1,2,0:0:0:0:
286,238,5138,2,0,L|218:248,1,50,2|2,0:0|0:0,0:0:0:0:
180,255,5481,1,2,0:0:0:0:
180,255,5652,1,2,0:0:0:0:
131,367,5995,2,0,L|66:349,1,50,2|2,0:0|0:0,0:0:0:0:
59,298,6338,1,2,0:0:0:0:
59,298,6509,6,0,L|86:178,1,100,2|0,0:0|0:0,0:0:0:0:
113,150,7024,1,2,0:0:0:0:
113,150,7195,2,0,L|97:82,1,50,2|2,0:0|0:0,0:0:0:0:
170,4,7709,1,2,0:0:0:0:
170,4,7881,2,0,L|241:18,1,50,2|2,0:0|0:0,0:0:0:0:
269,122,8395,2,0,L|389:101,1,100,2|2,0:0|0:0,0:0:0:0:
456,23,9081,1,2,0:0:0:0:
456,23,9252,6,0,L|473:136,1,100,2|2,0:0|0:0,0:0:0:0:
447,177,9766,1,0,0:0:0:0:
447,177,9938,2,0,L|435:244,1,50,2|2,0:0|0:0,0:0:0:0:
464,280,10281,1,0,0:0:0:0:
464,280,10452,6,0,B|413:252|413:252|284:283,1,180,2|0,0:0|0:0,0:0:0:0:
154,310,11633,2,0,L|164:241,1,50,2|2,0:0|0:0,0:0:0:0:
132,208,11975,6,0,L|242:174,1,100,14|2,0:0|1:2,0:0:0:0:
323,106,12660,2,0,L|277:67,1,50,10|10,0:0|0:0,0:0:0:0:
281,13,13003,1,0,1:0:0:0:
281,13,13175,2,0,L|171:47,1,100,14|10,0:0|0:0,0:0:0:0:
129,19,13689,1,0,1:0:0:0:
55,114,14032,2,0,L|65:177,1,50,10|8,0:0|0:0,0:0:0:0:
73,222,14375,1,0,1:0:0:0:
192,210,14717,6,0,L|302:244,1,100,14|2,0:0|1:2,0:0:0:0:
393,181,15403,2,0,L|385:108,1,50,10|10,0:0|0:0,0:0:0:0:
409,75,15746,1,0,1:0:0:0:
409,75,15917,2,0,P|373:41|314:35,1,100,14|8,0:0|0:0,0:0:0:0:
282,76,16432,1,2,1:2:0:0:
164,50,16775,1,2,1:2:0:0:
144,168,17117,2,0,L|154:229,1,50,2|2,1:2|1:2,0:0:0:0:
165,276,17460,6,0,P|96:264|47:245,1,100,14|2,0:0|1:2,0:0:0:0:
24,141,18146,1,10,0:0:0:0:
24,141,18317,2,0,P|44:100|50:83,1,50,10|0,0:0|1:0,0:0:0:0:
37,36,18660,2,0,P|93:21|145:25,1,100,14|10,0:0|0:0,0:0:0:0:
185,55,19175,1,0,1:0:0:0:
302,31,19517,2,0,L|350:74,1,50,2|8,1:2|0:0,0:0:0:0:
385,102,19860,1,2,1:2:0:0:
349,216,20203,5,6,0:0:0:0:
412,347,20588,2,0,L|346:333,1,50,2|2,1:2|1:2,0:0:0:0:
319,304,20907,1,2,1:2:0:0:
319,304,21078,2,0,L|253:318,1,50,2|2,1:2|1:2,0:0:0:0:
211,329,21411,1,2,1:2:0:0:
211,329,21578,5,14,0:0:0:0:
66,122,22299,1,2,1:2:0:0:
66,122,22452,2,0,L|76:59,1,50,8|10,0:0|0:0,0:0:0:0:
88,17,22794,1,8,0:0:0:0:
88,17,22966,5,14,0:0:0:0:
196,116,23333,1,2,0:0:0:0:
326,49,23653,1,2,0:0:0:0:
326,49,23809,2,0,L|309:160,1,100,10|10,0:0|0:0,0:0:0:0:
330,207,24331,1,10,0:0:0:0:
446,179,24673,1,2,0:0:0:0:
446,179,24845,2,0,L|463:290,1,100,2|10,0:0|0:0,0:0:0:0:
385,371,25531,1,10,0:0:0:0:
385,371,25702,6,0,P|347:338|287:339,1,100,10|2,0:0|0:0,0:0:0:0:
185,374,26388,1,2,0:0:0:0:
185,374,26559,2,0,L|68:354,1,100,10|10,0:0|0:0,0:0:0:0:
34,326,27073,2,0,L|73:221,1,100,10|0,0:0|0:0,0:0:0:0:
58,172,27588,1,2,0:0:0:0:
146,90,27931,2,0,L|130:26,2,50,10|8|10,0:0|0:0|0:0,0:0:0:0:
193,126,28445,5,10,0:0:0:0:
309,95,28788,1,2,0:0:0:0:
378,192,29131,1,2,0:0:0:0:
378,192,29302,2,0,L|497:217,1,100,10|10,0:0|0:0,0:0:0:0:
490,270,29816,1,10,0:0:0:0:
398,346,30159,1,2,0:0:0:0:
398,346,30331,2,0,P|356:360|286:356,1,100,2|10,0:0|0:0,0:0:0:0:
191,309,31016,1,10,0:0:0:0:
191,309,31188,6,0,L|215:199,1,100,10|0,0:0|0:0,0:0:0:0:
293,122,31873,2,0,L|269:12,1,100,2|0,0:0|0:0,0:0:0:0:
152,9,32559,2,0,L|176:119,1,100,10|0,0:0|0:0,0:0:0:0:
92,195,33245,2,0,L|71:293,1,100,2|8,0:0|0:0,0:0:0:0:
60,355,33759,1,10,0:0:0:0:
60,355,33931,5,10,0:0:0:0:
177,329,34273,2,0,L|280:359,1,100,2|2,0:0|0:0,0:0:0:0:
329,336,34788,1,10,0:0:0:0:
287,228,35131,1,10,0:0:0:0:
287,228,35302,2,0,L|317:122,1,100,10|2,0:0|0:0,0:0:0:0:
329,73,35816,2,0,L|221:107,1,100,2|10,0:0|0:0,0:0:0:0:
177,80,36331,1,0,0:0:0:0:
177,80,36502,6,0,L|162:12,1,50,10|10,0:0|0:0,0:0:0:0:
50,61,37016,1,2,0:0:0:0:
97,177,37359,1,2,0:0:0:0:
97,177,37531,2,0,P|84:236|71:277,1,100,10|10,0:0|0:0,0:0:0:0:
51,330,38045,2,0,L|166:308,1,100,10|2,0:0|0:0,0:0:0:0:
195,272,38559,1,2,0:0:0:0:
317,272,38902,1,10,0:0:0:0:
362,311,39073,2,0,L|430:324,1,50,0|10,0:0|0:0,0:0:0:0:
466,297,39416,6,0,P|493:247|487:196,1,100,10|2,0:0|0:0,0:0:0:0:
474,90,40102,1,2,0:0:0:0:
474,90,40273,2,0,L|488:22,1,50,10|0,0:0|0:0,0:0:0:0:
432,10,40616,2,0,L|331:36,1,100,10|0,0:0|0:0,0:0:0:0:
276,20,41131,2,0,L|262:88,1,50,2|2,0:0|0:0,0:0:0:0:
289,123,41473,1,2,0:0:0:0:
191,185,41816,1,2,0:0:0:0:
96,111,42159,6,0,L|-8:133,1,100,10|0,0:0|0:0,0:0:0:0:
28,183,42673,2,0,L|6:287,1,100,2|8,0:0|0:0,0:0:0:0:
35,334,43188,1,10,0:0:0:0:
138,272,43531,2,0,L|207:368,1,100,10|0,0:0|0:0,0:0:0:0:
315,353,44216,2,0,L|374:272,1,100,2|10,0:0|0:0,0:0:0:0:
417,230,44731,1,10,0:0:0:0:
417,230,44902,6,0,L|395:116,1,100,14|10,0:0|0:0,0:0:0:0:
420,13,45588,1,10,0:0:0:0:
304,45,45931,1,10,0:0:0:0:
304,45,46102,2,0,L|192:24,1,100,2|2,0:0|0:0,0:0:0:0:
156,61,46616,1,10,0:0:0:0:
39,30,46959,2,0,L|53:137,1,100,10|10,0:0|0:0,0:0:0:0:
127,222,47645,6,0,L|60:312,1,100,14|10,0:0|0:0,0:0:0:0:
30,350,48159,2,0,L|141:336,1,100,2|2,0:0|0:0,0:0:0:0:
184,361,48673,1,10,0:0:0:0:
274,282,49016,1,10,0:0:0:0:
274,282,49188,2,0,L|385:296,1,100,2|2,0:0|0:0,0:0:0:0:
424,263,49702,1,10,0:0:0:0:
354,165,50045,1,10,0:0:0:0:
354,165,50216,1,2,0:0:0:0:
354,165,50388,6,0,L|381:45,1,100,14|10,0:0|0:0,0:0:0:0:
403,13,50902,2,0,L|292:31,1,100,2|2,0:0|0:0,0:0:0:0:
267,76,51416,1,10,0:0:0:0:
162,17,51759,1,8,0:0:0:0:
162,17,51931,2,0,L|148:126,1,100,2|2,0:0|0:0,0:0:0:0:
122,170,52445,1,10,0:0:0:0:
32,249,52788,1,10,0:0:0:0:
117,333,53131,6,0,P|156:293|217:267,1,100,14|10,0:0|0:0,0:0:0:0:
317,272,53816,2,0,P|360:296|395:333,1,100,10|10,0:0|0:0,0:0:0:0:
338,355,54331,2,0,L|224:374,1,100,2|2,0:0|0:0,0:0:0:0:
186,341,54845,1,10,0:0:0:0:
254,242,55188,1,10,0:0:0:0:
190,139,55531,2,0,L|198:70,1,50,10|10,0:0|0:0,0:0:0:0:
214,32,55873,6,0,P|170:11|111:15,1,100,14|10,0:0|0:0,0:0:0:0:
29,92,56559,1,10,0:0:0:0:
94,192,56902,1,10,0:0:0:0:
94,192,57073,2,0,L|79:311,1,100,2|2,0:0|0:0,0:0:0:0:
98,349,57588,1,10,0:0:0:0:
207,298,57931,2,0,L|277:313,1,50,10|0,0:0|0:0,0:0:0:0:
308,279,58273,1,10,0:0:0:0:
423,312,58616,6,0,P|465:267|464:214,1,100,14|8,0:0|0:0,0:0:0:0:
429,184,59131,2,0,L|446:73,1,100,2|0,0:0|0:0,0:0:0:0:
421,29,59645,1,10,0:0:0:0:
421,29,59816,2,0,L|354:43,1,50,6|8,0:0|0:0,0:0:0:0:
325,77,60159,2,0,L|258:63,1,50,6|8,0:0|0:0,0:0:0:0:
157,45,60673,1,10,0:0:0:0:
178,162,61015,1,10,0:0:0:0:
59,184,61359,6,0,L|78:299,1,100,14|10,0:0|0:0,0:0:0:0:
86,341,61873,2,0,L|149:358,1,50,2|8,0:0|0:0,0:0:0:0:
191,335,62216,1,2,0:0:0:0:
286,261,62559,1,2,0:0:0:0:
286,261,62731,6,0,L|403:248,1,100,14|10,0:0|0:0,0:0:0:0:
444,239,63245,2,0,L|463:183,1,50,2|8,0:0|0:0,0:0:0:0:
497,144,63588,2,0,L|478:88,1,50,2|8,0:0|0:0,0:0:0:0:
462,44,63931,1,2,0:0:0:0:
462,44,64102,5,14,0:0:0:0:
354,91,64445,1,10,0:0:0:0:
354,91,64616,2,0,L|286:83,2,50,2|10|8,1:2|0:0|0:0,0:0:0:0:
382,144,65131,1,8,0:0:0:0:
320,217,65473,6,2,B|259:268|259:268|172:233,1,160,6|0,1:2|0:0,0:1:0:0:
67,35,66845,6,0,L|55:142,1,100,14|0,0:0|1:0,0:0:0:0:
88,185,67359,1,2,0:0:0:0:
88,185,67531,2,0,L|96:243,1,50,10|10,0:0|0:0,0:0:0:0:
61,349,68045,1,2,0:0:0:0:
61,349,68216,2,0,L|117:369,1,50,10|2,0:0|0:0,0:0:0:0:
163,341,68559,1,0,1:0:0:0:
163,341,68731,2,0,L|283:321,1,100,10|10,0:0|0:0,0:0:0:0:
375,363,69416,1,2,0:0:0:0:
375,363,69588,6,0,P|398:304|426:262,1,100,10|2,0:0|1:2,0:0:0:0:
462,233,70102,1,0,0:0:0:0:
462,233,70273,2,0,L|451:163,1,50,10|10,0:0|0:0,0:0:0:0:
364,103,70788,1,2,0:0:0:0:
364,103,70959,2,0,L|375:33,2,50,10|0|2,0:0|0:0|1:2,0:0:0:0:
352,162,71473,1,10,0:0:0:0:
242,113,71816,1,10,0:0:0:0:
242,113,71988,2,0,L|172:125,1,50,2|2,1:2|0:0,0:0:0:0:
132,122,72331,6,0,P|142:65|190:28,1,100,14|0,0:0|1:0,0:0:0:0:
225,10,72845,1,2,0:0:0:0:
225,10,73016,2,0,L|282:23,1,50,10|10,0:0|0:0,0:0:0:0:
386,77,73531,1,2,0:0:0:0:
386,77,73702,2,0,L|443:64,1,50,10|2,0:0|0:0,0:0:0:0:
476,108,74045,1,0,1:0:0:0:
476,108,74216,2,0,L|460:219,1,100,10|10,0:0|0:0,0:0:0:0:
489,324,74902,1,2,0:0:0:0:
489,324,75073,6,0,L|430:302,1,50,14|0,0:0|0:0,0:0:0:0:
385,285,75416,1,2,1:2:0:0:
286,354,75759,1,2,1:2:0:0:
192,279,76102,1,2,1:2:0:0:
192,279,76273,6,0,P|127:309|76:309,1,100,14|8,0:0|0:0,0:0:0:0:
53,271,76788,2,0,L|70:202,1,50,2|8,1:2|0:0,0:0:0:0:
44,166,77131,1,2,1:2:0:0:
107,64,77473,1,2,1:2:0:0:
216,112,77816,6,0,P|264:100|318:59,1,100,14|0,0:0|1:0,0:0:0:0:
331,17,78331,1,2,0:0:0:0:
331,17,78502,2,0,L|400:8,1,50,10|10,0:0|0:0,0:0:0:0:
454,112,79016,1,2,0:0:0:0:
454,112,79188,2,0,L|348:125,1,100,2|2,1:2|1:2,0:0:0:0:
334,180,79702,5,14,0:0:0:0:
388,287,80045,1,14,0:0:0:0:
304,373,80388,6,0,P|249:367|153:318,1,150,14|0,0:0|1:0,0:0:0:0:
134,275,81073,1,2,0:0:0:0:
134,275,81245,2,0,L|147:209,1,50,10|10,0:0|0:0,0:0:0:0:
228,141,81759,1,2,0:0:0:0:
228,141,81931,2,0,L|215:75,2,50,14|0|2,0:0|0:0|1:2,0:0:0:0:
242,199,82445,1,14,0:0:0:0:
351,248,82788,1,14,0:0:0:0:
417,148,83131,1,10,0:0:0:0:
417,148,83302,6,0,P|441:89|470:38,1,100,14|0,0:0|1:0,0:0:0:0:
346,13,83988,2,0,L|241:36,1,100,10|2,0:0|1:2,0:0:0:0:
191,13,84502,1,0,0:0:0:0:
191,13,84673,2,0,L|182:130,1,100,10|2,0:0|1:2,0:0:0:0:
180,173,85188,1,10,0:0:0:0:
42,209,85545,1,10,0:0:0:0:
76,337,85865,1,2,1:2:0:0:
76,337,86015,6,0,L|139:349,1,50,14|0,0:0|0:0,0:0:0:0:
174,312,86357,1,2,1:2:0:0:
285,345,86700,1,2,1:2:0:0:
285,345,86866,2,0,L|264:226,1,100,10|10,0:0|0:0,0:0:0:0:
256,192,87380,5,14,0:0:0:0:
64,352,88105,5,2,0:0:0:0:
32,120,88790,5,2,0:0:0:0:
