osu file format v14

[General]
AudioFilename: audio.ogg
AudioLeadIn: 0
PreviewTime: 57387
Countdown: 0
SampleSet: None
StackLeniency: 0
Mode: 1
LetterboxInBreaks: 0
WidescreenStoryboard: 0

[Editor]
DistanceSpacing: 1.8
BeatDivisor: 4
GridSize: 32
TimelineZoom: 1.52

[Metadata]
Title:All I Want For Christmas Is You
TitleUnicode:All I Want For Christmas Is You
Artist:Mariah Carey
ArtistUnicode:Mariah Carey
Creator:Vulkin
Version:Genjuro's Kantan
Source:
Tags:Merry Christmas English Pop Happy Holidays Genjuro
BeatmapID:3363014
BeatmapSetID:1647590

[Difficulty]
HPDrainRate:7
CircleSize:2
OverallDifficulty:3
ApproachRate:10
SliderMultiplier:1.4
SliderTickRate:1

[Events]
//Background and Video events
0,0,"tessa-rampersad-5toRIWF2GUY-unsplash.jpg",0,-138
//Break Periods
2,95944,101687
2,140693,146436
//Storyboard Layer 0 (Background)
//Storyboard Layer 1 (Fail)
//Storyboard Layer 2 (Pass)
//Storyboard Layer 3 (Foreground)
//Storyboard Layer 4 (Overlay)
//Storyboard Sound Samples

[TimingPoints]
262,830.449826989619,4,1,0,50,1,0
262,-72.463768115942,4,1,0,50,0,0
1507,902.255639097744,4,1,0,50,1,8
1507,-66.6666666666667,4,1,0,50,0,8
1958,810.810810810811,4,1,0,50,1,8
1958,-74.0740740740741,4,1,0,50,0,8
2768,857.142857142857,4,1,0,50,1,8
2768,-69.9300699300699,4,1,0,50,0,8
3625,848.056537102474,4,1,0,50,1,0
3625,-70.9219858156028,4,1,0,50,0,0
4897,952.380952380952,4,1,0,50,1,8
4897,-62.8930817610063,4,1,0,50,0,8
5373,941.176470588235,4,1,0,50,1,8
5373,-63.6942675159236,4,1,0,50,0,8
7255,679.886685552407,4,1,0,60,1,0
7255,-88.495575221239,4,1,0,60,0,0
12694,552.995391705069,4,1,0,60,1,0
12694,-108.695652173913,4,1,0,60,0,0
17117,454.545454545455,4,1,0,60,1,0
17117,-131.578947368421,4,1,0,60,0,0
20753,495.867768595041,4,1,0,60,1,0
20753,-120.481927710843,4,1,0,60,0,0
24719,500,4,1,0,60,1,0
24719,-120.481927710843,4,1,0,60,0,0
26719,559.440559440559,4,1,0,60,1,0
26719,-107.52688172043,4,1,0,60,0,0
27837,538.116591928251,4,1,0,60,1,8
27837,-111.111111111111,4,1,0,60,0,8
28913,536.912751677852,4,1,0,60,1,0
28913,-112.359550561798,4,1,0,60,0,0
31060,542.986425339366,4,1,0,60,1,0
31060,-111.111111111111,4,1,0,60,0,0
33231,536.912751677852,4,1,0,60,1,0
33231,-112.359550561798,4,1,0,60,0,0
35378,512.820512820512,4,1,0,60,1,0
35378,-117.647058823529,4,1,0,60,0,0
36403,427.046263345195,4,1,0,60,1,8
36403,-140.845070422535,4,1,0,60,0,8
37257,500,4,1,0,60,1,0
37257,-120.481927710843,4,1,0,60,0,0
39257,699.708454810496,4,1,0,60,1,0
39257,-85.4700854700855,4,1,0,60,0,0
42055,977.596741344195,4,1,0,45,1,0
42055,-61.375,4,1,0,45,0,0
45965,1050.32822757112,4,1,0,30,1,0
45965,-57.125,4,1,0,30,0,0
50166,829.875518672199,4,1,0,30,1,8
50166,-72.3,4,1,0,30,0,8
50995,399.547179862822,4,1,0,60,1,0
199626,408.163265306122,4,1,0,60,1,0
199626,-97.8890590663914,4,1,0,60,0,0
200850,375,4,1,0,60,1,8
200850,-106.545914630086,4,1,0,60,0,8
201225,399.547179862822,4,1,0,60,1,0

[HitObjects]
256,192,57387,5,0,0:0:0:0:
256,192,57787,1,0,0:0:0:0:
256,192,58186,1,8,0:0:0:0:
256,192,58985,1,0,0:0:0:0:
256,192,59785,1,8,0:0:0:0:
256,192,60584,1,0,0:0:0:0:
256,192,60983,1,0,0:0:0:0:
256,192,61383,1,0,0:0:0:0:
256,192,62182,1,8,0:0:0:0:
256,192,63780,1,0,0:0:0:0:
256,192,64180,1,0,0:0:0:0:
256,192,64579,1,8,0:0:0:0:
256,192,64979,1,8,0:0:0:0:
256,192,65378,1,0,0:0:0:0:
256,192,66177,1,8,0:0:0:0:
256,192,66976,1,0,0:0:0:0:
256,192,67376,1,0,0:0:0:0:
256,192,67775,1,0,0:0:0:0:
256,192,68575,1,8,0:0:0:0:
256,192,70173,1,0,0:0:0:0:
256,192,70572,1,8,0:0:0:0:
256,192,70972,1,0,0:0:0:0:
256,192,71771,1,8,0:0:0:0:
256,192,72570,1,0,0:0:0:0:
256,192,73369,1,8,0:0:0:0:
256,192,73769,1,8,0:0:0:0:
256,192,74168,1,8,0:0:0:0:
256,192,74967,1,0,0:0:0:0:
256,192,76566,1,0,0:0:0:0:
256,192,76965,1,8,0:0:0:0:
256,192,77365,1,0,0:0:0:0:
256,192,77764,1,0,0:0:0:0:
256,192,78164,1,8,0:0:0:0:
256,192,78963,1,0,0:0:0:0:
256,192,79762,1,8,0:0:0:0:
256,192,80161,1,8,0:0:0:0:
256,192,80561,1,8,0:0:0:0:
256,192,81360,1,0,0:0:0:0:
256,192,82958,1,8,0:0:0:0:
256,192,83358,1,0,0:0:0:0:
256,192,83757,1,8,0:0:0:0:
256,192,84556,1,0,0:0:0:0:
256,192,85356,1,8,0:0:0:0:
256,192,86155,1,0,0:0:0:0:
256,192,86554,1,0,0:0:0:0:
256,192,86954,1,0,0:0:0:0:
256,192,87753,1,8,0:0:0:0:
256,192,89351,1,8,0:0:0:0:
256,192,89751,1,8,0:0:0:0:
256,192,90150,1,8,0:0:0:0:
256,192,90949,1,0,0:0:0:0:
256,192,92547,1,8,0:0:0:0:
256,192,92947,1,0,0:0:0:0:
256,192,93347,1,0,0:0:0:0:
256,192,93746,1,0,0:0:0:0:
256,192,94146,1,0,0:0:0:0:
256,192,94545,1,8,0:0:0:0:
256,192,95344,1,8,0:0:0:0:
256,192,95744,1,0,0:0:0:0:
256,192,102137,5,0,0:0:0:0:
256,192,102536,1,8,0:0:0:0:
256,192,102936,1,8,0:0:0:0:
256,192,103735,1,0,0:0:0:0:
256,192,104534,1,8,0:0:0:0:
256,192,105333,1,0,0:0:0:0:
256,192,105732,1,0,0:0:0:0:
256,192,106132,1,0,0:0:0:0:
256,192,106931,1,8,0:0:0:0:
256,192,108529,1,0,0:0:0:0:
256,192,108929,1,8,0:0:0:0:
256,192,109328,1,8,0:0:0:0:
256,192,109728,1,8,0:0:0:0:
256,192,110127,1,0,0:0:0:0:
256,192,110927,1,8,0:0:0:0:
256,192,111726,1,0,0:0:0:0:
256,192,112125,1,0,0:0:0:0:
256,192,112525,1,0,0:0:0:0:
256,192,113324,1,8,0:0:0:0:
256,192,114922,1,0,0:0:0:0:
256,192,115322,1,8,0:0:0:0:
256,192,115721,1,0,0:0:0:0:
256,192,116520,1,0,0:0:0:0:
256,192,117319,1,8,0:0:0:0:
256,192,118118,1,8,0:0:0:0:
256,192,118518,1,8,0:0:0:0:
256,192,118918,1,0,0:0:0:0:
256,192,119717,1,8,0:0:0:0:
256,192,121315,1,0,0:0:0:0:
256,192,121714,1,8,0:0:0:0:
256,192,122114,1,0,0:0:0:0:
256,192,122513,1,8,0:0:0:0:
256,192,122913,1,0,0:0:0:0:
256,192,123712,1,8,0:0:0:0:
256,192,124511,1,8,0:0:0:0:
256,192,124911,1,8,0:0:0:0:
256,192,125310,1,0,0:0:0:0:
256,192,126109,1,8,0:0:0:0:
256,192,127708,1,8,0:0:0:0:
256,192,128107,1,0,0:0:0:0:
256,192,128507,1,8,0:0:0:0:
256,192,129306,1,0,0:0:0:0:
256,192,130105,1,8,0:0:0:0:
256,192,130904,1,0,0:0:0:0:
256,192,131303,1,0,0:0:0:0:
256,192,131703,1,0,0:0:0:0:
256,192,132502,1,8,0:0:0:0:
256,192,134100,1,8,0:0:0:0:
256,192,134500,1,8,0:0:0:0:
256,192,134899,1,8,0:0:0:0:
256,192,135699,1,0,0:0:0:0:
256,192,137297,1,8,0:0:0:0:
256,192,137696,1,8,0:0:0:0:
256,192,138096,1,0,0:0:0:0:
256,192,138495,1,0,0:0:0:0:
256,192,138895,1,8,0:0:0:0:
256,192,139294,1,8,0:0:0:0:
256,192,140094,1,8,0:0:0:0:
256,192,140493,1,0,0:0:0:0:
256,192,146886,5,0,0:0:0:0:
256,192,147685,1,8,0:0:0:0:
256,192,148084,1,8,0:0:0:0:
256,192,148484,1,0,0:0:0:0:
256,192,149283,1,8,0:0:0:0:
256,192,150082,1,0,0:0:0:0:
256,192,150482,1,0,0:0:0:0:
256,192,150881,1,8,0:0:0:0:
256,192,151680,1,0,0:0:0:0:
256,192,153279,1,0,0:0:0:0:
256,192,154078,1,8,0:0:0:0:
256,192,154477,1,0,0:0:0:0:
256,192,154877,1,0,0:0:0:0:
256,192,155676,1,8,0:0:0:0:
256,192,156475,1,0,0:0:0:0:
256,192,156875,1,8,0:0:0:0:
256,192,157274,1,8,0:0:0:0:
256,192,158073,1,0,0:0:0:0:
256,192,159671,1,0,0:0:0:0:
256,192,160470,1,8,0:0:0:0:
256,192,160870,1,0,0:0:0:0:
256,192,161270,1,8,0:0:0:0:
256,192,162069,1,8,0:0:0:0:
256,192,162868,1,0,0:0:0:0:
256,192,163267,1,8,0:0:0:0:
256,192,163667,1,0,0:0:0:0:
256,192,164466,1,0,0:0:0:0:
256,192,166064,1,8,0:0:0:0:
256,192,166464,1,8,0:0:0:0:
256,192,166863,1,8,0:0:0:0:
256,192,167662,1,0,0:0:0:0:
256,192,168062,1,0,0:0:0:0:
256,192,168461,1,0,0:0:0:0:
256,192,169260,1,8,0:0:0:0:
256,192,169660,1,8,0:0:0:0:
256,192,170060,1,8,0:0:0:0:
256,192,170459,1,8,0:0:0:0:
256,192,170859,1,0,0:0:0:0:
256,192,172457,1,0,0:0:0:0:
256,192,172856,1,8,0:0:0:0:
256,192,173256,1,0,0:0:0:0:
256,192,174055,1,8,0:0:0:0:
256,192,174854,1,0,0:0:0:0:
256,192,175653,1,8,0:0:0:0:
256,192,176053,1,8,0:0:0:0:
256,192,176452,1,0,0:0:0:0:
256,192,177251,1,8,0:0:0:0:
256,192,178850,1,0,0:0:0:0:
256,192,179249,1,8,0:0:0:0:
256,192,179649,1,0,0:0:0:0:
256,192,180048,1,8,0:0:0:0:
256,192,180448,1,8,0:0:0:0:
256,192,181247,1,0,0:0:0:0:
256,192,182046,1,8,0:0:0:0:
256,192,182446,1,8,0:0:0:0:
256,192,182845,1,0,0:0:0:0:
256,192,183644,1,8,0:0:0:0:
256,192,185242,1,8,0:0:0:0:
256,192,185642,1,0,0:0:0:0:
256,192,186041,1,8,0:0:0:0:
256,192,186841,1,0,0:0:0:0:
256,192,187640,1,8,0:0:0:0:
256,192,188439,1,0,0:0:0:0:
256,192,188838,1,0,0:0:0:0:
256,192,189238,1,0,0:0:0:0:
256,192,190037,1,8,0:0:0:0:
256,192,191635,1,8,0:0:0:0:
256,192,192035,1,8,0:0:0:0:
256,192,192434,1,8,0:0:0:0:
256,192,193233,1,0,0:0:0:0:
256,192,194831,1,8,0:0:0:0:
256,192,195231,1,0,0:0:0:0:
256,192,195631,1,8,0:0:0:0:
256,192,196030,1,8,0:0:0:0:
256,192,196430,1,0,0:0:0:0:
256,192,196829,1,8,0:0:0:0:
256,192,201624,12,0,204421,0:0:0:0:
256,192,207617,5,8,0:0:0:0:
256,192,208017,1,8,0:0:0:0:
256,192,208416,1,0,0:0:0:0:
256,192,208816,1,0,0:0:0:0:
256,192,209215,1,8,0:0:0:0:
256,192,209615,1,8,0:0:0:0:
256,192,210414,1,8,0:0:0:0:
256,192,210814,1,0,0:0:0:0:
256,192,212412,1,8,0:0:0:0:
256,192,213211,1,0,0:0:0:0:
256,192,214010,1,8,0:0:0:0:
256,192,214410,1,0,0:0:0:0:
256,192,214809,1,0,0:0:0:0:
256,192,215209,1,0,0:0:0:0:
256,192,215608,1,0,0:0:0:0:
256,192,216008,1,8,0:0:0:0:
256,192,216807,1,8,0:0:0:0:
256,192,217206,1,0,0:0:0:0:
256,192,218805,1,8,0:0:0:0:
256,192,219604,1,0,0:0:0:0:
256,192,220403,1,8,0:0:0:0:
