osu file format v14

[General]
AudioFilename: audio.ogg
AudioLeadIn: 0
PreviewTime: 57387
Countdown: 0
SampleSet: Normal
StackLeniency: 0
Mode: 1
LetterboxInBreaks: 0
WidescreenStoryboard: 1

[Editor]
Bookmarks: 50995,57387,70173,82958,95744,102137,114922,127708,140493,146886,159671,172457,185242,201225,207617,214010,220403
DistanceSpacing: 1.8
BeatDivisor: 3
GridSize: 32
TimelineZoom: 1.52

[Metadata]
Title:All I Want For Christmas Is You
TitleUnicode:All I Want For Christmas Is You
Artist:Mariah Carey
ArtistUnicode:Mariah Carey
Creator:Vulkin
Version:Futsuu
Source:
Tags:Merry Christmas English Pop Happy Holidays Genjuro
BeatmapID:3363013
BeatmapSetID:1647590

[Difficulty]
HPDrainRate:6
CircleSize:7
OverallDifficulty:4
ApproachRate:10
SliderMultiplier:1.4
SliderTickRate:1

[Events]
//Background and Video events
0,0,"tessa-rampersad-5toRIWF2GUY-unsplash.jpg",0,-138
//Break Periods
2,95944,101687
2,140693,146436
//Storyboard Layer 0 (Background)
//Storyboard Layer 1 (Fail)
//Storyboard Layer 2 (Pass)
//Storyboard Layer 3 (Foreground)
//Storyboard Layer 4 (Overlay)
//Storyboard Sound Samples

[TimingPoints]
262,830.449826989619,4,1,0,50,1,0
262,-72.463768115942,4,1,0,50,0,0
1507,902.255639097744,4,1,0,50,1,8
1507,-66.6666666666667,4,1,0,50,0,8
1958,810.810810810811,4,1,0,50,1,8
1958,-74.0740740740741,4,1,0,50,0,8
2768,857.142857142857,4,1,0,50,1,8
2768,-69.9300699300699,4,1,0,50,0,8
3625,848.056537102474,4,1,0,50,1,0
3625,-70.9219858156028,4,1,0,50,0,0
4897,952.380952380952,4,1,0,50,1,8
4897,-62.8930817610063,4,1,0,50,0,8
5373,941.176470588235,4,1,0,50,1,8
5373,-63.6942675159236,4,1,0,50,0,8
7255,679.886685552407,4,1,0,60,1,0
7255,-88.495575221239,4,1,0,60,0,0
12694,552.995391705069,4,1,0,60,1,0
12694,-108.695652173913,4,1,0,60,0,0
17117,454.545454545455,4,1,0,60,1,0
17117,-131.578947368421,4,1,0,60,0,0
20753,495.867768595041,4,1,0,60,1,0
20753,-120.481927710843,4,1,0,60,0,0
24719,500,4,1,0,60,1,0
24719,-120.481927710843,4,1,0,60,0,0
26719,559.440559440559,4,1,0,60,1,0
26719,-107.52688172043,4,1,0,60,0,0
27837,538.116591928251,4,1,0,60,1,8
27837,-111.111111111111,4,1,0,60,0,8
28913,536.912751677852,4,1,0,60,1,0
28913,-112.359550561798,4,1,0,60,0,0
31060,542.986425339366,4,1,0,60,1,0
31060,-111.111111111111,4,1,0,60,0,0
33231,536.912751677852,4,1,0,60,1,0
33231,-112.359550561798,4,1,0,60,0,0
35378,512.820512820512,4,1,0,60,1,0
35378,-117.647058823529,4,1,0,60,0,0
36403,427.046263345195,4,1,0,60,1,8
36403,-140.845070422535,4,1,0,60,0,8
37257,500,4,1,0,60,1,0
37257,-120.481927710843,4,1,0,60,0,0
39257,699.708454810496,4,1,0,60,1,0
39257,-85.4700854700855,4,1,0,60,0,0
42055,977.596741344195,4,1,0,45,1,0
42055,-61.375,4,1,0,45,0,0
45965,1050.32822757112,4,1,0,30,1,0
45965,-57.125,4,1,0,30,0,0
50166,829.875518672199,4,1,0,30,1,8
50166,-72.3,4,1,0,30,0,8
50944,-72.3,4,1,0,60,0,0
50995,399.547179862822,4,1,0,60,1,0
92547,-100,4,1,0,60,0,1
95744,-100,4,1,0,60,0,0
137297,-100,4,1,0,60,0,1
140493,-100,4,1,0,60,0,0
194831,-100,4,1,0,60,0,1
199626,408.163265306122,4,1,0,60,1,0
199626,-97.8890590663914,4,1,0,60,0,0
200850,375,4,1,0,60,1,8
200850,-106.545914630086,4,1,0,60,0,8
201225,399.547179862822,4,1,0,60,1,0
215608,-100,4,1,0,55,0,0
217206,-100,4,1,0,50,0,0
218805,-100,4,1,0,45,0,0
220403,-100,4,1,0,40,0,0

[HitObjects]
256,192,57387,5,4,0:0:0:0:
256,192,58186,1,8,0:0:0:0:
256,192,58586,1,0,0:0:0:0:
256,192,58852,1,8,0:0:0:0:
256,192,59252,1,0,0:0:0:0:
256,192,59651,1,8,0:0:0:0:
256,192,60051,1,0,0:0:0:0:
256,192,60584,1,8,0:0:0:0:
256,192,61383,1,0,0:0:0:0:
256,192,61649,1,0,0:0:0:0:
256,192,62049,1,8,0:0:0:0:
256,192,62448,1,0,0:0:0:0:
256,192,62848,1,8,0:0:0:0:
256,192,63380,1,8,0:0:0:0:
256,192,63647,1,0,0:0:0:0:
256,192,63780,1,0,0:0:0:0:
256,192,64579,1,8,0:0:0:0:
256,192,64979,1,0,0:0:0:0:
256,192,65245,1,8,0:0:0:0:
256,192,65645,1,8,0:0:0:0:
256,192,66044,1,0,0:0:0:0:
256,192,66444,1,8,0:0:0:0:
256,192,66577,1,8,0:0:0:0:
256,192,66976,1,0,0:0:0:0:
256,192,67642,1,0,0:0:0:0:
256,192,68175,1,0,0:0:0:0:
256,192,68441,1,8,0:0:0:0:
256,192,68841,1,8,0:0:0:0:
256,192,69240,1,0,0:0:0:0:
256,192,69773,1,0,0:0:0:0:
256,192,70173,5,8,0:0:0:0:
256,192,70572,1,8,0:0:0:0:
256,192,70839,1,8,0:0:0:0:
256,192,71371,1,0,0:0:0:0:
256,192,71638,1,8,0:0:0:0:
256,192,72037,1,8,0:0:0:0:
256,192,72437,1,0,0:0:0:0:
256,192,72836,1,8,0:0:0:0:
256,192,72970,1,8,0:0:0:0:
256,192,73369,1,0,0:0:0:0:
256,192,74035,1,0,0:0:0:0:
256,192,74435,1,0,0:0:0:0:
256,192,74834,1,8,0:0:0:0:
256,192,75234,1,8,0:0:0:0:
256,192,75633,1,0,0:0:0:0:
256,192,76166,1,8,0:0:0:0:
256,192,76566,1,0,0:0:0:0:
256,192,76965,1,8,0:0:0:0:
256,192,77231,1,8,0:0:0:0:
256,192,77365,1,8,0:0:0:0:
256,192,78031,1,8,0:0:0:0:
256,192,78430,1,8,0:0:0:0:
256,192,78830,1,0,0:0:0:0:
256,192,79096,1,8,0:0:0:0:
256,192,79762,1,8,0:0:0:0:
256,192,80428,1,0,0:0:0:0:
256,192,80827,1,0,0:0:0:0:
256,192,80961,1,0,0:0:0:0:
256,192,81227,1,8,0:0:0:0:
256,192,82026,1,0,0:0:0:0:
256,192,82426,1,0,0:0:0:0:
256,192,82559,1,0,0:0:0:0:
256,192,82958,5,12,0:0:0:0:
256,192,83757,1,0,0:0:0:0:
256,192,84157,1,8,0:0:0:0:
256,192,84423,1,0,0:0:0:0:
256,192,84823,1,8,0:0:0:0:
256,192,84956,1,8,0:0:0:0:
256,192,85356,1,0,0:0:0:0:
256,192,86155,1,8,0:0:0:0:
256,192,86954,1,0,0:0:0:0:
256,192,87353,1,8,0:0:0:0:
256,192,87753,1,0,0:0:0:0:
256,192,88019,1,8,0:0:0:0:
256,192,88152,1,8,0:0:0:0:
256,192,88552,1,0,0:0:0:0:
256,192,89351,1,0,0:0:0:0:
256,192,90150,1,8,0:0:0:0:
256,192,90416,1,0,0:0:0:0:
256,192,90816,1,8,0:0:0:0:
256,192,90949,1,8,0:0:0:0:
256,192,91349,1,8,0:0:0:0:
256,192,92148,1,0,0:0:0:0:
256,192,92547,1,8,0:0:0:0:
256,192,92947,1,8,0:0:0:0:
256,192,93347,1,0,0:0:0:0:
256,192,93746,1,8,0:0:0:0:
256,192,94146,1,0,0:0:0:0:
256,192,94545,1,8,0:0:0:0:
256,192,95344,1,8,0:0:0:0:
256,192,95744,1,4,0:0:0:0:
256,192,102137,5,4,0:0:0:0:
256,192,102936,1,8,0:0:0:0:
256,192,103335,1,0,0:0:0:0:
256,192,103602,1,8,0:0:0:0:
256,192,104001,1,8,0:0:0:0:
256,192,104401,1,0,0:0:0:0:
256,192,104800,1,8,0:0:0:0:
256,192,105200,1,8,0:0:0:0:
256,192,105333,1,8,0:0:0:0:
256,192,106132,1,8,0:0:0:0:
256,192,106532,1,0,0:0:0:0:
256,192,106798,1,8,0:0:0:0:
256,192,107197,1,8,0:0:0:0:
256,192,107597,1,0,0:0:0:0:
256,192,108130,1,8,0:0:0:0:
256,192,108396,1,0,0:0:0:0:
256,192,108529,1,0,0:0:0:0:
256,192,109328,1,8,0:0:0:0:
256,192,109595,1,8,0:0:0:0:
256,192,109994,1,8,0:0:0:0:
256,192,110394,1,8,0:0:0:0:
256,192,110793,1,0,0:0:0:0:
256,192,111193,1,8,0:0:0:0:
256,192,111326,1,8,0:0:0:0:
256,192,111726,1,0,0:0:0:0:
256,192,112525,1,0,0:0:0:0:
256,192,112924,1,0,0:0:0:0:
256,192,113191,1,8,0:0:0:0:
256,192,113590,1,8,0:0:0:0:
256,192,113990,1,0,0:0:0:0:
256,192,114389,1,0,0:0:0:0:
256,192,114523,1,0,0:0:0:0:
256,192,114922,5,12,0:0:0:0:
256,192,115588,1,8,0:0:0:0:
256,192,116120,1,8,0:0:0:0:
256,192,116387,1,8,0:0:0:0:
256,192,116786,1,8,0:0:0:0:
256,192,117186,1,0,0:0:0:0:
256,192,117585,1,8,0:0:0:0:
256,192,117719,1,8,0:0:0:0:
256,192,118118,1,0,0:0:0:0:
256,192,118784,1,0,0:0:0:0:
256,192,119184,1,8,0:0:0:0:
256,192,119583,1,8,0:0:0:0:
256,192,119983,1,0,0:0:0:0:
256,192,120382,1,8,0:0:0:0:
256,192,120915,1,8,0:0:0:0:
256,192,121315,1,0,0:0:0:0:
256,192,121714,1,8,0:0:0:0:
256,192,122114,1,8,0:0:0:0:
256,192,122780,1,8,0:0:0:0:
256,192,123179,1,8,0:0:0:0:
256,192,123579,1,0,0:0:0:0:
256,192,123978,1,0,0:0:0:0:
256,192,124111,1,0,0:0:0:0:
256,192,124511,1,0,0:0:0:0:
256,192,125310,1,8,0:0:0:0:
256,192,125576,1,0,0:0:0:0:
256,192,125710,1,0,0:0:0:0:
256,192,125976,1,8,0:0:0:0:
256,192,126775,1,0,0:0:0:0:
256,192,127175,1,0,0:0:0:0:
256,192,127308,1,0,0:0:0:0:
256,192,127707,5,12,0:0:0:0:
256,192,128506,1,0,0:0:0:0:
256,192,128906,1,8,0:0:0:0:
256,192,129172,1,0,0:0:0:0:
256,192,129572,1,8,0:0:0:0:
256,192,129705,1,8,0:0:0:0:
256,192,130105,1,0,0:0:0:0:
256,192,130904,1,8,0:0:0:0:
256,192,131703,1,0,0:0:0:0:
256,192,132102,1,8,0:0:0:0:
256,192,132502,1,0,0:0:0:0:
256,192,132768,1,8,0:0:0:0:
256,192,132901,1,8,0:0:0:0:
256,192,133301,1,0,0:0:0:0:
256,192,134100,1,4,0:0:0:0:
256,192,134899,1,8,0:0:0:0:
256,192,135165,1,0,0:0:0:0:
256,192,135565,1,8,0:0:0:0:
256,192,135698,1,8,0:0:0:0:
256,192,136098,1,8,0:0:0:0:
256,192,136897,1,0,0:0:0:0:
256,192,137296,1,8,0:0:0:0:
256,192,137696,1,8,0:0:0:0:
256,192,138096,1,0,0:0:0:0:
256,192,138495,1,8,0:0:0:0:
256,192,138895,1,0,0:0:0:0:
256,192,139294,1,8,0:0:0:0:
256,192,140093,1,8,0:0:0:0:
256,192,140493,1,4,0:0:0:0:
256,192,146886,5,4,0:0:0:0:
256,192,147685,1,8,0:0:0:0:
256,192,148084,1,0,0:0:0:0:
256,192,148351,1,8,0:0:0:0:
256,192,148750,1,8,0:0:0:0:
256,192,149150,1,0,0:0:0:0:
256,192,149549,1,0,0:0:0:0:
256,192,149683,1,0,0:0:0:0:
256,192,150082,1,8,0:0:0:0:
256,192,150748,1,0,0:0:0:0:
256,192,151148,1,0,0:0:0:0:
256,192,151547,1,8,0:0:0:0:
256,192,151947,1,8,0:0:0:0:
256,192,152080,1,8,0:0:0:0:
256,192,152879,1,8,0:0:0:0:
256,192,153279,1,0,0:0:0:0:
256,192,154078,1,8,0:0:0:0:
256,192,154344,1,0,0:0:0:0:
256,192,154744,1,8,0:0:0:0:
256,192,155276,1,8,0:0:0:0:
256,192,155543,1,0,0:0:0:0:
256,192,155942,1,0,0:0:0:0:
256,192,156342,1,8,0:0:0:0:
256,192,156475,1,8,0:0:0:0:
256,192,157141,1,0,0:0:0:0:
256,192,157540,1,0,0:0:0:0:
256,192,157940,1,8,0:0:0:0:
256,192,158473,1,8,0:0:0:0:
256,192,158872,1,0,0:0:0:0:
256,192,159272,1,0,0:0:0:0:
256,192,159671,1,12,0:0:0:0:
256,192,160470,1,8,0:0:0:0:
256,192,160737,1,8,0:0:0:0:
256,192,161136,1,8,0:0:0:0:
256,192,161536,1,0,0:0:0:0:
256,192,161935,1,8,0:0:0:0:
256,192,162335,1,0,0:0:0:0:
256,192,162868,1,4,0:0:0:0:
256,192,163667,1,0,0:0:0:0:
256,192,163933,1,0,0:0:0:0:
256,192,164333,1,8,0:0:0:0:
256,192,164732,1,8,0:0:0:0:
256,192,165132,1,0,0:0:0:0:
256,192,165665,1,0,0:0:0:0:
256,192,166064,1,12,0:0:0:0:
256,192,166464,1,8,0:0:0:0:
256,192,166730,1,8,0:0:0:0:
256,192,166863,1,8,0:0:0:0:
256,192,167662,1,8,0:0:0:0:
256,192,168062,1,8,0:0:0:0:
256,192,168461,1,8,0:0:0:0:
256,192,169260,1,12,0:0:0:0:
256,192,169660,1,0,0:0:0:0:
256,192,170060,1,8,0:0:0:0:
256,192,170326,1,0,0:0:0:0:
256,192,170725,1,8,0:0:0:0:
256,192,171125,1,8,0:0:0:0:
256,192,171525,1,0,0:0:0:0:
256,192,171658,1,0,0:0:0:0:
256,192,172457,1,12,0:0:0:0:
256,192,172856,1,0,0:0:0:0:
256,192,173256,1,8,0:0:0:0:
256,192,173655,1,0,0:0:0:0:
256,192,173922,1,8,0:0:0:0:
256,192,174321,1,8,0:0:0:0:
256,192,174721,1,0,0:0:0:0:
256,192,175120,1,8,0:0:0:0:
256,192,175653,1,0,0:0:0:0:
256,192,176452,1,8,0:0:0:0:
256,192,176852,1,0,0:0:0:0:
256,192,177251,1,8,0:0:0:0:
256,192,177651,1,8,0:0:0:0:
256,192,178051,1,0,0:0:0:0:
256,192,178850,1,0,0:0:0:0:
256,192,179649,1,8,0:0:0:0:
256,192,180048,1,8,0:0:0:0:
256,192,180315,1,8,0:0:0:0:
256,192,180714,1,8,0:0:0:0:
256,192,181114,1,0,0:0:0:0:
256,192,181513,1,0,0:0:0:0:
256,192,181646,1,0,0:0:0:0:
256,192,182046,1,8,0:0:0:0:
256,192,182845,1,0,0:0:0:0:
256,192,183245,1,0,0:0:0:0:
256,192,183511,1,8,0:0:0:0:
256,192,183911,1,8,0:0:0:0:
256,192,184310,1,0,0:0:0:0:
256,192,184443,1,0,0:0:0:0:
256,192,185242,1,12,0:0:0:0:
256,192,185642,1,8,0:0:0:0:
256,192,186041,1,0,0:0:0:0:
256,192,186441,1,8,0:0:0:0:
256,192,186707,1,0,0:0:0:0:
256,192,187107,1,8,0:0:0:0:
256,192,187506,1,0,0:0:0:0:
256,192,187640,1,0,0:0:0:0:
256,192,188439,1,8,0:0:0:0:
256,192,188838,1,0,0:0:0:0:
256,192,189238,1,8,0:0:0:0:
256,192,189637,1,0,0:0:0:0:
256,192,189904,1,8,0:0:0:0:
256,192,190303,1,8,0:0:0:0:
256,192,190703,1,0,0:0:0:0:
256,192,190836,1,0,0:0:0:0:
256,192,191635,1,4,0:0:0:0:
256,192,191901,1,8,0:0:0:0:
256,192,192434,1,8,0:0:0:0:
256,192,192701,1,8,0:0:0:0:
256,192,193233,1,12,0:0:0:0:
256,192,194032,1,0,0:0:0:0:
256,192,194432,1,0,0:0:0:0:
256,192,194831,1,12,0:0:0:0:
256,192,195231,1,8,0:0:0:0:
256,192,195631,1,0,0:0:0:0:
256,192,196030,1,8,0:0:0:0:
256,192,196430,1,4,0:0:0:0:
256,192,196829,1,12,0:0:0:0:
256,192,200034,5,8,0:0:0:0:
256,192,200442,1,8,0:0:0:0:
256,192,200850,1,8,0:0:0:0:
256,192,201225,5,4,0:0:0:0:
256,192,201624,12,0,205620,0:0:0:0:
256,192,206019,5,8,0:0:0:0:
256,192,206685,1,8,0:0:0:0:
256,192,207617,1,12,0:0:0:0:
256,192,208017,1,8,0:0:0:0:
256,192,208416,1,0,0:0:0:0:
256,192,208816,1,8,0:0:0:0:
256,192,209215,1,0,0:0:0:0:
256,192,209615,1,8,0:0:0:0:
256,192,210414,1,8,0:0:0:0:
256,192,210814,12,0,212012,0:0:0:0:
256,192,212412,5,8,0:0:0:0:
256,192,213078,1,8,0:0:0:0:
256,192,214010,1,12,0:0:0:0:
256,192,214410,1,8,0:0:0:0:
256,192,214809,1,0,0:0:0:0:
256,192,215209,1,8,0:0:0:0:
256,192,215608,1,0,0:0:0:0:
256,192,216008,1,8,0:0:0:0:
256,192,216807,1,8,0:0:0:0:
256,192,217206,12,0,218405,0:0:0:0:
256,192,218805,5,8,0:0:0:0:
256,192,219470,1,8,0:0:0:0:
256,192,220403,1,12,0:0:0:0:
