osu file format v14

[General]
AudioFilename: All_I_Want_For_Christmas_Is_You_-_Mariah_Carey_(short_version).mp3
AudioLeadIn: 0
PreviewTime: 92274
Countdown: 0
SampleSet: Soft
StackLeniency: 0.7
Mode: 0
LetterboxInBreaks: 0
WidescreenStoryboard: 1

[Editor]
DistanceSpacing: 1.5
BeatDivisor: 3
GridSize: 16
TimelineZoom: 1.800006

[Metadata]
Title:All I Want For Christmas Is You
TitleUnicode:All I Want For Christmas Is You
Artist:Mariah Carey
ArtistUnicode:Mariah Carey
Creator:MariahCarey
Version:RT's Icy Hard
Source:
Tags:winter 2015 pop rohit6 arphimigon voli
BeatmapID:829305
BeatmapSetID:375877

[Difficulty]
HPDrainRate:5
CircleSize:4
OverallDifficulty:7
ApproachRate:7.5
SliderMultiplier:1.6
SliderTickRate:1

[Events]
//Background and Video events
0,0,"asdf2.png",0,0
//Break Periods
//Storyboard Layer 0 (Background)
//Storyboard Layer 1 (Fail)
//Storyboard Layer 2 (Pass)
//Storyboard Layer 3 (Foreground)
//Storyboard Sound Samples

[TimingPoints]
50862,399.467376830892,4,2,1,40,1,0
52459,-83.3333333333333,4,2,1,40,0,0
54057,-100,4,2,1,80,0,0
89610,-95.2380952380952,4,2,1,80,0,0
90009,-90.9090909090909,4,2,1,80,0,0
90808,-100,4,2,1,80,0,0
95602,-133.333333333333,4,2,1,80,0,0
101993,-100,4,2,1,80,0,0
134350,-95.2380952380952,4,2,1,80,0,0
134749,-90.9090909090909,4,2,1,80,0,0
135548,-100,4,2,1,80,0,0
140342,-133.333333333333,4,2,1,80,0,0
143404,-133.333333333333,4,2,1,5,0,0

[Colours]
Combo1 : 116,214,128
Combo2 : 24,177,177
Combo3 : 18,124,255
Combo4 : 192,192,192
Combo5 : 243,63,67
Combo6 : 255,120,120
Combo7 : 55,139,41
SliderBorder : 202,168,5

[HitObjects]
180,217,50862,6,0,P|165:246|164:286,2,53.3333333333333,0|0|0,2:2|2:2|2:2,2:2:0:0:
235,143,51261,2,0,P|206:128|166:127,2,53.3333333333333,2|0|0,2:2|2:2|2:2,2:2:0:0:
312,199,51660,2,0,P|327:170|328:130,2,53.3333333333333,2|0|0,2:2|2:2|2:2,2:2:0:0:
257,273,52060,2,0,P|286:288|326:289,2,53.3333333333333,2|0|0,2:2|2:2|2:2,2:2:0:0:
178,179,52459,6,0,L|98:169,2,63.9999980468751,2|0|0,2:2|2:2|2:2,2:2:0:0:
291,121,52859,2,0,L|301:41,2,63.9999980468751,2|0|0,2:2|2:2|2:2,2:2:0:0:
376,225,53258,2,0,L|456:235,2,63.9999980468751,2|0|0,2:2|2:2|2:2,2:2:0:0:
263,283,53658,2,0,L|253:363,2,63.9999980468751,2|0|0,2:2|2:2|2:2,2:2:0:0:
279,196,54057,5,0,3:2:0:0:
279,196,54190,1,0,3:2:0:0:
170,83,54457,2,0,B|140:114|140:114|128:197,1,106.666666666667,0|0,3:2|3:2,3:2:0:0:
121,256,54856,2,0,L|85:300,2,53.3333333333333,0|0|0,3:2|3:2|3:2,3:2:0:0:
191,293,55256,2,0,L|196:349,2,53.3333333333333,0|0|0,3:2|3:2|3:2,3:2:0:0:
191,293,55655,5,4,3:1:0:0:
277,221,55921,1,8,3:2:0:0:
277,221,56055,2,0,B|292:170|292:170|266:94,1,106.666666666667,8|8,3:2|3:2,3:2:0:0:
284,39,56454,2,0,B|232:51|232:51|197:91,1,106.666666666667,8|8,3:2|3:2,3:2:0:0:
123,122,56854,2,0,B|159:160|159:160|212:170,1,106.666666666667,8|8,3:2|3:2,3:2:0:0:
319,197,57253,6,0,B|347:170|347:170|358:76,1,106.666666666667,0|0,3:2|3:2,3:2:0:0:
386,29,57652,2,0,B|348:18|348:18|261:55,1,106.666666666667,8|0,3:2|3:2,3:2:0:0:
206,53,58052,2,0,B|215:90|215:90|291:147,1,106.666666666667,0|0,3:2|3:2,3:2:0:0:
332,180,58451,1,8,3:2:0:0:
452,32,58851,6,0,P|478:83|465:157,1,106.666666666667,0|0,3:2|3:2,3:2:0:0:
449,206,59250,2,0,P|398:197|320:232,1,106.666666666667,8|0,3:2|3:2,3:2:0:0:
278,254,59650,2,0,L|201:215,1,53.3333333333333,6|0,3:2|3:2,3:2:0:0:
179,292,59916,2,0,L|142:223,1,53.3333333333333,6|8,3:2|3:2,3:2:0:0:
81,278,60182,2,0,L|73:207,1,53.3333333333333,6|0,3:2|3:2,3:2:0:0:
1,210,60449,6,0,B|4:167|4:167|58:103,1,106.666666666667,0|0,3:2|3:2,3:2:0:0:
107,68,60848,2,0,B|144:89|144:89|235:72,1,106.666666666667,8|0,3:2|3:2,3:2:0:0:
283,53,61248,2,0,B|316:77|316:77|338:180,1,106.666666666667,0|0,3:2|3:2,3:2:0:0:
338,221,61647,2,0,B|357:259|357:259|435:283,1,106.666666666667,8|0,3:2|3:2,3:2:0:0:
482,207,62047,6,0,P|495:173|474:101,1,106.666666666667,0|0,3:2|3:2,3:2:0:0:
409,66,62446,2,0,P|359:83|308:69,1,106.666666666667,8|0,3:2|3:2,3:2:0:0:
231,47,62846,2,0,L|216:107,1,53.3333333333333,4|0,3:2|3:2,3:2:0:0:
140,120,63112,2,0,L|160:184,1,53.3333333333333,4|8,3:2|3:2,3:2:0:0:
228,203,63378,2,0,L|215:264,1,53.3333333333333,4|0,3:2|3:2,3:2:0:0:
161,322,63644,6,0,B|199:339|199:339|303:331,1,106.666666666667,0|0,3:2|3:2,3:2:0:0:
343,323,64044,2,0,L|366:200,1,106.666666666667,8|0,3:2|3:2,3:2:0:0:
436,186,64443,2,0,B|415:149|415:149|343:130,1,106.666666666667,0|0,3:2|3:2,3:2:0:0:
276,107,64843,1,8,3:2:0:0:
135,167,65242,6,0,B|132:240|132:240|168:299,1,106.666666666667,0|0,3:2|3:2,3:2:0:0:
219,306,65642,2,0,B|273:299|273:299|352:312,1,106.666666666667,8|0,3:2|3:2,3:2:0:0:
397,274,66041,2,0,B|414:245|414:245|411:172,1,106.666666666667,0|0,3:2|3:2,3:2:0:0:
397,93,66441,1,8,3:2:0:0:
253,235,66840,6,0,B|233:183|277:183|244:105,1,106.666666666667,0|0,3:2|3:2,3:2:0:0:
325,100,67240,2,0,P|282:59|231:59,1,106.666666666667,8|0,3:2|3:2,3:2:0:0:
178,107,67639,2,0,P|181:163|237:207,1,106.666666666667,0|0,3:2|3:2,3:2:0:0:
291,182,68039,2,0,P|346:191|384:231,1,106.666666666667,8|0,3:2|3:2,3:2:0:0:
430,314,68438,6,0,B|400:328|400:328|298:310,1,106.666666666667,0|0,3:2|3:2,3:2:0:0:
265,264,68838,2,0,B|192:251|192:251|162:265,1,106.666666666667,8|0,3:2|3:2,3:2:0:0:
110,326,69237,2,0,P|88:298|86:244,1,53.3333333333333,4|0,3:2|3:2,3:2:0:0:
105,204,69503,2,0,P|109:168|146:129,1,53.3333333333333,4|8,3:2|3:2,3:2:0:0:
194,132,69770,2,0,P|222:110|276:107,1,53.3333333333333,4|0,3:2|3:2,3:2:0:0:
328,141,70036,6,0,B|370:150|370:150|390:148|390:148|455:162,1,106.666666666667,0|0,3:2|3:2,3:2:0:0:
466,229,70435,2,0,B|435:292|435:292|384:306,1,106.666666666667,8|0,3:2|3:2,3:2:0:0:
319,297,70835,2,0,P|270:282|217:224,1,106.666666666667,0|0,3:2|3:2,3:2:0:0:
205,169,71234,2,0,P|165:133|115:117,1,106.666666666667,8|0,3:2|3:2,3:2:0:0:
31,167,71634,6,0,B|23:236|23:236|50:293,1,106.666666666667,0|0,3:2|3:2,3:2:0:0:
105,314,72033,2,0,B|159:319|159:319|217:297,1,106.666666666667,8|0,3:2|3:2,3:2:0:0:
261,240,72433,2,0,P|293:232|342:238,1,53.3333333333333,6|0,3:2|3:2,3:2:0:0:
351,160,72699,2,0,P|319:152|270:158,1,53.3333333333333,6|8,3:2|3:2,3:2:0:0:
254,85,72965,2,0,P|286:77|335:83,1,53.3333333333333,6|0,3:2|3:2,3:2:0:0:
407,97,73232,6,0,P|432:158|413:214,1,106.666666666667,0|0,3:2|3:2,3:2:0:0:
449,277,73631,2,0,P|383:268|344:223,1,106.666666666667,8|0,3:2|3:2,3:2:0:0:
273,224,74031,2,0,P|313:171|371:160,1,106.666666666667,0|0,3:2|3:2,3:2:0:0:
437,149,74430,1,8,3:2:0:0:
305,312,74830,6,0,P|250:312|200:283,1,106.666666666667,0|0,3:2|3:2,3:2:0:0:
137,244,75229,2,0,B|154:197|154:197|138:128,1,106.666666666667,8|0,3:2|3:2,3:2:0:0:
107,69,75628,2,0,L|165:53,1,53.3333333333333,4|0,3:2|3:2,3:2:0:0:
218,108,75895,2,0,L|295:108,1,53.3333333333333,4|8,3:2|3:2,3:2:0:0:
304,181,76161,2,0,L|380:208,1,53.3333333333333,4|0,3:2|3:2,3:2:0:0:
432,262,76427,6,0,P|453:203|442:149,1,106.666666666667,0|0,3:2|3:2,3:2:0:0:
398,96,76827,2,0,L|281:133,1,106.666666666667,8|0,3:2|3:2,3:2:0:0:
245,66,77226,2,0,L|374:26,1,106.666666666667,0|0,3:2|3:2,3:2:0:0:
427,33,77626,1,8,3:2:0:0:
355,200,78025,6,0,P|271:195|240:149,1,106.666666666667,0|0,3:2|3:2,3:2:0:0:
199,242,78425,2,0,P|232:282|232:334,1,106.666666666667,8|0,3:2|3:2,3:2:0:0:
314,355,78824,2,0,P|332:305|377:279,1,106.666666666667,0|0,3:2|3:2,3:2:0:0:
453,254,79224,2,0,P|462:208|445:138,1,106.666666666667,8|0,3:2|3:2,3:2:0:0:
389,75,79623,6,0,B|336:86|336:86|263:70,1,106.666666666667,0|0,3:2|3:2,3:2:0:0:
208,51,80023,2,0,L|190:159,1,106.666666666667,8|0,3:2|3:2,3:2:0:0:
133,212,80422,2,0,B|182:236|182:236|252:223,1,106.666666666667,0|0,3:2|3:2,3:2:0:0:
309,201,80822,1,8,3:2:0:0:
207,41,81221,6,0,L|66:59,1,106.666666666667,0|0,3:2|3:2,3:2:0:0:
53,118,81620,2,0,P|51:186|87:245,1,106.666666666667,8|8,3:2|3:2,3:2:0:0:
110,287,82020,2,0,L|75:340,2,53.3333333333333,0|0|0,3:2|3:2|3:2,3:2:0:0:
188,300,82419,2,0,L|200:362,2,53.3333333333333,0|0|0,3:2|3:2|3:2,3:2:0:0:
247,245,82819,6,0,P|249:192|270:114,1,106.666666666667,4|0,3:1|3:2,3:2:0:0:
287,64,83218,1,8,3:2:0:0:
454,151,83618,2,0,P|452:204|431:282,1,106.666666666667,0|0,3:2|3:2,3:2:0:0:
414,332,84017,1,8,3:2:0:0:
223,309,84417,6,0,L|97:271,1,106.666666666667,0|0,3:2|3:2,3:2:0:0:
71,214,84816,1,8,3:2:0:0:
262,158,85216,2,0,L|388:120,1,106.666666666667,0|0,3:2|3:2,3:2:0:0:
414,63,85615,1,8,3:2:0:0:
220,88,86015,5,0,3:2:0:0:
150,271,86414,1,8,3:2:0:0:
336,341,86814,1,0,3:2:0:0:
406,158,87213,1,8,3:2:0:0:
180,191,87612,6,0,B|130:172|91:194|63:213|11:180,2,160,0|8|0,3:2|3:2|3:2,3:2:0:0:
309,293,88811,1,8,3:2:0:0:
256,107,89210,6,0,L|143:89,1,106.666666666667,0|0,3:2|3:2,3:2:0:0:
91,156,89610,2,0,L|230:177,1,111.999996582031,8|0,3:2|3:2,3:2:0:0:
234,254,90009,2,0,L|85:231,1,117.333336914063,0|0,3:2|3:2,3:2:0:0:
33,212,90409,1,8,3:2:0:0:
175,333,90808,6,0,B|223:327|256:339|256:339|288:327|349:341,2,160,0|8|0,3:2|3:2|3:2,3:2:0:0:
34,199,92007,1,8,3:2:0:0:
173,65,92406,6,0,B|146:103|146:103|152:189,1,106.666666666667,0|0,3:2|3:2,3:2:0:0:
124,238,92806,2,0,P|190:232|233:169,1,106.666666666667,8|0,3:2|3:2,3:2:0:0:
293,206,93205,2,0,P|335:237|388:238,1,106.666666666667,0|0,3:2|3:2,3:2:0:0:
361,162,93605,2,0,B|366:103|366:103|339:65,1,106.666666666667,8|0,3:2|3:2,3:2:0:0:
255,100,94004,6,0,B|221:143|251:175|285:207|242:259,2,160,6|14|6,3:2|3:2|3:2,3:2:0:0:
252,326,95202,2,0,L|194:339,2,53.3333333333333,8|8|8,3:2|3:2|3:2,3:2:0:0:
347,305,95602,6,0,B|377:213|479:292|535:160|473:71|351:128|351:128|301:31|207:106|225:195|303:236,1,600.000022888185,4|8,3:1|3:2,3:2:0:0:
275,216,98798,6,0,B|212:200|158:231|158:231|113:189|114:122|114:122|183:130|240:103,1,360.000013732911,2|8,3:2|3:2,3:2:0:0:
401,120,100395,5,0,3:2:0:0:
317,230,100662,2,0,L|341:271,2,40.000001525879,8|8|0,3:2|3:2|3:2,3:2:0:0:
240,194,101061,2,0,L|216:153,2,40.000001525879,8|8|0,3:2|3:2|3:2,3:2:0:0:
216,290,101461,1,8,3:2:0:0:
216,290,101594,2,0,L|240:331,2,40.000001525879,0|0|0,3:2|3:2|3:2,3:2:0:0:
149,245,101993,6,0,P|130:196|131:127,1,106.666666666667,4|0,3:1|3:2,3:2:0:0:
171,75,102393,2,0,B|222:84|222:84|293:75,1,106.666666666667,8|0,3:2|3:2,3:2:0:0:
318,145,102792,2,0,P|316:198|297:247,1,106.666666666667,0|0,3:2|3:2,3:2:0:0:
243,306,103192,1,8,3:2:0:0:
88,185,103591,6,0,L|97:64,1,106.666666666667,0|0,3:2|3:2,3:2:0:0:
168,44,103991,2,0,P|223:57|303:35,1,106.666666666667,8|0,3:2|3:2,3:2:0:0:
347,21,104390,2,0,L|366:94,1,53.3333333333333,6|0,3:2|3:2,3:2:0:0:
298,122,104656,2,0,L|284:196,1,53.3333333333333,6|8,3:2|3:2,3:2:0:0:
362,203,104923,2,0,L|377:267,1,53.3333333333333,6|0,3:2|3:2,3:2:0:0:
322,317,105189,6,0,B|282:325|282:325|188:286,1,106.666666666667,0|0,3:2|3:2,3:2:0:0:
148,266,105589,2,0,B|167:232|167:232|148:121,1,106.666666666667,8|0,3:2|3:2,3:2:0:0:
89,119,105988,2,0,P|127:91|206:104,1,106.666666666667,0|0,3:2|3:2,3:2:0:0:
235,154,106387,2,0,P|287:156|331:127,1,106.666666666667,8|0,3:2|3:2,3:2:0:0:
397,51,106787,6,0,L|420:162,1,106.666666666667,0|0,3:2|3:2,3:2:0:0:
402,233,107186,2,0,B|379:266|379:266|305:294,1,106.666666666667,8|0,3:2|3:2,3:2:0:0:
241,317,107586,2,0,P|234:286|250:238,1,53.3333333333333,4|0,3:2|3:2,3:2:0:0:
171,218,107852,2,0,P|194:196|243:186,1,53.3333333333333,4|8,3:2|3:2,3:2:0:0:
224,109,108118,2,0,P|254:118|287:156,1,53.3333333333333,4|0,3:2|3:2,3:2:0:0:
355,191,108385,6,0,B|372:152|372:152|356:51,1,106.666666666667,0|0,3:2|3:2,3:2:0:0:
298,38,108784,2,0,B|281:77|281:77|297:178,1,106.666666666667,8|0,3:2|3:2,3:2:0:0:
278,219,109184,2,0,B|225:228|225:228|143:207,1,106.666666666667,0|0,3:2|3:2,3:2:0:0:
108,168,109583,1,8,3:2:0:0:
228,324,109983,6,0,P|284:318|365:331,1,106.666666666667,0|0,3:2|3:2,3:2:0:0:
412,339,110382,1,8,3:2:0:0:
272,194,110782,2,0,P|216:200|135:187,1,106.666666666667,0|0,3:2|3:2,3:2:0:0:
88,179,111181,1,8,3:2:0:0:
247,52,111581,5,0,3:2:0:0:
395,194,111980,1,8,3:2:0:0:
249,327,112379,1,0,3:2:0:0:
101,185,112779,1,8,3:2:0:0:
249,51,113178,6,0,L|266:176,1,106.666666666667,0|0,3:2|3:2,3:2:0:0:
275,236,113578,2,0,P|323:213|330:121,1,106.666666666667,8|0,3:2|3:2,3:2:0:0:
312,91,113977,2,0,L|352:54,2,53.3333333333333,8|8|8,3:2|3:2|3:2,3:2:0:0:
231,83,114377,2,0,L|233:28,2,53.3333333333333,0|0|0,3:2|3:2|3:2,3:2:0:0:
182,146,114776,6,0,P|163:197|172:285,1,106.666666666667,4|0,3:1|3:2,3:2:0:0:
188,324,115176,2,0,P|145:291|64:283,1,106.666666666667,8|0,3:2|3:2,3:2:0:0:
15,296,115575,2,0,L|37:168,1,106.666666666667,0|0,3:2|3:2,3:2:0:0:
50,112,115975,2,0,B|103:125|103:125|171:110,1,106.666666666667,8|0,3:2|3:2,3:2:0:0:
238,73,116374,6,0,P|249:116|211:187,1,106.666666666667,0|0,3:2|3:2,3:2:0:0:
152,200,116774,2,0,P|180:235|264:243,1,106.666666666667,8|0,3:2|3:2,3:2:0:0:
318,241,117173,2,0,B|328:170,1,53.3333333333333,6|0,3:2|3:2,3:2:0:0:
404,197,117439,2,0,B|394:126,1,53.3333333333333,6|8,3:2|3:2,3:2:0:0:
323,111,117706,2,0,L|331:52,1,53.3333333333333,6|0,3:2|3:2,3:2:0:0:
410,9,117972,6,0,P|424:62|387:133,1,106.666666666667,0|0,3:2|3:2,3:2:0:0:
374,182,118371,2,0,B|322:175|322:175|247:184,1,106.666666666667,8|0,3:2|3:2,3:2:0:0:
209,236,118771,2,0,P|187:185|228:111,1,106.666666666667,0|0,3:2|3:2,3:2:0:0:
248,74,119170,1,8,3:2:0:0:
274,282,119570,6,0,P|233:313|172:306,1,106.666666666667,0|0,3:2|3:2,3:2:0:0:
108,274,119969,2,0,B|106:221|106:221|79:162,1,106.666666666667,8|0,3:2|3:2,3:2:0:0:
34,108,120369,2,0,P|58:88|106:70,1,53.3333333333333,4|0,3:2|3:2,3:2:0:0:
147,116,120635,2,0,P|178:118|224:140,1,53.3333333333333,4|8,3:2|3:2,3:2:0:0:
203,205,120901,2,0,P|223:229|241:277,1,53.3333333333333,4|0,3:2|3:2,3:2:0:0:
186,333,121168,6,0,P|137:313|75:315,1,106.666666666667,0|0,3:2|3:2,3:2:0:0:
6,335,121567,2,0,P|9:280|80:230,1,106.666666666667,8|0,3:2|3:2,3:2:0:0:
120,232,121967,2,0,B|174:240|174:240|252:278,1,106.666666666667,0|0,3:2|3:2,3:2:0:0:
273,323,122366,2,0,P|271:275|295:199,1,106.666666666667,8|0,3:2|3:2,3:2:0:0:
358,143,122766,6,0,B|308:117|308:117|232:120,1,106.666666666667,0|0,3:2|3:2,3:2:0:0:
183,151,123165,2,0,P|201:205|168:286,1,106.666666666667,8|0,3:2|3:2,3:2:0:0:
135,308,123565,2,0,P|109:257|139:187,1,106.666666666667,0|0,3:2|3:2,3:2:0:0:
183,151,123964,1,8,3:2:0:0:
272,319,124363,6,0,L|414:313,1,106.666666666667,0|0,3:2|3:2,3:2:0:0:
444,360,124763,2,0,P|457:322|422:249,1,106.666666666667,8|0,3:2|3:2,3:2:0:0:
360,236,125162,2,0,P|347:185|367:137,1,106.666666666667,0|0,3:2|3:2,3:2:0:0:
422,77,125562,2,0,B|368:86|368:86|303:73,1,106.666666666667,8|0,3:2|3:2,3:2:0:0:
226,46,125961,6,0,L|212:181,1,106.666666666667,0|8,3:2|3:2,3:2:0:0:
152,203,126361,2,0,B|201:228|201:228|282:218,1,106.666666666667,0|0,3:2|3:2,3:2:0:0:
214,152,126760,1,8,3:2:0:0:
354,180,127027,1,8,3:2:0:0:
354,180,127160,2,0,L|370:105,2,53.3333333333333,0|0|0,3:2|3:2|3:2,3:2:0:0:
373,275,127559,6,0,B|342:296|342:296|236:283,1,106.666666666667,4|0,3:1|3:2,3:2:0:0:
207,332,127959,2,0,P|195:276|240:214,1,106.666666666667,8|0,3:2|3:2,3:2:0:0:
265,169,128358,2,0,B|268:126|268:126|228:59,1,106.666666666667,0|0,3:2|3:2,3:2:0:0:
161,41,128758,2,0,B|117:38|117:38|50:78,1,106.666666666667,8|0,3:2|3:2,3:2:0:0:
29,159,129157,6,0,L|50:270,1,106.666666666667,0|0,3:2|3:2,3:2:0:0:
82,336,129557,2,0,P|126:304|201:307,1,106.666666666667,8|0,3:2|3:2,3:2:0:0:
257,302,129956,2,0,P|309:307|351:338,1,106.666666666667,0|0,3:2|3:2,3:2:0:0:
385,267,130356,2,0,L|404:162,1,106.666666666667,8|0,3:2|3:2,3:2:0:0:
371,88,130755,6,0,B|319:94|319:94|242:79,1,106.666666666667,0|0,3:2|3:2,3:2:0:0:
188,63,131154,1,8,3:2:0:0:
6,186,131554,2,0,B|58:180|58:180|135:195,1,106.666666666667,0|0,3:2|3:2,3:2:0:0:
189,211,131953,1,8,3:2:0:0:
373,345,132353,5,0,3:2:0:0:
431,112,132752,1,8,3:2:0:0:
199,49,133152,1,0,3:2:0:0:
140,282,133551,2,0,P|115:307|77:328,2,53.3333333333333,8|0|0,3:2|3:2|3:2,3:2:0:0:
195,224,133951,6,0,B|237:216|237:216|259:220|259:220|319:210,1,106.666666666667,4|0,3:1|3:2,3:2:0:0:
367,132,134350,2,0,B|325:139|325:139|304:135|304:135|235:145,1,111.999996582031,8|0,3:2|3:2,3:2:0:0:
169,81,134750,2,0,B|214:78|214:78|241:68|241:68|316:59,1,117.333336914063,0|0,3:2|3:2,3:2:0:0:
371,50,135149,1,8,3:2:0:0:
346,285,135549,6,0,B|296:297|248:267|248:267|199:297|199:297|127:234|49:302,1,320,0|0,3:2|3:2,3:2:0:0:
38,324,136614,1,0,3:2:0:0:
38,324,136747,2,0,L|21:389,2,53.3333333333333,8|0|0,3:2|3:2|3:2,3:2:0:0:
69,208,137146,6,0,P|113:217|180:98,1,160,4|8,3:1|3:2,3:2:0:0:
465,214,137945,2,0,P|421:223|354:104,1,160,0|8,3:2|3:2,3:2:0:0:
265,35,138744,5,6,3:2:0:0:
267,357,139144,1,6,3:2:0:0:
155,81,139543,1,6,3:2:0:0:
385,84,139810,1,0,3:2:0:0:
385,84,139943,2,0,L|405:25,2,53.3333333333333,8|8|8,3:2|3:2|3:2,3:2:0:0:
352,175,140342,38,0,B|430:132|481:219|424:318|355:298|321:240|251:350|251:350|284:224|216:235|153:166|208:72|305:72|321:163,1,720.000027465821,4|0,3:1|3:2,3:2:0:0:
256,192,143538,12,0,145136,3:2:0:0:
