osu file format v14

[General]
AudioFilename: All_I_Want_For_Christmas_Is_You_-_Mariah_Carey_(short_version).mp3
AudioLeadIn: 0
PreviewTime: 92274
Countdown: 0
SampleSet: Soft
StackLeniency: 0.7
Mode: 0
LetterboxInBreaks: 0
WidescreenStoryboard: 1

[Editor]
Bookmarks: 18505,63245
DistanceSpacing: 1
BeatDivisor: 4
GridSize: 8
TimelineZoom: 1.800006

[Metadata]
Title:All I Want For Christmas Is You
TitleUnicode:All I Want For Christmas Is You
Artist:Mariah Carey
ArtistUnicode:Mariah Carey
Creator:MariahCarey
Version:Chilly Normal
Source:
Tags:winter 2015 pop rohit6 arphimigon voli
BeatmapID:823519
BeatmapSetID:375877

[Difficulty]
HPDrainRate:2
CircleSize:3.5
OverallDifficulty:2
ApproachRate:3
SliderMultiplier:0.899999999999999
SliderTickRate:1

[Events]
//Background and Video events
0,0,"asdf2.png",0,0
//Break Periods
2,97799,98955
//Storyboard Layer 0 (Background)
//Storyboard Layer 1 (Fail)
//Storyboard Layer 2 (Pass)
//Storyboard Layer 3 (Foreground)
//Storyboard Sound Samples

[TimingPoints]
50862,399.467376830892,4,2,1,40,1,0
54057,-100,4,2,1,80,0,0
57253,-100,4,2,1,80,0,0
97200,-100,4,2,1,5,0,0
97999,-100,4,2,1,80,0,0
143538,-100,4,2,1,50,0,0

[Colours]
Combo1 : 116,214,128
Combo2 : 24,177,177
Combo3 : 18,124,255
Combo4 : 192,192,192
Combo5 : 243,63,67
Combo6 : 255,120,120
Combo7 : 55,139,41
SliderBorder : 202,168,5

[HitObjects]
128,147,50862,6,0,B|192:107|256:147|256:147|320:107|384:147,1,270,2|0,3:2|3:0,3:0:0:0:
384,237,52459,2,0,B|320:277|256:237|256:237|192:277|128:237,1,270,2|0,3:2|3:0,3:0:0:0:
56,185,54057,6,0,P|34:64|161:31,1,270,0|0,3:2|3:2,3:2:0:0:
225,86,55655,1,0,3:2:0:0:
286,152,56055,1,12,3:2:0:0:
352,91,56454,1,12,3:2:0:0:
291,25,56854,1,12,3:2:0:0:
225,86,57253,6,0,P|199:170|348:212,1,270,0|8,3:2|3:2,0:2:0:0:
418,174,58851,2,0,P|490:146|440:262,1,270,0|8,3:2|3:2,0:2:0:0:
377,285,60449,6,0,B|288:271|277:351|160:288,1,180,0|0,3:2|3:2,0:2:0:0:
119,269,61647,1,8,3:2:0:0:
63,198,62047,2,0,P|41:145|98:64,2,89.9999999999999,0|8|0,3:2|3:2|3:2,3:2:0:0:
132,139,63245,1,8,3:2:0:0:
224,128,63644,6,0,B|288:128|320:64|320:64|352:128|416:128|410:212|342:262,1,360,0|0,3:2|3:2,0:2:0:0:
276,321,65642,1,8,3:2:0:0:
192,355,66041,2,0,P|104:363|86:354,1,89.9999999999999,0|8,3:2|3:2,3:2:0:0:
35,306,66840,6,0,P|2:251|46:152,1,180,0|0,3:2|3:2,0:2:0:0:
121,103,68039,1,8,3:2:0:0:
205,71,68438,2,0,B|282:47|311:108|386:56,1,180,0|0,3:2|3:2,0:2:0:0:
461,23,69636,1,8,3:2:0:0:
493,106,70036,6,0,P|489:218|342:255,1,270,0|8,3:2|3:2,0:2:0:0:
280,210,71634,2,0,P|245:179|175:170,2,89.9999999999999,0|8|0,3:2|3:2|3:2,3:2:0:0:
202,257,72832,1,8,3:2:0:0:
133,198,73232,6,0,P|138:128|270:127,1,180,0|0,3:2|3:2,0:2:0:0:
318,119,74430,1,8,3:2:0:0:
391,170,74830,2,0,P|432:201|484:204,2,89.9999999999999,0|8|0,3:2|3:2|3:2,3:2:0:0:
462,114,76028,1,8,3:2:0:0:
376,87,76427,6,0,P|308:160|334:229,2,180,0|0|0,3:2|3:2|3:2,0:2:0:0:
391,170,78425,1,8,3:2:0:0:
398,262,78824,2,0,P|366:294|323:301,1,89.9999999999999,0|8,3:2|3:2,3:2:0:0:
234,287,79623,6,0,P|155:199|260:107,1,270,0|8,3:2|3:2,0:2:0:0:
332,112,81221,2,0,P|375:124|428:116,1,89.9999999999999,0|8,3:2|3:2,3:2:0:0:
414,209,82020,2,0,P|369:214|326:201,1,89.9999999999999,0|0,3:2|3:2,3:2:0:0:
249,155,82819,6,0,P|152:182|184:259,1,180,4|0,3:1|3:2,0:2:0:0:
203,320,84017,1,8,3:2:0:0:
113,311,84417,2,0,P|67:220|81:138,1,180,0|0,3:2|3:2,0:2:0:0:
126,69,85615,1,8,3:2:0:0:
204,112,86015,6,0,B|315:180|362:67|474:134,1,270,0|8,3:2|3:2,0:2:0:0:
494,213,87612,2,0,P|491:268|442:323,1,89.9999999999999,0|8,3:2|3:2,3:2:0:0:
385,312,88411,2,0,P|388:257|437:202,1,89.9999999999999,0|8,3:2|3:2,3:2:0:0:
449,149,89210,6,0,B|531:67|487:11|412:-39|362:29|362:29|310:-4|264:24,1,360,0|0,3:2|3:2,0:2:0:0:
210,82,91208,1,8,3:2:0:0:
158,156,91607,2,0,P|130:197|131:248,1,89.9999999999999,0|8,3:2|3:2,3:2:0:0:
217,225,92406,6,0,B|308:199|341:256|341:256|399:218|447:271,1,180,0|0,3:2|3:2,0:2:0:0:
468,241,93605,1,8,3:2:0:0:
491,154,94004,1,6,3:2:0:0:
426,91,94403,2,0,P|319:113|256:67,1,180,14|8,3:2|3:2,0:2:0:0:
256,192,95602,12,0,97599,3:2:0:0:
248,148,100395,5,0,3:2:0:0:
314,87,100795,1,8,3:2:0:0:
379,148,101194,1,8,3:2:0:0:
313,209,101594,1,8,3:2:0:0:
247,270,101993,6,0,P|161:306|68:140,1,270,4|8,3:1|3:2,0:2:0:0:
84,107,103591,2,0,P|170:71|263:237,1,270,0|8,3:2|3:2,0:2:0:0:
300,272,105189,6,0,P|344:322|415:258,1,180,0|0,3:2|3:2,0:2:0:0:
409,171,106387,1,8,3:2:0:0:
366,91,106787,2,0,P|323:55|270:51,2,89.9999999999999,0|8|0,3:2|3:2|3:2,3:2:0:0:
290,139,107985,1,8,3:2:0:0:
200,137,108385,6,0,B|136:137|104:73|104:73|72:137|8:137|14:221|82:271,1,360,0|0,3:2|3:2,0:2:0:0:
149,328,110382,1,8,3:2:0:0:
233,298,110782,2,0,P|285:272|308:234,1,89.9999999999999,0|8,3:2|3:2,3:2:0:0:
347,168,111581,6,0,B|392:108|341:49|306:63|306:63|293:28|293:28|258:41|258:41|244:6|168:17|153:81,1,360,0|0,3:2|3:2,0:2:0:0:
121,162,113578,1,8,3:2:0:0:
149,247,113977,2,0,P|190:299|228:307,1,89.9999999999999,8|8,3:2|3:2,3:2:0:0:
301,305,114776,6,0,P|343:243|289:144,1,180,4|0,3:1|3:2,0:2:0:0:
234,97,115975,1,8,3:2:0:0:
144,103,116374,2,0,P|84:124|58:152,2,89.9999999999999,0|8|0,3:2|3:2|3:2,3:2:0:0:
139,192,117573,1,8,3:2:0:0:
184,269,117972,6,0,P|267:333|412:254,1,270,0|8,3:2|3:2,0:2:0:0:
438,187,119570,2,0,P|455:139|415:67,2,89.9999999999999,0|8|0,3:2|3:2|3:2,3:2:0:0:
364,135,120768,1,8,3:2:0:0:
278,162,121168,6,0,B|206:192|156:117|74:171,2,180,0|0|0,3:2|3:2|3:2,0:2:0:0:
364,135,123165,1,8,3:2:0:0:
335,220,123565,2,0,P|302:271|256:284,1,89.9999999999999,0|8,3:2|3:2,3:2:0:0:
188,297,124363,6,0,P|73:226|121:116,1,270,0|8,3:2|3:2,0:2:0:0:
189,71,125961,2,0,P|245:54|293:61,1,89.9999999999999,0|0,3:2|3:2,3:2:0:0:
295,144,126760,2,0,P|239:161|191:154,1,89.9999999999999,8|0,3:2|3:2,3:2:0:0:
120,139,127559,6,0,P|24:197|83:273,1,180,4|0,3:1|3:2,0:2:0:0:
86,321,128758,1,8,3:2:0:0:
175,314,129157,2,0,P|271:293|341:236,1,180,0|0,3:2|3:2,0:2:0:0:
392,174,130356,1,8,3:2:0:0:
320,119,130755,6,0,B|209:51|162:164|50:97,1,270,0|8,3:2|3:2,0:2:0:0:
14,180,132353,2,0,P|1:253|25:293,1,89.9999999999999,0|8,3:2|3:2,3:2:0:0:
78,318,133152,2,0,P|91:245|67:205,1,89.9999999999999,0|8,3:2|3:2,3:2:0:0:
90,142,133951,6,0,B|63:29|130:5|221:3|225:91|225:91|315:89|318:178,1,360,0|0,3:2|3:2,0:2:0:0:
348,202,135948,1,8,3:2:0:0:
293,271,136348,2,0,P|252:310|212:322,1,89.9999999999999,0|8,3:2|3:2,3:2:0:0:
131,313,137146,6,0,B|98:272|118:229|118:229|75:192|91:144,1,180,0|0,3:2|3:2,0:2:0:0:
67,61,138345,1,8,3:2:0:0:
147,20,138744,1,6,3:2:0:0:
217,75,139144,2,0,P|290:109|379:71,1,180,6|8,3:2|3:2,0:2:0:0:
256,192,140342,12,0,143538,3:2:0:0:
