osu file format v14

[General]
AudioFilename: All_I_Want_For_Christmas_Is_You_-_Mariah_Carey_(short_version).mp3
AudioLeadIn: 0
PreviewTime: 92274
Countdown: 0
SampleSet: Soft
StackLeniency: 0.7
Mode: 0
LetterboxInBreaks: 0
WidescreenStoryboard: 1

[Editor]
Bookmarks: 18505,63245
DistanceSpacing: 1.3
BeatDivisor: 3
GridSize: 32
TimelineZoom: 1.800006

[Metadata]
Title:All I Want For Christmas Is You
TitleUnicode:All I Want For Christmas Is You
Artist:Mariah Carey
ArtistUnicode:Mariah Carey
Creator:MariahCarey
Version:Arphimigon's Cold Advanced
Source:
Tags:winter 2015 pop rohit6 arphimigon voli
BeatmapID:823445
BeatmapSetID:375877

[Difficulty]
HPDrainRate:4
CircleSize:3.5
OverallDifficulty:5
ApproachRate:5.5
SliderMultiplier:0.899999999999999
SliderTickRate:1

[Events]
//Background and Video events
0,0,"asdf2.png",0,0
//Break Periods
//Storyboard Layer 0 (Background)
//Storyboard Layer 1 (Fail)
//Storyboard Layer 2 (Pass)
//Storyboard Layer 3 (Foreground)
//Storyboard Sound Samples

[TimingPoints]
50862,399.467376830892,4,2,1,80,1,0
143538,-100,4,2,1,50,0,0

[Colours]
Combo1 : 116,214,128
Combo2 : 24,177,177
Combo3 : 18,124,255
Combo4 : 192,192,192
Combo5 : 243,63,67
Combo6 : 255,120,120
Combo7 : 55,139,41
SliderBorder : 202,168,5

[HitObjects]
126,207,57253,6,0,P|128:143|102:102,2,89.9999999999999,0|8|0,3:2|3:2|3:2,3:2:0:0:
138,284,58318,1,0,3:2:0:0:
174,271,58451,2,0,L|252:278,1,60,8|0,3:2|3:2,3:2:0:0:
268,295,58851,6,0,P|299:275|334:265,1,60,0|0,3:2|3:2,3:2:0:0:
359,261,59250,1,8,3:2:0:0:
419,212,59517,1,0,3:2:0:0:
427,174,59650,2,0,L|421:108,1,60,6|0,3:2|3:2,3:2:0:0:
393,87,60049,2,0,L|333:92,1,60,12|0,3:2|3:2,3:2:0:0:
298,110,60449,6,0,P|257:93|201:98,2,89.9999999999999,0|8|0,3:2|3:2|3:2,3:2:0:0:
341,175,61514,1,0,3:2:0:0:
344,213,61647,2,0,L|338:275,1,59.9999999999999,8|0,3:2|3:2,3:2:0:0:
313,303,62047,5,0,3:2:0:0:
237,283,62313,1,0,3:2:0:0:
211,253,62446,2,0,P|168:242|144:245,1,59.9999999999999,8|0,3:2|3:2,3:2:0:0:
114,247,62846,2,0,L|87:178,1,59.9999999999999,4|0,3:2|3:2,3:2:0:0:
76,155,63245,1,12,3:2:0:0:
106,83,63511,1,0,3:2:0:0:
144,89,63644,6,0,P|189:98|244:88,2,89.9999999999999,0|8|0,3:2|3:2|3:2,3:2:0:0:
44,150,64843,2,0,L|37:226,1,59.9999999999999,8|0,3:2|3:2,3:2:0:0:
68,234,65242,6,0,L|61:310,1,59.9999999999999,0|0,3:2|3:2,3:2:0:0:
82,327,65642,1,8,3:2:0:0:
156,352,65908,1,0,3:2:0:0:
188,330,66041,2,0,P|195:291|188:258,1,59.9999999999999,4|0,3:2|3:2,3:2:0:0:
181,233,66441,2,0,P|174:194|181:161,1,59.9999999999999,12|0,3:2|3:2,3:2:0:0:
194,138,66840,6,0,L|292:125,2,89.9999999999999,0|8|0,3:2|3:2|3:2,3:2:0:0:
137,83,67905,1,0,3:2:0:0:
158,50,68039,2,0,P|189:59|223:53,1,59.9999999999999,8|0,3:2|3:2,3:2:0:0:
253,44,68438,6,0,P|285:36|324:41,1,59.9999999999999,0|0,3:2|3:2,3:2:0:0:
351,41,68838,1,8,3:2:0:0:
415,85,69104,1,0,3:2:0:0:
432,119,69237,2,0,L|437:213,1,89.9999999999999,4|12,3:2|3:2,3:2:0:0:
394,317,70036,6,0,P|344:308|297:322,2,89.9999999999999,0|8|0,3:2|3:2|3:2,3:2:0:0:
460,276,71101,1,0,3:2:0:0:
466,237,71234,2,0,L|463:166,1,59.9999999999999,8|0,3:2|3:2,3:2:0:0:
482,143,71634,6,0,L|454:77,1,59.9999999999999,0|0,3:2|3:2,3:2:0:0:
428,63,72033,1,8,3:2:0:0:
353,39,72300,1,0,3:2:0:0:
317,22,72433,2,0,P|269:18|241:26,1,59.9999999999999,4|0,3:2|3:2,3:2:0:0:
235,52,72832,2,0,P|238:81|233:111,1,59.9999999999999,12|0,3:2|3:2,3:2:0:0:
200,132,73232,6,0,L|103:144,2,89.9999999999999,0|8|0,3:2|3:2|3:2,3:2:0:0:
277,141,74297,1,0,3:2:0:0:
298,173,74430,2,0,L|300:233,1,59.9999999999999,8|0,3:2|3:2,3:2:0:0:
301,271,74830,6,0,P|267:265|232:272,1,59.9999999999999,0|0,3:2|3:2,3:2:0:0:
205,281,75229,1,8,3:2:0:0:
129,261,75495,1,0,3:2:0:0:
105,229,75628,2,0,L|104:161,1,59.9999999999999,4|0,3:2|3:2,3:2:0:0:
94,131,76028,2,0,P|125:128|153:111,1,59.9999999999999,12|0,3:2|3:2,3:2:0:0:
174,83,76427,6,0,P|233:66|265:78,2,89.9999999999999,0|8|0,3:2|3:2|3:2,3:2:0:0:
118,138,77493,1,0,3:2:0:0:
96,170,77626,2,0,L|89:237,1,59.9999999999999,8|0,3:2|3:2,3:2:0:0:
90,268,78025,5,0,3:2:0:0:
147,320,78292,1,0,3:2:0:0:
182,303,78425,2,0,L|248:300,1,59.9999999999999,8|0,3:2|3:2,3:2:0:0:
281,300,78824,1,4,3:2:0:0:
358,311,79091,1,0,3:2:0:0:
383,281,79224,2,0,P|390:230|382:208,1,59.9999999999999,12|0,3:2|3:2,3:2:0:0:
368,188,79623,6,0,L|364:98,2,89.9999999999999,0|8|0,3:2|3:2|3:2,3:2:0:0:
307,236,80688,1,0,3:2:0:0:
270,248,80822,2,0,L|204:250,1,59.9999999999999,8|0,3:2|3:2,3:2:0:0:
173,234,81221,6,0,P|156:204|156:167,1,59.9999999999999,0|0,3:2|3:2,3:2:0:0:
161,140,81620,1,8,3:2:0:0:
203,74,81887,1,8,3:2:0:0:
239,59,82020,2,0,L|311:62,1,59.9999999999999,4|0,3:2|3:2,3:2:0:0:
335,74,82419,2,0,P|350:112|345:146,1,59.9999999999999,4|0,3:2|3:2,3:2:0:0:
330,165,82819,6,0,L|325:259,2,89.9999999999999,4|8|0,3:1|3:2|3:1,3:2:0:0:
271,112,83884,1,0,3:2:0:0:
235,127,84017,2,0,P|191:133|166:130,1,59.9999999999999,8|0,3:2|3:2,3:2:0:0:
138,120,84417,6,0,L|75:118,1,59.9999999999999,0|0,3:2|3:2,3:2:0:0:
39,127,84816,1,8,3:2:0:0:
27,204,85083,1,0,3:2:0:0:
59,224,85216,2,0,P|88:222|117:229,1,59.9999999999999,4|0,3:2|3:2,3:2:0:0:
154,244,85615,2,0,P|182:251|212:248,1,59.9999999999999,12|0,3:2|3:2,3:2:0:0:
250,239,86015,6,0,L|348:242,2,89.9999999999999,0|8|0,3:2|3:2|3:2,3:2:0:0:
177,209,87080,1,0,3:2:0:0:
157,175,87213,2,0,L|153:104,1,59.9999999999999,8|0,3:2|3:2,3:2:0:0:
170,80,87612,6,0,L|241:76,1,59.9999999999999,0|0,3:2|3:2,3:2:0:0:
269,75,88012,1,8,3:2:0:0:
346,73,88278,1,0,3:2:0:0:
369,104,88411,2,0,P|374:158|368:188,1,59.9999999999999,4|0,3:2|3:2,3:2:0:0:
360,200,88811,2,0,L|358:275,1,59.9999999999999,12|0,3:2|3:2,3:2:0:0:
364,298,89210,6,0,P|402:309|462:295,2,89.9999999999999,0|8|0,3:2|3:2|3:2,3:2:0:0:
291,268,90276,1,0,3:2:0:0:
252,270,90409,2,0,L|183:277,1,59.9999999999999,8|0,3:2|3:2,3:2:0:0:
153,280,90808,5,0,3:2:0:0:
94,228,91075,1,0,3:2:0:0:
83,190,91208,2,0,L|81:104,1,59.9999999999999,8|0,3:2|3:2,3:2:0:0:
83,90,91607,1,4,3:2:0:0:
160,84,91873,1,0,3:2:0:0:
171,122,92007,2,0,L|173:208,1,59.9999999999999,12|0,3:2|3:2,3:2:0:0:
171,222,92406,5,0,3:2:0:0:
256,302,92806,1,8,3:2:0:0:
341,222,93205,1,0,3:2:0:0:
256,140,93605,1,8,3:2:0:0:
171,222,94004,6,0,P|136:220|103:209,1,59.9999999999999,6|0,3:2|3:2,3:2:0:0:
77,195,94403,1,14,3:2:0:0:
65,117,94670,1,0,3:2:0:0:
94,90,94803,2,0,L|162:84,1,59.9999999999999,6|8,3:2|3:2,3:2:0:0:
192,81,95202,2,0,P|235:95|266:90,1,59.9999999999999,12|8,3:2|3:2,3:2:0:0:
287,86,95602,5,4,3:1:0:0:
256,192,95735,12,0,97200,3:2:0:0:
224,132,101993,6,0,P|227:85|252:36,2,89.9999999999999,4|8|0,3:1|3:2|3:1,3:2:0:0:
228,210,103059,1,0,3:2:0:0:
261,230,103192,2,0,L|343:231,1,59.9999999999999,8|0,3:2|3:2,3:2:0:0:
358,240,103591,6,0,P|391:222|428:218,1,59.9999999999999,0|0,3:2|3:2,3:2:0:0:
451,215,103991,1,8,3:2:0:0:
478,141,104257,1,0,3:2:0:0:
442,124,104390,2,0,P|404:129|379:125,1,59.9999999999999,4|0,3:2|3:2,3:2:0:0:
350,104,104790,2,0,P|305:95|266:106,1,59.9999999999999,12|0,3:2|3:2,3:2:0:0:
257,117,105189,6,0,L|248:220,2,89.9999999999999,0|8|0,3:2|3:2|3:2,3:2:0:0:
214,51,106254,1,0,3:2:0:0:
181,30,106387,2,0,P|130:29|111:37,1,59.9999999999999,8|0,3:2|3:2,3:2:0:0:
90,55,106787,6,0,L|86:120,1,59.9999999999999,0|0,3:2|3:2,3:2:0:0:
83,153,107186,1,8,3:2:0:0:
63,228,107453,1,0,3:2:0:0:
102,229,107586,2,0,L|166:240,1,59.9999999999999,4|0,3:2|3:2,3:2:0:0:
199,232,107985,2,0,L|263:243,1,59.9999999999999,12|0,3:2|3:2,3:2:0:0:
296,234,108385,6,0,P|305:184|339:145,2,89.9999999999999,0|8|0,3:2|3:2|3:2,3:2:0:0:
313,310,109450,1,0,3:2:0:0:
351,316,109583,2,0,L|415:308,1,59.9999999999999,8|0,3:2|3:2,3:2:0:0:
441,284,109983,5,0,3:2:0:0:
485,219,110249,1,0,3:2:0:0:
487,180,110382,2,0,P|483:129|465:107,1,59.9999999999999,8|0,3:2|3:2,3:2:0:0:
446,101,110782,2,0,L|373:95,1,59.9999999999999,4|0,3:2|3:2,3:2:0:0:
352,116,111181,2,0,L|279:122,1,59.9999999999999,12|0,3:2|3:2,3:2:0:0:
257,104,111581,6,0,P|208:118|165:109,2,89.9999999999999,0|8|0,3:2|3:2|3:2,3:2:0:0:
332,125,112646,1,0,3:2:0:0:
349,159,112779,2,0,L|356:235,1,59.9999999999999,8|0,3:2|3:2,3:2:0:0:
342,256,113178,6,0,L|266:263,1,59.9999999999999,0|0,3:2|3:2,3:2:0:0:
243,253,113578,1,8,3:2:0:0:
186,199,113844,1,0,3:2:0:0:
157,225,113977,2,0,P|152:269|159:291,1,59.9999999999999,12|8,3:2|3:2,3:2:0:0:
176,316,114377,2,0,L|238:340,1,59.9999999999999,4|0,3:2|3:2,3:2:0:0:
269,346,114776,6,0,L|366:337,2,89.9999999999999,4|8|0,3:2|3:2|3:2,3:2:0:0:
196,316,115842,1,0,3:2:0:0:
170,286,115975,2,0,P|173:243|167:213,1,59.9999999999999,8|0,3:2|3:2,3:2:0:0:
154,190,116374,5,0,3:2:0:0:
109,126,116640,1,0,3:2:0:0:
138,100,116774,2,0,L|206:92,1,59.9999999999999,8|0,3:2|3:2,3:2:0:0:
226,119,117173,2,0,L|294:127,1,59.9999999999999,4|0,3:2|3:2,3:2:0:0:
306,158,117573,2,0,L|367:188,1,59.9999999999999,12|0,3:2|3:2,3:2:0:0:
359,223,117972,6,0,P|367:288|385:325,2,89.9999999999999,0|8|0,3:2|3:2|3:2,3:2:0:0:
359,144,119037,1,0,3:2:0:0:
335,113,119170,2,0,L|268:109,1,59.9999999999999,8|0,3:2|3:2,3:2:0:0:
236,105,119570,5,0,3:2:0:0:
158,115,119836,1,0,3:2:0:0:
133,145,119969,2,0,L|130:219,1,59.9999999999999,8|0,3:2|3:2,3:2:0:0:
162,227,120369,2,0,L|165:301,1,59.9999999999999,4|0,3:2|3:2,3:2:0:0:
154,324,120768,1,12,3:2:0:0:
220,364,121035,1,0,3:2:0:0:
255,347,121168,6,0,P|300:338|351:343,2,89.9999999999999,0|8|0,3:2|3:2|3:2,3:2:0:0:
189,304,122233,1,0,3:2:0:0:
162,275,122366,2,0,P|155:229|163:202,1,59.9999999999999,8|0,3:2|3:2,3:2:0:0:
169,179,122766,6,0,P|176:149|172:110,1,59.9999999999999,0|0,3:2|3:2,3:2:0:0:
165,80,123165,1,8,3:2:0:0:
230,37,123431,1,0,3:2:0:0:
263,56,123565,2,0,L|330:53,1,59.9999999999999,4|0,3:2|3:2,3:2:0:0:
359,66,123964,2,0,L|362:133,1,59.9999999999999,12|0,3:2|3:2,3:2:0:0:
352,163,124363,6,0,P|342:212|350:255,2,89.9999999999999,0|8|0,3:2|3:2|3:2,3:2:0:0:
306,99,125429,1,0,3:2:0:0:
267,92,125562,2,0,L|200:97,1,59.9999999999999,8|0,3:2|3:2,3:2:0:0:
168,91,125961,6,0,P|132:101|115:124,1,59.9999999999999,0|8,3:2|3:2,3:2:0:0:
104,155,126361,1,0,3:2:0:0:
160,209,126627,1,0,3:2:0:0:
198,213,126760,2,0,L|256:201,1,59.9999999999999,12|8,3:2|3:2,3:2:0:0:
295,205,127160,2,0,L|314:263,1,59.9999999999999,4|0,3:2|3:2,3:2:0:0:
320,300,127559,6,0,P|286:332|233:329,2,89.9999999999999,4|8|0,3:1|3:2|3:1,3:2:0:0:
340,224,128624,1,0,3:2:0:0:
340,185,128758,2,0,L|332:122,1,59.9999999999999,8|0,3:2|3:2,3:2:0:0:
310,92,129157,6,0,P|269:100|245:94,1,59.9999999999999,0|0,3:2|3:2,3:2:0:0:
217,78,129557,2,0,L|150:71,1,59.9999999999999,8|0,3:2|3:2,3:2:0:0:
118,77,129956,1,4,3:2:0:0:
71,139,130222,1,0,3:2:0:0:
91,172,130356,2,0,L|94:238,1,59.9999999999999,12|0,3:2|3:2,3:2:0:0:
85,270,130755,6,0,P|122:291|180:285,2,89.9999999999999,0|8|0,3:2|3:2|3:2,3:2:0:0:
51,199,131820,1,0,3:2:0:0:
63,162,131953,2,0,L|108:109,1,59.9999999999999,8|0,3:2|3:2,3:2:0:0:
139,106,132353,5,0,3:2:0:0:
212,79,132619,1,0,3:2:0:0:
250,79,132752,2,0,P|305:93|315:102,1,59.9999999999999,8|0,3:2|3:2,3:2:0:0:
323,129,133152,2,0,L|329:196,1,59.9999999999999,4|0,3:2|3:2,3:2:0:0:
325,227,133551,1,12,3:2:0:0:
265,277,133818,1,0,3:2:0:0:
228,263,133951,6,0,L|124:259,2,89.9999999999999,0|8|0,3:2|3:2|3:2,3:2:0:0:
300,231,135016,1,0,3:2:0:0:
310,193,135149,2,0,L|314:123,1,59.9999999999999,8|0,3:2|3:2,3:2:0:0:
300,96,135549,5,0,3:2:0:0:
228,64,135815,1,0,3:2:0:0:
190,53,135948,2,0,L|129:51,1,59.9999999999999,8|0,3:2|3:2,3:2:0:0:
92,62,136348,1,4,3:2:0:0:
46,125,136614,1,0,3:2:0:0:
70,154,136747,2,0,P|86:198|85:218,1,59.9999999999999,12|0,3:2|3:2,3:2:0:0:
82,249,137146,5,0,3:2:0:0:
183,309,137546,1,8,3:2:0:0:
256,218,137945,1,0,3:2:0:0:
329,309,138345,1,8,3:2:0:0:
430,249,138744,6,0,P|440:192|437:164,1,59.9999999999999,6|0,3:2|3:2,3:2:0:0:
430,152,139144,1,6,3:2:0:0:
387,86,139410,1,0,3:2:0:0:
352,67,139543,2,0,L|290:62,1,59.9999999999999,6|0,3:2|3:2,3:2:0:0:
254,73,139943,2,0,P|217:77|188:72,1,59.9999999999999,12|8,3:2|3:2,3:2:0:0:
157,60,140342,5,4,3:1:0:0:
256,192,140475,12,0,143538,3:2:0:0:
