osu file format v14

[General]
AudioFilename: All_I_Want_For_Christmas_Is_You_-_Mariah_Carey_(short_version).mp3
AudioLeadIn: 0
PreviewTime: 92274
Countdown: 0
SampleSet: None
StackLeniency: 0.7
Mode: 0
LetterboxInBreaks: 0
WidescreenStoryboard: 1

[Editor]
DistanceSpacing: 1.3
BeatDivisor: 3
GridSize: 16
TimelineZoom: 1.800006

[Metadata]
Title:All I Want For Christmas Is You
TitleUnicode:All I Want For Christmas Is You
Artist:Mariah Carey
ArtistUnicode:Mariah Carey
Creator:MariahCarey
Version:Freezing Insane
Source:
Tags:winter 2015 pop rohit6 arphimigon voli
BeatmapID:823095
BeatmapSetID:375877

[Difficulty]
HPDrainRate:6
CircleSize:4
OverallDifficulty:8
ApproachRate:8.5
SliderMultiplier:1.8
SliderTickRate:1

[Events]
//Background and Video events
0,0,"asdf2.png",0,0
//Break Periods
//Storyboard Layer 0 (Background)
//Storyboard Layer 1 (Fail)
//Storyboard Layer 2 (Pass)
//Storyboard Layer 3 (Foreground)
//Storyboard Sound Samples

[TimingPoints]
50862.6940923495,399.467376830892,4,3,1,40,1,0
54058,-100,4,3,1,80,0,0
143405,-100,4,3,1,5,0,0

[Colours]
Combo1 : 116,214,128
Combo2 : 24,177,177
Combo3 : 18,124,255
Combo4 : 192,192,192
Combo5 : 243,63,67
Combo6 : 255,120,120
Combo7 : 55,139,41
SliderBorder : 202,168,5

[HitObjects]
88,73,50862,6,0,P|144:53|202:62,1,120,6|2,3:2|0:2,0:0:0:0:
260,114,51262,1,6,3:2:0:0:
380,209,51528,1,2,3:2:0:0:
351,281,51661,2,0,P|339:313|319:338,2,60,6|2|2,3:2|3:2|3:2,0:0:0:0:
380,209,52061,2,0,P|392:177|412:152,2,60,6|2|2,3:2|3:2|3:2,0:0:0:0:
351,281,52460,6,0,P|372:307|384:337,2,60,6|2|2,3:2|3:2|3:2,0:0:0:0:
303,220,52860,2,0,P|281:193|269:163,2,60,6|2|2,3:2|3:2|3:2,0:0:0:0:
351,281,53259,2,0,P|384:275|416:280,2,60,6|2|2,3:2|3:2|3:2,0:0:0:0:
274,292,53658,2,0,P|240:297|208:292,2,60,6|2|2,3:2|3:2|3:2,0:0:0:0:
351,281,54058,5,8,3:3:0:0:
351,281,54191,1,8,3:3:0:0:
448,101,54457,1,8,3:3:0:0:
243,101,54724,1,8,3:3:0:0:
203,171,54857,2,0,L|166:236,2,60,4|4|4,3:3|3:3|3:3,0:0:0:0:
324,76,55256,2,0,L|361:11,2,60,4|4|4,3:3|3:3|3:3,0:0:0:0:
243,101,55656,5,4,3:1:0:0:
436,52,55922,1,8,3:2:0:0:
436,52,56055,1,8,3:2:0:0:
290,285,56322,1,8,3:2:0:0:
290,285,56455,1,8,3:2:0:0:
324,76,56721,1,8,3:2:0:0:
324,76,56854,1,10,3:2:0:0:
173,223,57121,1,0,0:0:0:0:
173,223,57254,6,0,P|104:249|46:214,1,120,4|0,3:1|3:2,0:0:0:0:
225,161,57653,2,0,P|236:88|296:55,1,120,8|0,3:2|3:2,0:0:0:0:
253,238,58053,2,0,P|310:284|308:352,1,120,0|0,0:0|0:0,0:0:0:0:
372,229,58452,2,0,P|385:172|434:140,1,120,8|0,0:2|3:2,0:0:0:0:
512,126,58852,5,0,3:2:0:0:
311,71,59118,1,0,3:2:0:0:
311,71,59251,2,0,P|232:71|188:51,1,120,8|0,3:2|3:2,0:0:0:0:
119,73,59650,6,0,L|82:123,1,60,6|0,3:2|3:2,0:0:0:0:
153,156,59917,2,0,L|116:206,1,60,6|8,3:2|3:2,0:0:0:0:
187,238,60183,2,0,L|150:288,1,60,6|0,3:2|3:2,0:0:0:0:
153,156,60449,6,0,P|239:168|271:240,1,120,0|0,3:2|3:2,0:0:0:0:
337,189,60849,2,0,P|383:152|442:155,1,120,8|0,3:2|3:2,0:0:0:0:
408,228,61248,2,0,P|414:310|408:350,1,120,0|0,3:2|3:2,0:0:0:0:
497,320,61648,1,8,3:2:0:0:
293,259,61914,1,0,3:2:0:0:
293,259,62047,6,0,P|254:197|276:130,1,120,0|0,3:2|3:2,0:0:0:0:
220,86,62447,2,0,P|293:83|340:135,1,120,8|0,3:2|3:2,0:0:0:0:
412,108,62846,2,0,P|377:172|308:187,1,120,0|0,3:2|3:2,0:0:0:0:
252,203,63246,5,8,3:2:0:0:
140,94,63512,2,0,P|185:12|283:37,1,180,0|0,3:2|3:2,0:0:0:0:
220,86,64045,2,0,P|183:167|109:163,1,120,8|0,3:2|3:2,0:0:0:0:
79,162,64444,2,0,P|116:243|190:239,1,120,0|0,3:2|3:2,0:0:0:0:
219,262,64844,1,8,3:2:0:0:
433,195,65110,1,0,0:0:0:0:
433,195,65243,6,0,P|419:138|369:107,1,120,0|0,3:2|0:0,0:0:0:0:
357,183,65642,2,0,P|299:212|294:147,1,120,8|0,3:2|0:0,0:0:0:0:
267,97,66042,2,0,P|214:133|210:206,1,120,0|0,3:2|3:2,0:0:0:0:
215,263,66441,2,0,P|268:227|272:154,1,120,8|0,3:2|3:2,0:0:0:0:
267,97,66841,6,0,P|280:40|330:9,1,120,0|0,3:2|3:2,0:0:0:0:
343,85,67240,1,8,3:2:0:0:
198,187,67507,1,0,3:2:0:0:
198,187,67640,2,0,P|147:218|153:307,1,120,0|0,3:2|3:2,0:0:0:0:
215,263,68039,2,0,P|266:232|260:143,1,120,8|0,3:2|3:2,0:0:0:0:
183,109,68439,6,0,P|131:139|137:228,1,120,0|0,3:2|3:2,0:0:0:0:
136,273,68838,1,8,3:2:0:0:
300,247,69105,2,0,B|387:217|390:288|492:239,1,180,0|0,3:2|0:0,0:0:0:0:
507,166,69637,1,8,0:2:0:0:
328,318,69903,1,0,0:0:0:0:
328,318,70037,6,0,P|247:309|228:233,1,120,0|0,3:2|3:2,0:0:0:0:
255,208,70436,2,0,P|197:204|156:245,1,120,8|0,3:2|3:2,0:0:0:0:
128,318,70836,2,0,P|209:309|228:233,1,120,0|0,3:2|3:2,0:0:0:0:
255,208,71235,1,8,3:2:0:0:
108,157,71501,1,0,3:2:0:0:
108,157,71634,6,0,P|152:95|203:69,1,120,0|0,3:2|3:2,0:0:0:0:
267,73,72034,2,0,P|316:105|348:156,1,120,8|0,3:2|3:2,0:0:0:0:
384,225,72433,6,0,L|412:283,1,60,6|0,3:2|3:2,0:0:0:0:
442,351,72700,2,0,L|376:346,1,60,6|8,3:2|3:2,0:0:0:0:
304,339,72966,2,0,L|340:284,1,60,6|0,3:2|3:2,0:0:0:0:
385,225,73232,6,0,P|419:147|394:94,1,120,0|0,3:2|3:2,0:0:0:0:
368,50,73632,2,0,P|334:128|359:181,1,120,8|0,3:2|3:2,0:0:0:0:
385,225,74031,2,0,P|298:221|266:151,1,120,0|0,3:2|3:2,0:0:0:0:
222,130,74431,2,0,P|173:96|115:106,1,120,8|0,3:2|3:2,0:0:0:0:
104,196,74830,6,0,P|152:229|210:219,1,120,0|0,3:2|3:2,0:0:0:0:
353,121,75230,2,0,P|300:146|279:200,1,120,8|0,3:2|3:2,0:0:0:0:
296,377,75629,2,0,P|300:318|263:273,1,120,0|0,3:2|3:2,0:0:0:0:
104,196,76029,2,0,P|152:229|210:219,1,120,8|0,3:2|3:2,0:0:0:0:
374,127,76428,6,0,P|316:117|271:153,1,120,0|0,3:2|3:2,0:0:0:0:
290,227,76828,2,0,P|369:227|397:189,1,120,8|0,3:2|3:2,0:0:0:0:
495,174,77227,2,0,P|449:210|392:200,1,120,0|0,3:2|3:2,0:0:0:0:
417,296,77627,1,8,3:2:0:0:
272,154,77893,1,0,3:2:0:0:
272,154,78026,6,0,P|237:225|266:284,1,120,0|0,3:2|3:2,0:0:0:0:
447,182,78425,2,0,P|482:111|453:52,1,120,8|0,3:2|3:2,0:0:0:0:
361,170,78825,2,0,P|353:228|385:276,1,120,0|0,3:2|3:2,0:0:0:0:
272,154,79224,2,0,P|279:95|247:47,1,120,8|0,3:2|3:2,0:0:0:0:
91,116,79624,6,0,P|147:133|202:114,1,120,0|0,3:2|3:2,0:0:0:0:
246,46,80023,1,8,3:2:0:0:
239,220,80290,1,0,3:2:0:0:
239,220,80423,2,0,P|182:203|126:222,1,120,0|0,3:2|3:2,0:0:0:0:
69,291,80822,1,8,3:2:0:0:
91,116,81089,1,0,3:2:0:0:
91,116,81222,6,0,B|171:149|201:90|272:129,1,180,0|8,3:2|3:2,0:0:0:0:
412,240,81887,1,8,3:2:0:0:
371,310,82021,2,0,L|336:369,2,60,8|8|8,3:3|3:3|3:3,0:0:0:0:
331,240,82420,1,4,3:3:0:0:
452,170,82553,1,4,3:3:0:0:
452,310,82686,1,4,3:3:0:0:
371,170,82820,6,0,P|336:111|283:87,1,120,4|0,3:1|3:2,0:0:0:0:
191,105,83219,2,0,P|226:164|279:188,1,120,8|0,3:2|3:2,0:0:0:0:
247,279,83619,2,0,P|180:262|126:282,1,120,0|0,3:2|3:2,0:0:0:0:
72,326,84018,1,8,3:2:0:0:
47,216,84284,1,0,3:2:0:0:
47,216,84417,6,0,P|94:166|104:109,1,120,0|0,3:2|3:2,0:0:0:0:
143,54,84817,1,8,3:2:0:0:
277,132,85083,1,0,3:2:0:0:
277,132,85216,2,0,B|303:177|303:177|328:193|328:193|361:245,1,120,0|0,3:2|3:2,0:0:0:0:
303,289,85616,2,8,B|277:244|277:244|252:228|252:228|219:176,1,120,8|0,3:2|3:2,0:0:0:0:
277,132,86015,6,0,P|352:112|377:47,1,120,0|0,3:2|3:2,0:0:0:0:
444,112,86415,2,0,P|464:187|529:212,1,120,8|0,3:2|3:2,0:0:0:0:
464,279,86814,2,0,P|389:299|364:364,1,120,0|0,3:2|3:2,0:0:0:0:
297,299,87214,2,0,P|277:224|212:199,1,120,8|0,3:2|3:2,0:0:0:0:
113,275,87613,6,0,P|187:295|242:251,1,120,0|0,3:2|3:2,0:0:0:0:
227,127,88013,2,0,P|172:181|182:250,1,120,8|0,3:2|3:2,0:0:0:0:
222,277,88412,1,0,3:2:0:0:
118,125,88678,1,0,3:2:0:0:
118,125,88812,2,0,P|46:196|30:204,1,120,8|0,3:2|3:2,0:0:0:0:
177,72,89211,6,0,P|254:59|296:106,1,120,0|0,3:2|3:2,0:0:0:0:
266,252,89611,2,8,P|315:221|327:164,1,120,8|0,3:2|3:2,0:0:0:0:
484,99,90010,2,0,P|432:70|377:89,1,120,0|0,3:2|3:2,0:0:0:0:
327,164,90409,5,8,3:2:0:0:
360,316,90676,2,0,B|226:363|266:266|100:331,1,240,0|8,3:2|3:2,2:0:0:0:
151,163,91475,1,0,3:2:0:0:
151,163,91608,2,0,P|184:101|239:71,1,120,0|0,3:2|3:2,0:0:0:0:
300,55,92007,2,0,L|368:40,2,60,8|0|0,3:2|0:0|3:2,0:0:0:0:
412,163,92407,6,0,P|438:302|444:312,1,120,0|0,3:2|3:2,0:0:0:0:
284,172,92806,2,0,P|299:114|299:54,1,120,8|0,3:2|3:2,0:0:0:0:
151,163,93206,2,0,P|125:302|119:312,1,120,0|0,3:2|3:2,0:0:0:0:
23,154,93605,2,0,P|49:15|55:5,1,120,8|0,3:2|3:2,0:0:0:0:
183,92,94005,6,0,P|228:143|183:235,2,180,6|14|6,3:2|3:2|3:2,0:0:0:0:
23,154,95070,1,8,3:2:0:0:
35,242,95203,2,0,L|46:322,2,60,8|8|8,3:3|3:3|3:3,0:0:0:0:
151,163,95603,6,0,B|411:298|676:-36|96:-247|172:278|273:277,1,720,4|2,3:1|3:2,0:0:0:0:
130,158,97467,5,2,3:2:0:0:
130,158,97600,2,0,P|53:173|46:181,2,60,14|2|2,3:2|3:2|3:2,0:0:0:0:
203,132,97999,2,0,P|228:57|225:47,2,60,6|2|2,3:2|3:2|3:2,0:0:0:0:
189,208,98399,2,0,P|240:267|250:269,2,60,14|2|2,3:2|3:2|3:2,0:0:0:0:
230,80,98798,6,0,B|237:48|271:11|351:28|348:93|348:93|396:61|451:89|466:141|432:188,1,360,2|0,3:2|3:2,0:0:0:0:
357,322,99864,1,0,3:2:0:0:
357,322,99997,2,0,P|295:305|228:317,1,120,8|0,3:2|0:0,0:0:0:0:
167,338,100396,5,0,3:2:0:0:
241,201,100662,1,8,3:2:0:0:
241,201,100796,2,8,P|272:145|328:106,1,120,8|8,3:2|3:2,0:0:0:0:
511,99,101195,2,8,P|480:155|424:194,1,120,8|8,3:2|3:2,0:0:0:0:
361,240,101595,2,0,L|299:278,2,60,0|0|0,3:2|3:2|3:2,0:0:0:0:
309,164,101994,6,0,P|265:127|207:131,1,120,4|0,3:1|3:2,0:0:0:0:
129,94,102393,2,0,P|119:151|152:199,1,120,8|0,3:2|3:2,0:0:0:0:
158,285,102793,2,0,P|212:264|237:211,1,120,0|0,3:2|3:2,0:0:0:0:
207,131,103192,1,8,3:2:0:0:
393,216,103459,1,0,3:2:0:0:
393,216,103592,6,0,P|418:163|473:143,1,120,0|0,3:2|3:2,0:0:0:0:
476,227,103991,2,0,P|450:279|395:299,1,120,8|0,3:2|3:2,0:0:0:0:
313,293,104391,6,0,L|235:293,1,60,6|0,3:2|3:2,0:0:0:0:
164,293,104657,2,0,L|202:225,1,60,6|8,3:2|3:2,0:0:0:0:
238,164,104923,2,0,L|276:231,1,60,6|0,3:2|3:2,0:0:0:0:
313,293,105190,6,0,P|354:235|334:168,1,120,0|0,3:2|3:2,0:0:0:0:
327,114,105589,1,8,3:2:0:0:
191,81,105856,1,0,3:2:0:0:
191,81,105989,2,0,P|150:139|167:216,1,120,0|0,3:2|3:2,0:0:0:0:
177,259,106388,1,8,3:2:0:0:
352,188,106654,1,0,3:2:0:0:
352,188,106788,6,0,P|411:146|383:45,1,180,0|8,3:2|3:2,0:0:0:0:
239,144,107453,1,0,3:2:0:0:
239,144,107587,2,0,P|290:105|345:110,1,120,0|0,3:2|3:2,0:0:0:0:
258,217,107986,2,0,P|266:280|234:325,1,120,8|0,3:2|3:2,0:0:0:0:
186,197,108385,6,0,P|126:172|103:122,1,120,0|0,3:2|3:2,0:0:0:0:
67,44,108785,2,0,P|126:46|206:57,1,120,8|0,3:2|3:2,0:0:0:0:
186,197,109184,2,0,P|126:204|66:206,1,120,0|0,3:2|3:2,0:0:0:0:
103,124,109584,1,8,3:2:0:0:
287,91,109850,1,0,3:2:0:0:
287,91,109983,6,0,P|340:112|393:86,1,120,0|0,3:2|3:2,0:0:0:0:
454,253,110383,2,0,P|428:200|449:146,1,120,8|0,3:2|3:2,0:0:0:0:
292,307,110782,2,0,P|344:281|398:302,1,120,0|0,3:2|3:2,0:0:0:0:
238,145,111182,2,0,P|263:197|242:251,1,120,8|0,3:2|3:2,0:0:0:0:
163,122,111581,6,0,P|206:74|306:108,1,180,0|8,3:2|3:2,0:0:0:0:
398,302,112247,1,0,3:2:0:0:
398,302,112380,2,0,P|385:232|408:174,1,120,0|0,3:2|3:2,0:0:0:0:
451,112,112780,1,8,3:2:0:0:
238,145,113046,6,0,P|172:199|96:161,1,180,0|0,3:2|3:2,0:0:0:0:
19,231,113579,1,8,3:2:0:0:
163,122,113845,1,0,3:2:0:0:
112,63,113978,6,8,L|65:11,2,60,8|8|8,3:3|3:2|3:2,0:0:0:0:
191,46,114378,1,8,3:3:0:0:
218,183,114511,1,4,3:3:0:0:
85,137,114644,1,4,3:3:0:0:
270,29,114777,6,0,P|321:73|312:143,1,120,4|0,3:1|3:2,0:0:0:0:
301,199,115176,2,0,P|250:155|259:85,1,120,8|0,3:2|3:2,0:0:0:0:
270,29,115576,1,0,3:2:0:0:
112,63,115842,1,0,3:2:0:0:
112,63,115975,2,0,P|108:126|67:195,1,120,8|0,3:2|3:2,0:0:0:0:
138,236,116375,6,0,P|195:207|274:208,1,120,0|0,3:2|3:2,0:0:0:0:
274,127,116774,2,0,P|220:91|182:22,1,120,8|0,3:2|3:2,0:0:0:0:
112,63,117174,6,0,L|57:100,1,60,6|0,3:2|3:2,0:0:0:0:
128,147,117440,2,0,L|73:184,1,60,6|8,3:2|3:2,0:0:0:0:
138,236,117706,2,0,L|83:273,1,60,6|0,3:2|3:2,0:0:0:0:
148,328,117973,6,0,P|201:313|287:346,1,120,0|0,3:2|3:2,0:0:0:0:
309,258,118372,1,8,3:2:0:0:
444,177,118638,2,0,P|386:115|249:122,1,180,0|0,3:2|3:2,0:0:0:0:
215,129,119171,1,8,3:2:0:0:
96,280,119437,1,0,3:2:0:0:
96,280,119571,6,0,P|57:218|79:151,1,120,0|0,3:2|3:2,0:0:0:0:
23,97,119970,2,0,P|96:94|143:146,1,120,8|0,3:2|3:2,0:0:0:0:
215,129,120370,2,0,P|180:193|111:208,1,120,0|0,3:2|3:2,0:0:0:0:
294,134,120769,2,0,P|329:70|398:55,1,120,8|0,3:2|3:2,0:0:0:0:
340,202,121168,6,0,P|254:204|214:128,1,180,0|8,3:2|3:2,0:0:0:0:
235,296,121834,1,0,3:2:0:0:
235,296,121967,2,0,P|303:310|366:291,1,120,0|0,3:2|3:2,0:0:0:0:
209,195,122367,2,0,P|141:181|78:200,1,120,8|0,3:2|3:2,0:0:0:0:
236,340,122766,6,0,P|304:354|367:335,1,120,0|0,3:2|3:2,0:0:0:0:
208,151,123166,2,0,P|140:137|77:156,1,120,8|0,3:2|3:2,0:0:0:0:
140,223,123565,2,0,P|185:268|265:237,1,120,0|0,3:2|3:2,0:0:0:0:
344,264,123965,2,0,P|402:266|441:223,1,120,8|0,3:2|3:2,0:0:0:0:
334,86,124364,6,0,P|365:152|374:209,1,120,0|0,3:2|3:2,0:0:0:0:
208,194,124764,2,0,P|220:136|247:83,1,120,8|0,3:2|3:2,0:0:0:0:
405,53,125163,2,0,P|405:119|348:160,1,120,0|0,3:2|3:2,0:0:0:0:
291,196,125563,1,8,3:2:0:0:
171,38,125829,6,0,P|90:52|86:159,2,180,0|0|0,3:2|3:2|3:2,0:0:0:0:
144,109,126761,5,8,3:2:0:0:
339,112,127027,5,8,3:2:0:0:
428,227,127160,1,8,3:3:0:0:
288,186,127294,1,4,3:3:0:0:
425,136,127427,1,4,3:3:0:0:
343,258,127560,6,0,P|279:274|228:249,1,120,4|0,3:1|3:2,0:0:0:0:
288,186,127959,2,0,P|272:122|297:71,1,120,8|0,3:2|3:2,0:0:0:0:
360,131,128359,2,0,P|424:115|475:140,1,120,0|0,3:2|3:2,0:0:0:0:
415,204,128758,2,0,P|430:268|405:319,1,120,8|0,3:2|3:2,0:0:0:0:
343,258,129158,6,0,P|279:274|228:249,1,120,0|0,3:2|3:2,0:0:0:0:
171,203,129557,1,8,3:2:0:0:
201,49,129824,1,0,3:2:0:0:
201,49,129957,2,0,B|236:33|236:33|265:34|265:34|312:11,1,120,0|0,3:2|3:2,0:0:0:0:
315,91,130356,2,0,B|279:106|279:106|250:105|250:105|203:128,1,120,8|0,3:2|3:2,0:0:0:0:
108,256,130756,6,0,P|182:287|250:226,1,180,0|8,3:2|3:2,0:0:0:0:
472,256,131421,2,0,P|398:287|330:226,1,180,0|0,3:2|3:2,0:0:0:0:
317,149,131954,1,8,3:2:0:0:
118,104,132220,1,0,3:2:0:0:
118,104,132354,6,0,P|22:108|-23:161,1,120,0|0,3:2|3:2,0:0:0:0:
74,193,132753,2,0,P|125:274|193:286,1,120,8|0,3:2|3:2,0:0:0:0:
173,186,133152,2,0,P|217:100|194:35,1,120,0|0,3:2|3:2,0:0:0:0:
331,53,133552,2,0,L|392:40,2,60,8|8|4,3:2|3:3|3:3,0:0:0:0:
272,182,133951,6,0,P|333:227|385:228,1,120,4|0,3:1|3:2,0:0:0:0:
220,343,134351,2,0,P|228:267|203:222,1,120,8|0,3:2|3:2,0:0:0:0:
205,67,134750,2,0,P|155:78|108:141,1,120,0|0,3:2|3:2,0:0:0:0:
97,212,135150,1,8,3:2:0:0:
272,182,135416,2,0,B|330:170|359:220|359:220|402:195|402:195|439:239|497:215,1,240,0|8,3:2|3:2,2:0:0:0:
293,257,136215,1,0,3:2:0:0:
293,257,136348,6,0,P|222:242|196:200,1,120,0|0,3:2|3:2,0:0:0:0:
251,107,136748,2,0,P|322:122|348:164,1,120,8|0,3:2|3:2,0:0:0:0:
474,289,137147,6,0,P|490:209|481:147,1,120,4|0,3:1|3:2,0:0:0:0:
359,40,137547,2,0,P|343:120|352:182,1,120,8|0,3:2|3:2,0:0:0:0:
220,288,137946,2,0,P|236:208|227:146,1,120,0|0,3:2|3:2,0:0:0:0:
105,39,138346,2,0,P|89:119|98:181,1,120,8|0,3:2|3:2,0:0:0:0:
164,239,138745,6,0,P|245:216|293:285,2,180,14|14|14,3:2|3:2|3:2,0:0:0:0:
17,172,139810,1,0,3:2:0:0:
29,260,139943,2,8,L|40:340,2,60,8|8|8,3:2|3:2|3:2,0:0:0:0:
225,346,140343,86,0,B|225:284|225:284|178:299|132:284|132:284|194:253|209:207|209:207|178:222|148:207|148:207|194:161|225:114|194:99|194:99|163:114|163:114|194:68|256:22|256:22|317:68|348:114|348:114|317:99|317:99|286:114|317:161|363:207|363:207|333:222|302:207|302:207|317:253|379:284|379:284|333:299|286:284|286:284|286:346,1,1260,4|10,3:1|3:2,2:0:0:0:
256,192,143539,12,0,145136,3:2:0:0:
