osu file format v14

[General]
AudioFilename: audio.mp3
AudioLeadIn: 0
PreviewTime: 71977
Countdown: 0
SampleSet: None
StackLeniency: 0.2
Mode: 0
LetterboxInBreaks: 0
WidescreenStoryboard: 1

[Editor]
DistanceSpacing: 0.9
BeatDivisor: 4
GridSize: 32
TimelineZoom: 2.599999

[Metadata]
Title:Magical Doctor
TitleUnicode:Magical Doctor
Artist:Maretu
ArtistUnicode:Maretu
Creator:spx_
Version:kanjou tekina izon
Source:
Tags:weirdcore glitchcore rock metal mental mix
BeatmapID:4538014
BeatmapSetID:1871809

[Difficulty]
HPDrainRate:5
CircleSize:4
OverallDifficulty:9
ApproachRate:10
SliderMultiplier:1.6
SliderTickRate:1

[Events]
//Background and Video events
0,0,"magical doctor.png",0,0
//Break Periods
//Storyboard Layer 0 (Background)
//Storyboard Layer 1 (Fail)
//Storyboard Layer 2 (Pass)
//Storyboard Layer 3 (Foreground)
//Storyboard Layer 4 (Overlay)
//Storyboard Sound Samples

[TimingPoints]
1555,516.129032258064,4,3,1,25,1,0
9684,293.7576499388,4,3,1,50,1,0
12034,312.5,4,3,1,50,1,0
13284,298.507462686567,4,3,1,50,1,0
14478,294.117647058823,4,3,1,50,1,0
33007,-10.4166666666667,4,3,1,50,0,0
33080,-10.4166666666667,4,3,1,5,0,0
33301,-50,4,3,1,50,0,0
51830,-400,4,3,1,50,0,0
52125,-50,4,3,1,50,0,0
56536,-400,4,3,1,50,0,0
56830,-50,4,3,1,50,0,0
59477,-33.3333333333333,4,3,1,50,0,0
59772,-50,4,3,1,50,0,0
60360,-25,4,3,1,50,0,0
60654,-50,4,3,1,50,0,0
61242,-100,4,3,1,50,0,0
61536,-40,4,3,1,50,0,0
65948,-400,4,3,1,50,0,0
66242,-50,4,3,1,50,0,0
68889,-33.3333333333333,4,3,1,50,0,0
69183,-50,4,3,1,50,0,0
69772,-25,4,3,1,50,0,0
70066,-50,4,3,1,50,0,0
70948,294.117647058823,15,3,1,50,1,0
75359,294.117647058823,4,3,1,50,1,0
75359,-50,4,3,1,50,0,0
78888,-200,4,3,1,50,0,0
79109,-200,4,3,1,5,0,0
79182,-200,4,3,1,50,0,0
79403,-200,4,3,1,5,0,0
79476,-200,4,3,1,50,0,0
79623,-200,4,3,1,5,0,0
79697,-200,4,3,1,50,0,0
79844,-200,4,3,1,5,0,0
79918,-200,4,3,1,50,0,0
79991,-200,4,3,1,5,0,0
80065,-200,4,3,1,50,0,0
80653,294.117647058823,4,3,1,50,1,0
80653,-50,4,3,1,50,0,0
83594,-200,4,3,1,50,0,0
83814,-200,4,3,1,5,0,0
83888,-200,4,3,1,50,0,0
85358,-50,4,3,1,50,0,0
88300,-200,4,3,1,50,0,0
88520,-200,4,3,1,5,0,0
88594,-200,4,3,1,50,0,0
88814,-200,4,3,1,5,0,0
88888,-200,4,3,1,50,0,0
89035,-200,4,3,1,5,0,0
89109,-200,4,3,1,50,0,0
90064,-40,4,3,1,50,0,0
91828,294.117647058823,4,3,1,50,1,0
150651,294.117647058823,15,3,1,50,1,0
155356,294.117647058823,4,3,1,50,1,0
160650,294.117647058823,4,3,1,50,1,0
171826,294.117647058823,4,3,1,50,1,0

[HitObjects]
86,139,1555,5,0,0:0:0:0:
426,139,1899,1,0,0:0:0:0:
406,234,2071,1,0,0:0:0:0:
86,139,2415,1,0,0:0:0:0:
106,234,2587,1,0,0:0:0:0:
426,245,3103,1,0,0:0:0:0:
86,245,3447,1,0,0:0:0:0:
106,150,3619,1,0,0:0:0:0:
426,245,3963,1,0,0:0:0:0:
406,150,4135,1,0,0:0:0:0:
86,245,4479,1,0,0:0:0:0:
106,150,4651,1,0,0:0:0:0:
256,352,5167,1,0,0:0:0:0:
256,96,5511,1,0,0:0:0:0:
256,192,5684,1,0,0:0:0:0:
448,64,6028,1,0,0:0:0:0:
380,131,6201,1,0,0:0:0:0:
64,64,6544,1,0,0:0:0:0:
132,131,6717,1,0,0:0:0:0:
256,352,7232,1,0,0:0:0:0:
256,32,7748,1,0,0:0:0:0:
163,229,8092,1,0,0:0:0:0:
349,155,8264,1,0,0:0:0:0:
211,142,8608,1,0,0:0:0:0:
301,242,8780,1,0,0:0:0:0:
475,23,9296,1,0,0:0:0:0:
204,225,9684,5,0,0:0:0:0:
176,253,9757,1,0,0:0:0:0:
148,224,9830,1,0,0:0:0:0:
176,196,9904,1,0,0:0:0:0:
204,225,9977,5,0,0:0:0:0:
162,248,10051,1,0,0:0:0:0:
138,207,10124,1,0,0:0:0:0:
180,183,10198,1,0,0:0:0:0:
204,225,10271,5,0,0:0:0:0:
150,240,10344,1,0,0:0:0:0:
136,184,10418,1,0,0:0:0:0:
190,170,10491,1,0,0:0:0:0:
204,225,10565,5,0,0:0:0:0:
140,225,10638,1,0,0:0:0:0:
140,160,10712,1,0,0:0:0:0:
204,160,10785,1,0,0:0:0:0:
204,225,10859,5,0,0:0:0:0:
134,206,10932,1,0,0:0:0:0:
153,136,11005,1,0,0:0:0:0:
222,155,11079,1,0,0:0:0:0:
204,225,11152,5,0,0:0:0:0:
134,184,11226,1,0,0:0:0:0:
174,115,11299,1,0,0:0:0:0:
244,155,11373,1,0,0:0:0:0:
204,225,11446,5,0,0:0:0:0:
141,162,11519,1,0,0:0:0:0:
204,100,11593,1,0,0:0:0:0:
266,162,11666,1,0,0:0:0:0:
204,225,11740,5,0,0:0:0:0:
155,141,11813,1,0,0:0:0:0:
239,93,11887,1,0,0:0:0:0:
287,177,11960,1,0,0:0:0:0:
204,225,12034,1,0,0:0:0:0:
1,297,12346,5,0,0:0:0:0:
1,297,12659,1,0,0:0:0:0:
1,297,12971,1,0,0:0:0:0:
294,73,13284,5,0,0:0:0:0:
94,109,13433,1,0,0:0:0:0:
221,268,13582,1,0,0:0:0:0:
221,268,13657,1,0,0:0:0:0:
221,268,13731,1,0,0:0:0:0:
294,73,13881,1,0,0:0:0:0:
94,109,14030,1,0,0:0:0:0:
94,109,14105,1,0,0:0:0:0:
94,109,14179,1,0,0:0:0:0:
346,168,14328,1,0,0:0:0:0:
180,336,14478,6,0,B|145:281|145:281|58:278,1,120
202,102,14772,2,0,P|225:51|177:15,1,120
417,80,15066,2,0,L|461:197,1,120
283,237,15360,2,0,L|260:359,1,120
80,149,15654,2,0,P|31:147|23:219,1,120
276,142,15948,2,0,B|319:123|319:123|318:40,1,120
420,253,16242,2,0,B|452:322|452:322|503:333,1,120
163,259,16536,2,0,P|110:263|56:216,1,120
313,87,16830,2,0,B|324:2|324:2|334:44,1,120
313,297,17125,2,0,B|324:382|324:382|334:340,1,120
199,87,17419,2,0,B|188:2|188:2|178:44,1,120
199,297,17714,2,0,B|188:382|188:382|178:340,1,120
369,151,18007,2,0,B|454:140|454:140|412:130,1,120
143,233,18301,2,0,B|58:244|58:244|100:254,1,120
378,230,18595,2,0,P|324:198|310:143,1,120
94,122,18889,1,0,0:0:0:0:
354,44,19036,1,0,0:0:0:0:
423,298,19183,6,0,B|399:345|399:345|331:327,1,120
233,168,19477,2,0,P|252:120|239:48,1,120
103,229,19772,2,0,P|43:248|16:306,1,120
13,41,20066,2,0,B|61:19|61:19|134:33,1,120
317,137,20360,2,0,L|370:23,1,120
492,252,20654,2,0,L|509:377,1,120
215,264,20948,2,0,P|174:309|199:357,1,120
394,289,21242,1,0,0:0:0:0:
95,203,21389,1,0,0:0:0:0:
417,91,21536,2,0,P|479:82|489:138,1,120
167,70,21830,1,0,0:0:0:0:
382,293,21977,1,0,0:0:0:0:
48,229,22124,2,0,P|-10:205|9:152,1,120
270,68,22419,1,0,0:0:0:0:
120,317,22566,1,0,0:0:0:0:
84,31,22713,5,0,0:0:0:0:
84,31,23007,2,0,B|96:118|96:118|115:95,1,106.666666666667
84,31,23301,1,0,0:0:0:0:
267,204,23448,1,0,0:0:0:0:
267,204,23522,1,0,0:0:0:0:
267,204,23595,1,0,0:0:0:0:
390,2,23742,1,0,0:0:0:0:
107,189,23889,6,0,L|66:271,1,80
416,200,24183,2,0,P|465:214|481:168,1,80
243,95,24477,2,0,L|213:10,1,80
166,362,24772,2,0,P|128:349|109:382,1,80
406,304,25066,2,0,L|449:373,1,80
158,174,25360,2,0,L|76:133,1,80
388,93,25654,1,0,0:0:0:0:
328,285,25801,1,0,0:0:0:0:
393,43,25948,1,0,0:0:0:0:
384,243,26095,1,0,0:0:0:0:
227,60,26242,6,0,P|236:17|279:8,1,80
257,271,26536,2,0,P|255:314|228:341,1,80
71,195,26830,2,0,L|-2:231,1,80
292,127,27125,2,0,L|365:163,1,80
161,369,27419,2,0,L|166:275,1,80
84,11,27713,2,0,L|112:97,1,80
228,118,28007,1,0,0:0:0:0:
49,155,28154,1,0,0:0:0:0:
284,279,28301,1,0,0:0:0:0:
149,0,28448,1,0,0:0:0:0:
426,38,28595,6,0,P|464:71|466:98,1,80
163,213,28889,2,0,P|117:238|99:271,1,80
459,316,29183,2,0,P|486:273|482:237,1,80
250,82,29477,2,0,P|234:38|245:4,1,80
121,311,29772,2,0,L|155:384,1,80
2,80,30066,2,0,L|35:4,1,80
351,202,30360,1,0,0:0:0:0:
123,143,30507,1,0,0:0:0:0:
380,248,30654,5,0,0:0:0:0:
181,39,30801,1,0,0:0:0:0:
306,304,30948,2,0,L|364:372,1,80
70,183,31242,1,0,0:0:0:0:
346,100,31389,1,0,0:0:0:0:
105,268,31536,2,0,L|20:297,1,80
228,6,31830,1,0,0:0:0:0:
282,367,31977,1,0,0:0:0:0:
270,199,32125,5,0,0:0:0:0:
254,198,32272,1,0,0:0:0:0:
291,185,32419,1,0,0:0:0:0:
254,198,32566,1,0,0:0:0:0:
241,184,32639,1,0,0:0:0:0:
226,198,32713,1,0,0:0:0:0:
206,190,32786,1,0,0:0:0:0:
188,240,32860,1,0,0:0:0:0:
167,229,32933,1,0,0:0:0:0:
154,219,33007,2,0,P|83:106|400:277,1,1343.99995898438
309,341,33301,5,0,0:0:0:0:
235,133,33448,1,0,0:0:0:0:
262,339,33595,1,0,0:0:0:0:
244,118,33742,1,0,0:0:0:0:
67,221,33889,5,0,0:0:0:0:
291,178,34036,1,0,0:0:0:0:
47,209,34183,1,0,0:0:0:0:
271,166,34330,1,0,0:0:0:0:
337,221,34477,5,0,0:0:0:0:
280,18,34625,1,0,0:0:0:0:
391,221,34772,1,0,0:0:0:0:
448,18,34920,1,0,0:0:0:0:
208,65,35066,5,0,0:0:0:0:
446,149,35213,1,0,0:0:0:0:
208,138,35360,1,0,0:0:0:0:
446,222,35507,1,0,0:0:0:0:
295,269,35654,5,0,0:0:0:0:
43,289,35801,1,0,0:0:0:0:
294,328,35948,1,0,0:0:0:0:
42,308,36095,1,0,0:0:0:0:
104,57,36242,5,0,0:0:0:0:
175,246,36389,1,0,0:0:0:0:
216,27,36536,1,0,0:0:0:0:
145,216,36683,1,0,0:0:0:0:
341,144,36830,5,0,0:0:0:0:
34,105,36977,1,0,0:0:0:0:
321,168,37125,1,0,0:0:0:0:
11,155,37272,1,0,0:0:0:0:
221,357,37419,2,0,P|239:279|155:340,1,240
179,359,37713,1,0,0:0:0:0:
200,106,37860,1,0,0:0:0:0:
403,229,38007,6,0,P|427:313|372:369,1,160
319,84,38301,2,0,P|359:33|455:37,1,160
109,229,38595,2,0,P|85:313|140:369,1,160
193,84,38889,2,0,P|153:33|57:37,1,160
380,160,39183,2,0,L|304:319,1,160
275,0,39477,2,0,L|264:169,1,160
36,222,39772,2,0,L|112:63,1,160
193,360,40066,1,0,0:0:0:0:
12,120,40213,1,0,0:0:0:0:
315,141,40360,2,0,P|377:92|374:5,1,160
145,191,40654,2,0,P|79:250|85:348,1,160
418,259,40948,2,0,P|480:308|477:395,1,160
248,209,41242,2,0,P|182:150|188:52,1,160
386,35,41536,2,0,P|486:68|502:124,1,160
306,293,41830,1,0,0:0:0:0:
286,62,41977,1,0,0:0:0:0:
145,199,42125,1,0,0:0:0:0:
374,189,42272,1,0,0:0:0:0:
374,189,42345,1,0,0:0:0:0:
374,189,42419,1,0,0:0:0:0:
47,20,42566,1,0,0:0:0:0:
176,329,42713,5,0,0:0:0:0:
118,112,42860,1,0,0:0:0:0:
335,54,43007,1,0,0:0:0:0:
393,271,43154,1,0,0:0:0:0:
118,271,43301,1,0,0:0:0:0:
176,54,43448,1,0,0:0:0:0:
393,112,43595,1,0,0:0:0:0:
335,329,43742,1,0,0:0:0:0:
245,93,43889,6,0,B|299:16|299:16|385:13,1,160
509,259,44183,2,0,L|482:168,1,80
484,172,44330,1,0,0:0:0:0:
267,291,44477,2,0,B|213:368|213:368|127:371,1,160
3,125,44771,2,0,L|30:216,1,80
29,212,44918,1,0,0:0:0:0:
353,289,45066,5,0,0:0:0:0:
291,58,45213,1,0,0:0:0:0:
122,227,45360,2,0,L|99:270,6,40
448,190,45654,1,0,0:0:0:0:
209,77,45801,1,0,0:0:0:0:
279,323,45948,2,0,L|268:372,6,40
163,303,46242,6,0,P|81:302|18:368,1,160
182,77,46536,2,0,L|207:-3,1,80
205,0,46683,1,0,0:0:0:0:
356,124,46830,2,0,B|359:213|359:213|415:275,1,160
500,288,47051,1,0,0:0:0:0:
500,288,47125,2,0,P|479:329|448:335,1,80
212,259,47272,2,0,P|233:218|215:183,1,80
28,152,47419,5,0,0:0:0:0:
227,35,47566,1,0,0:0:0:0:
441,86,47713,2,0,L|454:128,6,40
53,199,48007,1,0,0:0:0:0:
228,49,48154,1,0,0:0:0:0:
448,62,48301,2,0,L|468:101,6,40
386,181,48595,6,0,B|415:259|415:259|493:289,1,160
308,323,48889,2,0,P|329:350|371:364,1,80
375,352,49036,1,0,0:0:0:0:
181,317,49183,2,0,B|113:268|113:268|104:185,1,160
23,355,49477,2,0,P|2:327|0:283,1,80
12,283,49624,1,0,0:0:0:0:
183,196,49772,5,0,0:0:0:0:
41,67,49919,1,0,0:0:0:0:
314,206,50066,2,0,L|317:249,6,40
333,182,50360,1,0,0:0:0:0:
245,339,50507,1,0,0:0:0:0:
476,126,50654,2,0,L|468:86,6,40
379,33,50948,6,0,B|289:33|289:33|232:91,1,160
26,253,51242,2,0,L|98:294,1,80
104,287,51389,1,0,0:0:0:0:
104,287,51536,5,0,0:0:0:0:
205,236,51610,1,0,0:0:0:0:
184,126,51683,1,0,0:0:0:0:
72,109,51757,1,0,0:0:0:0:
99,1,51830,2,0,L|133:9,1,30
447,45,52125,6,0,L|459:91,1,40
512,291,52272,1,0,0:0:0:0:
353,68,52419,2,0,L|365:114,1,40
420,316,52566,1,0,0:0:0:0:
261,93,52713,2,0,L|273:139,1,40
327,341,52860,1,0,0:0:0:0:
168,119,53007,2,0,L|180:165,1,40
234,366,53154,1,0,0:0:0:0:
0,308,53301,6,0,L|12:261,1,40
66,62,53448,1,0,0:0:0:0:
92,333,53595,2,0,L|104:286,1,40
158,85,53742,1,0,0:0:0:0:
184,358,53889,2,0,L|196:311,1,40
251,110,54036,1,0,0:0:0:0:
278,382,54183,2,0,L|290:335,1,40
344,135,54330,1,0,0:0:0:0:
8,32,54477,6,0,L|54:44,1,40
256,96,54625,1,0,0:0:0:0:
504,69,54772,2,0,L|457:81,1,40
256,133,54919,1,0,0:0:0:0:
8,106,55066,2,0,L|54:118,1,40
256,170,55213,1,0,0:0:0:0:
504,143,55360,2,0,L|457:155,1,40
256,207,55507,1,0,0:0:0:0:
8,352,55654,6,0,L|54:339,1,40
256,288,55801,1,0,0:0:0:0:
504,315,55948,2,0,L|457:302,1,40
256,251,56095,1,0,0:0:0:0:
8,278,56242,2,0,L|54:265,1,40
256,214,56389,2,0,L|302:201,1,40
504,241,56536,2,0,L|488:213,1,30
338,99,56830,6,0,L|291:86,1,40
75,28,56977,1,0,0:0:0:0:
159,236,57125,2,0,L|183:194,1,40
294,0,57272,1,0,0:0:0:0:
268,297,57419,2,0,L|244:255,1,40
132,60,57566,1,0,0:0:0:0:
44,267,57714,2,0,L|90:254,1,40
306,195,57861,1,0,0:0:0:0:
44,267,58007,6,0,L|90:254,1,40
132,60,58154,1,0,0:0:0:0:
268,297,58301,2,0,L|244:255,1,40
294,0,58448,1,0,0:0:0:0:
159,236,58595,2,0,L|183:194,1,40
75,28,58742,1,0,0:0:0:0:
338,99,58889,2,0,L|291:86,1,40
183,339,59036,2,0,L|230:326,1,40
338,99,59183,2,0,L|291:86,1,40
438,384,59477,6,0,B|435:357|446:336|446:336|462:339|462:339|449:320|449:320|442:288|460:257|460:257|478:244|478:244|496:219|489:181|489:181|474:179|474:179|492:166|492:166|515:127|488:78,1,360.000013732911
400,212,59772,6,0,L|383:175,1,40
372,170,59919,1,0,0:0:0:0:
251,311,60066,2,0,L|268:274,1,40
279,269,60213,1,0,0:0:0:0:
189,0,60360,6,0,B|170:26|170:26|157:17|157:17|170:26|170:26|165:52|143:65|143:65|130:56|130:56|143:65|143:65|136:89|115:104|115:104|119:127|119:127|93:108|93:108|97:131|97:131|77:142|69:170|69:170|82:179|82:179|69:170|69:170|47:183|35:206|35:206|46:219|46:219|35:206|35:206|10:221|-1:199,1,480
250,68,60654,6,0,L|262:106,1,40
147,286,60801,1,0,0:0:0:0:
47,66,60948,2,0,L|71:98,1,40
325,108,61095,1,0,0:0:0:0:
325,108,61169,1,0,0:0:0:0:
325,108,61242,2,0,L|321:23,1,80
406,364,61536,6,0,L|432:314,1,50
347,188,61683,1,0,0:0:0:0:
453,298,61830,2,0,L|439:246,1,50
512,122,61977,1,0,0:0:0:0:
308,311,62125,2,0,L|282:262,1,50
367,135,62272,1,0,0:0:0:0:
260,362,62419,2,0,L|284:308,1,50
201,186,62566,1,0,0:0:0:0:
0,382,62713,6,0,L|49:359,1,50
59,206,62860,1,0,0:0:0:0:
155,384,63007,2,0,L|122:339,1,50
96,208,63154,1,0,0:0:0:0:
0,2,63301,2,0,L|48:23,1,50
59,178,63448,1,0,0:0:0:0:
155,0,63595,2,0,L|179:49,1,50
96,176,63742,1,0,0:0:0:0:
301,130,63889,6,0,L|253:153,1,50
125,189,64036,1,0,0:0:0:0:
301,104,64183,2,0,L|352:121,1,50
477,163,64330,1,0,0:0:0:0:
385,329,64477,2,0,L|350:281,1,50
444,153,64624,1,0,0:0:0:0:
214,249,64772,2,0,L|264:217,1,50
390,308,64919,1,0,0:0:0:0:
270,105,65066,6,0,L|257:45,1,50
446,46,65213,1,0,0:0:0:0:
177,91,65360,2,0,L|195:142,1,50
1,150,65507,1,0,0:0:0:0:
256,352,65654,2,0,L|256:298,1,50
256,50,65801,2,0,L|256:1,1,50
256,352,65948,2,0,B|256:336|256:336|256:352,1,30
470,262,66242,6,0,L|430:246,1,40
287,188,66389,1,0,0:0:0:0:
416,200,66536,2,0,L|372:205,1,40
188,221,66683,1,0,0:0:0:0:
346,272,66830,2,0,L|306:255,1,40
109,170,66977,1,0,0:0:0:0:
191,308,67125,2,0,L|179:266,1,40
126,36,67272,1,0,0:0:0:0:
5,288,67419,6,0,L|49:268,1,40
188,214,67566,1,0,0:0:0:0:
74,209,67713,2,0,L|114:224,1,40
288,288,67860,1,0,0:0:0:0:
232,183,68007,2,0,L|257:218,1,40
391,384,68154,1,0,0:0:0:0:
319,97,68301,2,0,L|317:139,1,40
493,210,68448,2,0,L|461:235,1,40
510,2,68595,2,0,P|477:85|419:143,1,160
304,149,68889,6,0,P|223:47|338:117,1,360.000013732911
188,340,69183,6,0,L|170:300,1,40
195,354,69330,1,0,0:0:0:0:
420,233,69477,2,0,L|426:191,1,40
418,248,69625,1,0,0:0:0:0:
189,208,69772,6,0,B|5:189|5:189|93:360|93:360|189:207,1,480
52,166,70066,6,0,L|91:158,1,40
277,126,70213,1,0,0:0:0:0:
210,348,70360,2,0,L|201:306,1,40
159,69,70507,1,0,0:0:0:0:
194,51,70580,1,0,0:0:0:0:
234,51,70654,2,0,P|274:57|310:78,1,80
495,190,70801,2,0,P|454:183|419:163,1,80
234,51,70948,1,0,0:0:0:0:
254,365,74183,5,0,0:0:0:0:
263,347,74256,1,0,0:0:0:0:
267,328,74330,1,0,0:0:0:0:
266,307,74403,1,0,0:0:0:0:
334,264,74477,5,0,0:0:0:0:
330,232,74550,1,0,0:0:0:0:
319,201,74624,1,0,0:0:0:0:
298,175,74698,1,0,0:0:0:0:
361,126,74771,1,0,0:0:0:0:
334,90,74845,1,0,0:0:0:0:
300,61,74918,1,0,0:0:0:0:
256,48,74992,1,0,0:0:0:0:
256,128,75065,1,0,0:0:0:0:
47,268,75359,6,0,B|62:166|62:166|22:106,1,160
319,337,75653,2,0,B|224:366|224:366|159:345,1,160
347,63,75947,2,0,P|241:129|255:246,1,240
310,277,76241,2,0,B|294:185|294:185|244:233,1,160
498,76,76535,1,0,0:0:0:0:
353,324,76682,1,0,0:0:0:0:
304,119,76829,1,0,0:0:0:0:
512,277,76976,1,0,0:0:0:0:
226,187,77123,6,0,P|120:178|85:293,1,240
259,371,77417,1,0,0:0:0:0:
26,320,77564,1,0,0:0:0:0:
94,73,77711,2,0,P|139:144|163:225,2,160
295,21,78153,1,0,0:0:0:0:
339,285,78300,2,0,L|386:130,1,160
512,331,78594,2,0,B|455:379|455:379|361:372,1,160
465,168,78888,6,0,L|446:106,1,60
256,105,79182,2,0,L|270:44,1,60
88,167,79476,2,0,L|70:113,1,40
70,113,79697,1,0,0:0:0:0:
65,95,79770,2,0,L|74:65,1,20
177,150,79917,2,0,L|168:120,1,20
48,201,80064,1,0,0:0:0:0:
48,201,80138,1,0,0:0:0:0:
48,201,80211,1,0,0:0:0:0:
48,201,80358,1,0,0:0:0:0:
48,201,80506,1,0,0:0:0:0:
48,201,80653,6,0,B|127:267|127:267|267:228,1,240
326,112,80947,2,0,P|256:164|263:238,1,160
485,354,81241,1,0,0:0:0:0:
320,166,81388,1,0,0:0:0:0:
488,248,81535,1,0,0:0:0:0:
479,44,81682,1,0,0:0:0:0:
299,59,81829,6,0,P|196:97|92:31,1,240
45,211,82123,1,0,0:0:0:0:
222,4,82270,1,0,0:0:0:0:
263,247,82417,2,0,P|344:290|352:366,2,160
174,371,82858,1,0,0:0:0:0:
434,200,83005,2,0,B|356:171|356:171|263:182,1,160
26,344,83300,2,0,B|0:253|0:253|17:173,1,160
163,91,83594,6,0,P|141:67|138:41,1,60
326,59,83888,2,0,P|339:36|336:11,1,40
268,211,84182,1,0,0:0:0:0:
292,242,84255,1,0,0:0:0:0:
329,255,84329,1,0,0:0:0:0:
369,255,84403,1,0,0:0:0:0:
404,238,84476,1,0,0:0:0:0:
226,368,84623,1,0,0:0:0:0:
164,184,84770,1,0,0:0:0:0:
164,184,84917,1,0,0:0:0:0:
156,193,85064,1,0,0:0:0:0:
175,188,85138,1,0,0:0:0:0:
162,173,85211,1,0,0:0:0:0:
168,196,85285,1,0,0:0:0:0:
151,185,85358,6,0,P|115:126|214:10,1,240
339,32,85652,2,0,B|266:65|266:65|209:10,1,160
365,195,85947,1,0,0:0:0:0:
141,162,86094,1,0,0:0:0:0:
161,353,86241,1,0,0:0:0:0:
40,138,86388,1,0,0:0:0:0:
0,349,86535,6,0,P|63:298|219:318,1,240
299,380,86829,1,0,0:0:0:0:
384,178,86976,1,0,0:0:0:0:
188,178,87123,2,0,P|164:97|123:27,2,160
344,63,87564,1,0,0:0:0:0:
468,193,87711,2,0,B|481:277|481:277|510:346,1,160
239,289,88005,2,0,B|336:254|336:254|410:251,1,160
0,304,88300,6,0,L|55:279,1,60
53,279,88594,2,0,L|77:223,1,60
77,225,88888,2,0,L|125:204,1,40
113,208,89108,1,0,0:0:0:0:
113,208,89182,1,0,0:0:0:0:
228,159,89329,1,0,0:0:0:0:
123,36,89476,1,0,0:0:0:0:
123,36,89550,1,0,0:0:0:0:
123,36,89623,1,0,0:0:0:0:
123,36,89770,1,0,0:0:0:0:
123,36,89917,1,0,0:0:0:0:
123,36,90064,6,0,B|215:38|264:86|264:86|316:29|403:7,1,300
424,201,90358,2,0,B|381:110|381:110|388:5,1,200
172,219,90652,1,0,0:0:0:0:
472,141,90800,1,0,0:0:0:0:
331,368,90947,1,0,0:0:0:0:
264,86,91094,1,0,0:0:0:0:
210,290,91241,2,0,B|126:342|126:342|17:321,1,200
124,81,91535,1,0,0:0:0:0:
0,308,91682,1,0,0:0:0:0:
457,240,91828,5,0,0:0:0:0:
448,184,91975,1,0,0:0:0:0:
440,180,92122,1,0,0:0:0:0:
375,233,92269,5,0,0:0:0:0:
391,221,92342,1,0,0:0:0:0:
440,180,92416,1,0,0:0:0:0:
375,233,92563,5,0,0:0:0:0:
391,221,92636,1,0,0:0:0:0:
376,183,92710,1,0,0:0:0:0:
392,171,92857,5,0,0:0:0:0:
376,183,92930,1,0,0:0:0:0:
307,159,93004,1,0,0:0:0:0:
