osu file format v14

[General]
AudioFilename: Marc-Edouard- Extraordinary (clip vido).mp3
AudioLeadIn: 0
PreviewTime: -1
Countdown: 1
SampleSet: None
StackLeniency: 0.7
Mode: 3
LetterboxInBreaks: 0
SpecialStyle: 0
WidescreenStoryboard: 0

[Editor]
DistanceSpacing: 1.1
BeatDivisor: 4
GridSize: 4
TimelineZoom: 0.3

[Metadata]
Title:Extraordinary (baby cover)
TitleUnicode:Extraordinary (baby cover)
Artist:Marc-Edouard
ArtistUnicode:Marc-Edouard
Creator:Yami Le Lama
Version:hard to clear with the sound
Source:l'internet
Tags:ex tra or dit na riz
BeatmapID:888565
BeatmapSetID:409314

[Difficulty]
HPDrainRate:5
CircleSize:1
OverallDifficulty:5
ApproachRate:5
SliderMultiplier:1.4
SliderTickRate:1

[Events]
//Background and Video events
0,0,"maxresdefault.jpg",0,0
//Break Periods
//Storyboard Layer 0 (Background)
//Storyboard Layer 1 (Fail)
//Storyboard Layer 2 (Pass)
//Storyboard Layer 3 (Foreground)
//Storyboard Sound Samples

[TimingPoints]
0,500,4,1,0,0,1,0

[HitObjects]
256,192,12000,5,0,0:0:0:0:
256,192,13375,1,0,0:0:0:0:
256,192,13625,1,0,0:0:0:0:
256,192,15625,1,0,0:0:0:0:
256,192,16125,1,0,0:0:0:0:
256,192,16625,1,0,0:0:0:0:
256,192,17125,1,0,0:0:0:0:
256,192,17625,1,0,0:0:0:0:
256,192,18125,1,0,0:0:0:0:
256,192,18625,1,0,0:0:0:0:
256,192,19125,1,0,0:0:0:0:
256,192,19625,1,0,0:0:0:0:
256,192,20125,1,0,0:0:0:0:
256,192,20625,1,0,0:0:0:0:
256,192,21125,1,0,0:0:0:0:
256,192,21625,1,0,0:0:0:0:
256,192,22125,1,0,0:0:0:0:
256,192,22625,1,0,0:0:0:0:
256,192,23125,1,0,0:0:0:0:
256,192,23625,1,0,0:0:0:0:
256,192,24125,1,0,0:0:0:0:
256,192,24625,1,0,0:0:0:0:
256,192,25125,1,0,0:0:0:0:
256,192,25625,1,0,0:0:0:0:
256,192,26125,1,0,0:0:0:0:
256,192,26625,1,0,0:0:0:0:
256,192,27125,1,0,0:0:0:0:
256,192,27625,1,0,0:0:0:0:
256,192,28125,1,0,0:0:0:0:
256,192,28625,1,0,0:0:0:0:
256,192,29125,1,0,0:0:0:0:
256,192,29625,1,0,0:0:0:0:
256,192,30125,1,0,0:0:0:0:
256,192,30625,1,0,0:0:0:0:
256,192,31125,1,0,0:0:0:0:
256,192,31625,1,0,0:0:0:0:
256,192,32125,1,0,0:0:0:0:
256,192,32625,1,0,0:0:0:0:
256,192,33125,1,0,0:0:0:0:
256,192,33625,1,0,0:0:0:0:
256,192,34125,1,0,0:0:0:0:
256,192,34625,1,0,0:0:0:0:
256,192,35125,1,0,0:0:0:0:
256,192,35625,1,0,0:0:0:0:
256,192,36125,1,0,0:0:0:0:
256,192,36625,1,0,0:0:0:0:
256,192,37125,1,0,0:0:0:0:
256,192,37625,1,0,0:0:0:0:
256,192,38125,1,0,0:0:0:0:
256,192,38625,1,0,0:0:0:0:
256,192,39125,1,0,0:0:0:0:
256,192,39625,1,0,0:0:0:0:
256,192,40125,1,0,0:0:0:0:
256,192,40625,1,0,0:0:0:0:
256,192,41125,1,0,0:0:0:0:
256,192,41625,1,0,0:0:0:0:
256,192,42125,1,0,0:0:0:0:
256,192,42625,1,0,0:0:0:0:
256,192,43125,1,0,0:0:0:0:
256,192,43750,1,0,0:0:0:0:
256,192,44250,1,0,0:0:0:0:
256,192,44750,1,0,0:0:0:0:
256,192,45250,1,0,0:0:0:0:
256,192,45750,1,0,0:0:0:0:
256,192,46250,1,0,0:0:0:0:
256,192,46750,1,0,0:0:0:0:
256,192,47250,1,0,0:0:0:0:
256,192,47750,1,0,0:0:0:0:
256,192,48250,1,0,0:0:0:0:
256,192,48750,1,0,0:0:0:0:
256,192,49250,1,0,0:0:0:0:
256,192,49750,1,0,0:0:0:0:
256,192,50250,1,0,0:0:0:0:
256,192,50750,1,0,0:0:0:0:
256,192,51250,1,0,0:0:0:0:
256,192,51750,1,0,0:0:0:0:
256,192,52250,1,0,0:0:0:0:
256,192,52750,1,0,0:0:0:0:
256,192,53250,1,0,0:0:0:0:
256,192,53750,1,0,0:0:0:0:
256,192,54250,1,0,0:0:0:0:
256,192,54750,1,0,0:0:0:0:
256,192,55250,1,0,0:0:0:0:
256,192,55750,1,0,0:0:0:0:
256,192,56250,1,0,0:0:0:0:
256,192,56750,1,0,0:0:0:0:
256,192,57250,1,0,0:0:0:0:
256,192,57875,1,0,0:0:0:0:
256,192,58375,1,0,0:0:0:0:
256,192,58875,1,0,0:0:0:0:
256,192,59375,1,0,0:0:0:0:
256,192,59875,1,0,0:0:0:0:
256,192,60375,1,0,0:0:0:0:
256,192,60875,1,0,0:0:0:0:
256,192,61375,1,0,0:0:0:0:
256,192,61875,1,0,0:0:0:0:
256,192,62375,1,0,0:0:0:0:
256,192,62875,1,0,0:0:0:0:
256,192,63375,1,0,0:0:0:0:
256,192,63875,1,0,0:0:0:0:
256,192,64375,1,0,0:0:0:0:
256,192,64875,1,0,0:0:0:0:
256,192,65375,1,0,0:0:0:0:
256,192,65875,1,0,0:0:0:0:
256,192,66375,1,0,0:0:0:0:
256,192,66875,1,0,0:0:0:0:
256,192,67375,1,0,0:0:0:0:
256,192,67875,1,0,0:0:0:0:
256,192,68375,1,0,0:0:0:0:
256,192,68875,1,0,0:0:0:0:
256,192,69375,1,0,0:0:0:0:
256,192,69875,1,0,0:0:0:0:
256,192,70375,1,0,0:0:0:0:
256,192,70875,1,0,0:0:0:0:
256,192,71375,1,0,0:0:0:0:
256,192,71875,1,0,0:0:0:0:
256,192,72375,1,0,0:0:0:0:
256,192,72875,1,0,0:0:0:0:
256,192,73375,1,0,0:0:0:0:
256,192,73875,1,0,0:0:0:0:
256,192,74375,1,0,0:0:0:0:
256,192,74875,1,0,0:0:0:0:
256,192,75375,1,0,0:0:0:0:
256,192,75875,1,0,0:0:0:0:
256,192,76375,1,0,0:0:0:0:
256,192,76875,1,0,0:0:0:0:
256,192,77375,1,0,0:0:0:0:
256,192,77875,1,0,0:0:0:0:
256,192,78375,1,0,0:0:0:0:
256,192,78875,1,0,0:0:0:0:
256,192,79375,1,0,0:0:0:0:
256,192,79875,1,0,0:0:0:0:
256,192,80375,1,0,0:0:0:0:
256,192,80875,1,0,0:0:0:0:
256,192,81375,1,0,0:0:0:0:
256,192,81875,1,0,0:0:0:0:
256,192,82375,1,0,0:0:0:0:
256,192,82875,1,0,0:0:0:0:
256,192,83375,1,0,0:0:0:0:
256,192,83875,1,0,0:0:0:0:
256,192,84375,1,0,0:0:0:0:
256,192,84875,1,0,0:0:0:0:
256,192,85375,1,0,0:0:0:0:
256,192,85875,1,0,0:0:0:0:
256,192,86375,1,0,0:0:0:0:
256,192,86875,1,0,0:0:0:0:
256,192,87375,1,0,0:0:0:0:
256,192,87875,1,0,0:0:0:0:
256,192,88375,1,0,0:0:0:0:
256,192,88875,1,0,0:0:0:0:
256,192,89375,1,0,0:0:0:0:
256,192,89875,1,0,0:0:0:0:
256,192,90375,1,0,0:0:0:0:
256,192,90875,1,0,0:0:0:0:
256,192,91375,1,0,0:0:0:0:
256,192,91875,1,0,0:0:0:0:
256,192,92375,1,0,0:0:0:0:
256,192,92875,1,0,0:0:0:0:
256,192,93375,1,0,0:0:0:0:
256,192,93875,1,0,0:0:0:0:
256,192,94375,1,0,0:0:0:0:
256,192,94875,1,0,0:0:0:0:
256,192,95375,1,0,0:0:0:0:
256,192,95875,1,0,0:0:0:0:
256,192,96375,1,0,0:0:0:0:
256,192,96875,1,0,0:0:0:0:
256,192,97375,1,0,0:0:0:0:
256,192,97875,1,0,0:0:0:0:
256,192,98375,1,0,0:0:0:0:
256,192,98875,1,0,0:0:0:0:
256,192,99375,1,0,0:0:0:0:
256,192,99875,1,0,0:0:0:0:
256,192,100375,1,0,0:0:0:0:
256,192,100875,1,0,0:0:0:0:
256,192,101375,1,0,0:0:0:0:
256,192,101875,1,0,0:0:0:0:
256,192,102375,1,0,0:0:0:0:
256,192,102875,1,0,0:0:0:0:
256,192,103375,1,0,0:0:0:0:
256,192,103875,1,0,0:0:0:0:
256,192,104375,1,0,0:0:0:0:
256,192,104875,1,0,0:0:0:0:
256,192,105375,1,0,0:0:0:0:
256,192,105875,1,0,0:0:0:0:
256,192,106375,1,0,0:0:0:0:
256,192,106875,1,0,0:0:0:0:
256,192,107375,1,0,0:0:0:0:
256,192,107875,1,0,0:0:0:0:
256,192,108375,1,0,0:0:0:0:
256,192,108875,1,0,0:0:0:0:
256,192,109375,1,0,0:0:0:0:
256,192,109875,1,0,0:0:0:0:
256,192,110375,1,0,0:0:0:0:
256,192,110875,1,0,0:0:0:0:
256,192,111375,1,0,0:0:0:0:
256,192,111875,1,0,0:0:0:0:
256,192,112375,1,0,0:0:0:0:
256,192,112875,1,0,0:0:0:0:
256,192,113375,1,0,0:0:0:0:
256,192,113875,1,0,0:0:0:0:
256,192,114375,1,0,0:0:0:0:
256,192,114875,1,0,0:0:0:0:
256,192,115375,1,0,0:0:0:0:
256,192,115875,1,0,0:0:0:0:
256,192,116375,1,0,0:0:0:0:
256,192,116875,1,0,0:0:0:0:
256,192,117375,1,0,0:0:0:0:
256,192,117875,1,0,0:0:0:0:
256,192,118375,1,0,0:0:0:0:
256,192,118875,1,0,0:0:0:0:
256,192,119375,1,0,0:0:0:0:
256,192,119875,1,0,0:0:0:0:
256,192,120375,1,0,0:0:0:0:
256,192,120875,1,0,0:0:0:0:
256,192,121375,1,0,0:0:0:0:
256,192,121875,1,0,0:0:0:0:
256,192,122375,1,0,0:0:0:0:
256,192,122875,1,0,0:0:0:0:
256,192,123375,1,0,0:0:0:0:
256,192,123875,1,0,0:0:0:0:
256,192,124375,1,0,0:0:0:0:
256,192,124875,1,0,0:0:0:0:
256,192,125375,1,0,0:0:0:0:
256,192,125875,1,0,0:0:0:0:
256,192,126375,1,0,0:0:0:0:
256,192,126875,1,0,0:0:0:0:
256,192,127375,1,0,0:0:0:0:
256,192,127875,1,0,0:0:0:0:
256,192,128375,1,0,0:0:0:0:
256,192,128875,1,0,0:0:0:0:
256,192,129375,1,0,0:0:0:0:
256,192,129875,1,0,0:0:0:0:
256,192,130375,1,0,0:0:0:0:
256,192,130875,1,0,0:0:0:0:
256,192,131375,1,0,0:0:0:0:
256,192,131875,1,0,0:0:0:0:
256,192,132375,1,0,0:0:0:0:
256,192,132875,1,0,0:0:0:0:
256,192,133375,1,0,0:0:0:0:
256,192,133875,1,0,0:0:0:0:
256,192,134375,1,0,0:0:0:0:
256,192,134875,1,0,0:0:0:0:
256,192,135375,1,0,0:0:0:0:
256,192,135875,1,0,0:0:0:0:
256,192,136375,1,0,0:0:0:0:
256,192,136875,1,0,0:0:0:0:
256,192,137375,1,0,0:0:0:0:
256,192,137875,1,0,0:0:0:0:
256,192,138375,1,0,0:0:0:0:
256,192,138875,1,0,0:0:0:0:
256,192,139375,1,0,0:0:0:0:
256,192,139875,1,0,0:0:0:0:
256,192,140375,1,0,0:0:0:0:
256,192,140875,1,0,0:0:0:0:
256,192,141375,1,0,0:0:0:0:
256,192,141875,1,0,0:0:0:0:
256,192,142375,1,0,0:0:0:0:
256,192,142875,1,0,0:0:0:0:
256,192,143375,1,0,0:0:0:0:
256,192,143875,1,0,0:0:0:0:
256,192,144375,1,0,0:0:0:0:
256,192,144875,1,0,0:0:0:0:
256,192,145375,1,0,0:0:0:0:
256,192,145875,1,0,0:0:0:0:
256,192,146375,1,0,0:0:0:0:
256,192,146875,1,0,0:0:0:0:
256,192,147375,1,0,0:0:0:0:
256,192,147875,1,0,0:0:0:0:
256,192,148375,1,0,0:0:0:0:
256,192,148875,1,0,0:0:0:0:
256,192,149375,1,0,0:0:0:0:
256,192,149875,1,0,0:0:0:0:
256,192,150375,1,0,0:0:0:0:
256,192,150875,1,0,0:0:0:0:
256,192,151375,1,0,0:0:0:0:
256,192,151875,1,0,0:0:0:0:
256,192,152375,1,0,0:0:0:0:
256,192,152875,1,0,0:0:0:0:
256,192,153375,1,0,0:0:0:0:
256,192,153875,1,0,0:0:0:0:
256,192,154375,1,0,0:0:0:0:
256,192,154875,1,0,0:0:0:0:
256,192,155375,1,0,0:0:0:0:
256,192,155875,1,0,0:0:0:0:
256,192,156375,1,0,0:0:0:0:
256,192,156875,1,0,0:0:0:0:
256,192,157375,1,0,0:0:0:0:
256,192,157875,1,0,0:0:0:0:
256,192,158375,1,0,0:0:0:0:
256,192,158875,1,0,0:0:0:0:
256,192,159375,1,0,0:0:0:0:
256,192,159875,1,0,0:0:0:0:
256,192,160375,1,0,0:0:0:0:
256,192,160875,1,0,0:0:0:0:
256,192,161375,1,0,0:0:0:0:
256,192,161875,1,0,0:0:0:0:
256,192,162375,1,0,0:0:0:0:
256,192,162875,1,0,0:0:0:0:
256,192,163375,1,0,0:0:0:0:
256,192,163875,1,0,0:0:0:0:
256,192,164375,1,0,0:0:0:0:
256,192,164875,1,0,0:0:0:0:
256,192,165375,1,0,0:0:0:0:
256,192,165875,1,0,0:0:0:0:
256,192,166375,1,0,0:0:0:0:
256,192,166875,1,0,0:0:0:0:
256,192,167375,1,0,0:0:0:0:
256,192,167875,1,0,0:0:0:0:
256,192,168375,1,0,0:0:0:0:
256,192,168875,1,0,0:0:0:0:
256,192,169375,1,0,0:0:0:0:
256,192,169875,1,0,0:0:0:0:
256,192,170375,1,0,0:0:0:0:
256,192,170875,1,0,0:0:0:0:
256,192,171375,1,0,0:0:0:0:
256,192,171875,1,0,0:0:0:0:
256,192,172375,1,0,0:0:0:0:
256,192,172875,1,0,0:0:0:0:
256,192,173375,1,0,0:0:0:0:
256,192,173875,1,0,0:0:0:0:
256,192,174375,1,0,0:0:0:0:
256,192,174875,1,0,0:0:0:0:
256,192,175375,1,0,0:0:0:0:
256,192,175875,1,0,0:0:0:0:
256,192,176375,1,0,0:0:0:0:
256,192,176875,1,0,0:0:0:0:
256,192,177375,1,0,0:0:0:0:
256,192,177875,1,0,0:0:0:0:
256,192,178375,1,0,0:0:0:0:
256,192,178875,1,0,0:0:0:0:
256,192,179375,1,0,0:0:0:0:
256,192,179875,1,0,0:0:0:0:
256,192,180375,1,0,0:0:0:0:
256,192,180875,1,0,0:0:0:0:
256,192,181375,1,0,0:0:0:0:
256,192,181875,1,0,0:0:0:0:
256,192,182375,1,0,0:0:0:0:
256,192,182875,1,0,0:0:0:0:
256,192,183375,1,0,0:0:0:0:
256,192,183875,1,0,0:0:0:0:
256,192,184375,1,0,0:0:0:0:
256,192,184875,1,0,0:0:0:0:
256,192,185375,1,0,0:0:0:0:
256,192,185875,1,0,0:0:0:0:
256,192,186375,1,0,0:0:0:0:
256,192,186875,1,0,0:0:0:0:
256,192,187375,1,0,0:0:0:0:
256,192,187875,1,0,0:0:0:0:
256,192,188375,1,0,0:0:0:0:
256,192,188875,1,0,0:0:0:0:
256,192,189375,1,0,0:0:0:0:
256,192,189875,1,0,0:0:0:0:
256,192,190375,1,0,0:0:0:0:
256,192,190875,1,0,0:0:0:0:
256,192,191375,1,0,0:0:0:0:
256,192,191875,1,0,0:0:0:0:
256,192,192375,1,0,0:0:0:0:
256,192,192875,1,0,0:0:0:0:
256,192,193375,1,0,0:0:0:0:
256,192,193875,1,0,0:0:0:0:
256,192,194375,1,0,0:0:0:0:
256,192,194875,1,0,0:0:0:0:
256,192,195375,1,0,0:0:0:0:
256,192,195875,1,0,0:0:0:0:
256,192,196375,1,0,0:0:0:0:
256,192,196875,1,0,0:0:0:0:
256,192,197375,1,0,0:0:0:0:
256,192,197875,1,0,0:0:0:0:
256,192,198375,1,0,0:0:0:0:
256,192,198875,1,0,0:0:0:0:
256,192,199375,1,0,0:0:0:0:
256,192,199875,1,0,0:0:0:0:
256,192,200375,1,0,0:0:0:0:
256,192,200875,1,0,0:0:0:0:
256,192,201375,1,0,0:0:0:0:
256,192,201875,1,0,0:0:0:0:
256,192,202375,1,0,0:0:0:0:
256,192,202875,1,0,0:0:0:0:
256,192,203375,1,0,0:0:0:0:
256,192,203875,1,0,0:0:0:0:
256,192,204375,1,0,0:0:0:0:
256,192,204875,1,0,0:0:0:0:
256,192,205375,1,0,0:0:0:0:
256,192,205875,1,0,0:0:0:0:
256,192,206375,1,0,0:0:0:0:
256,192,206875,1,0,0:0:0:0:
256,192,207375,1,0,0:0:0:0:
256,192,207875,1,0,0:0:0:0:
256,192,208375,1,0,0:0:0:0:
256,192,208875,1,0,0:0:0:0:
256,192,209375,1,0,0:0:0:0:
256,192,209875,1,0,0:0:0:0:
