osu file format v14

[General]
AudioFilename: audio.mp3
AudioLeadIn: 0
PreviewTime: 6146
Countdown: 0
SampleSet: Soft
StackLeniency: 0.2
Mode: 2
LetterboxInBreaks: 0
WidescreenStoryboard: 1

[Editor]
DistanceSpacing: 1
BeatDivisor: 4
GridSize: 16
TimelineZoom: 1.6

[Metadata]
Title:Circus Galop (Cut Ver.)
TitleUnicode:Circus Galop (Cut Ver.)
Artist:Marc-Andre Hamelin
ArtistUnicode:Marc-André Hamelin
Creator:fayew
Version:Platter
Source:
Tags:classical instrumental piano apo11o apollo moonpoint skill issue lol
BeatmapID:3995974
BeatmapSetID:1933753

[Difficulty]
HPDrainRate:4
CircleSize:3.2
OverallDifficulty:8
ApproachRate:8
SliderMultiplier:1.64
SliderTickRate:1

[Events]
//Background and Video events
0,0,"Circus Galop.jpg",0,0
//Break Periods
//Storyboard Layer 0 (Background)
//Storyboard Layer 1 (Fail)
//Storyboard Layer 2 (Pass)
//Storyboard Layer 3 (Foreground)
//Storyboard Layer 4 (Overlay)
//Storyboard Sound Samples

[TimingPoints]
1146,333.333333333333,4,2,1,60,1,0
1313,333.333333333333,4,2,1,60,1,0
5430,-100,4,2,1,60,0,0
5437,-100,4,2,1,60,0,0
5478,-100,4,2,1,5,0,0
6312,-100,4,2,1,5,0,0
6479,-100,4,2,1,60,0,0
6646,-100,4,2,1,60,0,0
16979,-66.6666666666667,4,2,1,60,0,0
17646,333.333333333333,4,2,1,60,1,0
27979,333.333333333333,4,2,1,60,1,0
30645,-100,4,2,1,60,0,1
33312,-100,4,2,1,60,0,0
36479,333.333333333333,4,2,1,60,1,0
44478,333.333333333333,4,2,1,60,1,1
47144,-100,4,2,1,60,0,0
49977,333.333333333333,4,2,1,60,1,0
65310,-100,4,2,1,60,0,0
68142,333.333333333333,4,2,1,60,1,0
69228,333.333333333333,4,2,1,60,1,0
69228,-80,4,2,1,60,0,1
75811,333.333333333333,4,2,1,60,1,0
75811,-80,4,2,1,60,0,1
78477,-100,4,2,1,60,0,0
84479,331.491712707182,4,2,1,60,1,0
86466,331.491712707182,4,2,1,60,1,0
87791,331.491712707182,4,2,1,60,1,0
122266,-100,4,2,1,60,0,0
124255,342.857142857143,4,2,1,60,1,0

[Colours]
Combo1 : 206,198,206
Combo2 : 148,148,148
Combo3 : 156,141,156
Combo4 : 206,198,198

[HitObjects]
376,192,1146,6,0,L|440:192,2,41,0|0|2,0:0|0:0|0:0,0:0:0:0:
136,192,1812,2,0,L|72:192,2,41,0|0|2,0:0|0:0|0:0,0:0:0:0:
384,192,2479,1,0,0:0:0:0:
240,192,2646,6,0,L|144:192,1,82,2|0,0:0|0:0,0:0:0:0:
158,192,2979,2,0,L|240:192,1,82,2|2,0:0|0:0,0:0:0:0:
408,160,3312,2,0,L|312:160,1,82,2|2,0:0|0:0,0:0:0:0:
240,160,3646,2,0,L|144:160,1,82,2|2,0:0|0:0,0:0:0:0:
464,192,3979,5,2,0:0:0:0:
281,302,4396,1,4,3:2:0:0:
241,291,4479,1,0,3:0:0:0:
212,263,4562,1,0,3:0:0:0:
200,224,4645,1,0,3:2:0:0:
209,185,4729,1,0,3:0:0:0:
235,154,4812,1,0,3:0:0:0:
273,140,4895,1,0,3:2:0:0:
329,142,4979,1,0,3:0:0:0:
370,142,5062,1,0,3:0:0:0:
411,142,5145,1,0,3:2:0:0:
160,192,5312,5,2,3:2:0:0:
160,192,6479,1,2,0:0:0:0:
416,192,6646,6,0,P|436:130|361:68,1,164,2|8,0:0|0:0,0:0:0:0:
176,288,7312,2,0,L|288:288,1,82,2|2,0:0|0:0,0:0:0:0:
352,288,7646,1,10,0:0:0:0:
64,224,7979,6,0,L|64:112,1,82,0|2,0:0|0:0,0:0:0:0:
160,112,8312,1,10,0:0:0:0:
336,128,8646,5,2,0:0:0:0:
372,144,8729,1,0,0:0:0:0:
389,180,8812,1,2,0:0:0:0:
377,218,8896,1,0,0:0:0:0:
342,239,8979,1,8,0:0:0:0:
256,240,9146,1,2,0:0:0:0:
448,288,9312,6,0,P|448:272|352:176,1,164,2|8,3:2|0:0,0:0:0:0:
272,176,9812,1,0,3:0:0:0:
144,128,9979,2,0,L|320:128,1,164,2|10,3:2|0:2,0:0:0:0:
416,128,10479,1,0,0:0:0:0:
176,288,10646,5,4,3:2:0:0:
136,279,10729,1,0,3:0:0:0:
115,246,10812,1,0,3:0:0:0:
124,207,10896,1,0,3:0:0:0:
157,186,10979,1,0,3:0:0:0:
256,176,11146,1,0,3:0:0:0:
448,144,11312,6,0,L|489:144,4,41,0|0|0|0|0,3:0|3:0|3:0|3:0|3:0,0:0:0:0:
352,128,11812,1,2,0:0:0:0:
64,144,11979,6,0,P|16:176|80:240,1,164,2|8,0:0|0:0,0:0:0:0:
240,256,12646,2,0,L|128:256,1,82,2|2,0:0|0:0,0:0:0:0:
160,208,12979,1,10,0:0:0:0:
448,256,13312,6,0,L|448:144,1,82,2|2,0:0|0:0,0:0:0:0:
368,144,13646,2,0,L|464:144,1,82,10|2,0:0|0:0,0:0:0:0:
208,80,13979,2,0,L|112:80,1,82,2|2,3:2|0:0,0:0:0:0:
32,80,14312,1,10,0:0:0:0:
336,288,14646,5,4,0:0:0:0:
368,272,14729,1,0,0:0:0:0:
386,234,14812,1,2,0:0:0:0:
367,199,14896,1,0,0:0:0:0:
328,189,14979,1,8,0:0:0:0:
208,192,15146,1,2,0:0:0:0:
320,112,15312,6,0,L|432:112,1,82,4|2,0:0|0:0,0:0:0:0:
288,192,15646,2,0,L|176:192,1,82,8|2,0:0|0:0,0:0:0:0:
473,296,15979,5,4,0:0:0:0:
466,255,16062,1,0,0:0:0:0:
448,218,16145,1,2,0:0:0:0:
420,189,16229,1,0,0:0:0:0:
385,169,16312,1,8,0:0:0:0:
345,161,16395,1,0,0:0:0:0:
304,165,16479,1,2,0:0:0:0:
205,222,16646,2,0,L|123:222,1,82,2|0,0:0|0:0,0:0:0:0:
464,336,16979,6,0,B|463:222|463:222|361:146|361:146|512:144,1,369.000014076233,4|0,3:2|3:2,0:0:0:0:
240,128,17646,6,0,L|144:128,1,82,2|0,3:2|0:0,0:0:0:0:
256,208,17979,2,0,L|368:208,1,82,8|0,0:0|0:0,0:0:0:0:
176,304,18312,2,0,L|176:192,1,82,2|2,0:0|0:0,0:0:0:0:
272,192,18646,1,10,0:0:0:0:
48,192,18979,5,0,0:0:0:0:
160,192,19146,2,0,L|208:96,1,82,2|10,0:0|0:0,0:0:0:0:
448,192,19645,5,2,0:0:0:0:
483,173,19728,1,0,0:0:0:0:
499,136,19811,1,2,0:0:0:0:
487,96,19894,1,0,0:0:0:0:
455,75,19978,1,8,0:0:0:0:
376,72,20145,1,2,0:0:0:0:
208,208,20312,6,0,L|112:208,1,82,2|0,3:2|0:0,0:0:0:0:
126,208,20645,1,8,0:0:0:0:
232,208,20812,1,2,0:0:0:0:
408,272,20979,6,0,L|504:272,1,82,2|0,3:2|0:0,0:0:0:0:
490,272,21312,1,8,0:0:0:0:
408,272,21479,1,2,3:2:0:0:
152,272,21645,6,0,L|184:224,6,41,4|0|0|0|0|0|0,3:2|3:2|3:2|3:2|3:2|3:2|3:2,0:0:0:0:
188,281,22312,1,0,3:2:0:0:
227,273,22395,1,0,3:2:0:0:
246,238,22478,1,0,3:2:0:0:
230,202,22561,1,0,3:2:0:0:
192,192,22645,1,2,3:2:0:0:
72,192,22812,1,2,0:0:0:0:
320,192,22979,6,0,L|432:192,1,82,2|0,0:0|0:0,0:0:0:0:
402,192,23312,2,0,L|320:192,1,82,8|0,0:0|0:0,0:0:0:0:
143,193,23645,2,0,L|47:193,2,82,2|2|10,0:0|0:0|0:0,0:0:0:0:
320,288,24312,5,2,0:0:0:0:
361,288,24395,1,0,0:0:0:0:
391,262,24478,1,2,0:0:0:0:
397,222,24561,1,0,0:0:0:0:
374,189,24645,1,10,0:0:0:0:
336,178,24728,1,0,0:0:0:0:
288,176,24812,2,0,L|192:176,1,82,2|2,0:0|3:2,0:0:0:0:
110,128,25145,1,2,0:0:0:0:
110,128,25312,2,0,L|222:128,1,82,10|0,0:0|0:0,0:0:0:0:
464,48,25645,5,4,0:0:0:0:
474,87,25728,1,0,0:0:0:0:
469,128,25811,1,2,0:0:0:0:
451,164,25894,1,0,0:0:0:0:
421,192,25978,1,8,0:0:0:0:
384,207,26061,1,0,0:0:0:0:
343,209,26144,1,2,0:0:0:0:
160,208,26312,5,4,0:0:0:0:
119,209,26395,1,0,0:0:0:0:
86,186,26478,1,2,0:0:0:0:
73,148,26561,1,0,0:0:0:0:
85,109,26645,1,8,0:0:0:0:
118,86,26728,1,0,0:0:0:0:
158,87,26811,1,2,0:0:0:0:
352,80,26979,6,0,L|384:128,6,41,4|0|2|0|8|0|2,0:0|0:0|0:0|0:0|0:0|0:0|0:0,0:0:0:0:
224,64,27645,2,0,L|128:64,1,82,2|0,0:0|0:0,0:0:0:0:
448,192,27979,5,2,0:0:0:0:
448,192,28312,2,0,L|336:192,1,82,2|0,0:0|0:0,0:0:0:0:
208,192,28645,1,6,0:0:0:0:
448,192,28979,1,2,3:2:0:0:
32,192,29312,1,2,0:0:0:0:
32,192,29645,2,0,L|144:192,1,82,2|0,0:0|0:0,0:0:0:0:
288,192,29978,6,0,L|368:192,1,41,2|2,0:0|0:0,0:0:0:0:
329,192,30145,2,0,L|288:192,1,41,2|2,0:0|0:0,0:0:0:0:
224,192,30312,2,0,L|112:192,1,82,0|0,3:2|3:2,0:0:0:0:
400,304,30645,6,0,P|448:256|384:192,1,164,12|8,3:2|0:0,0:0:0:0:
288,192,31145,1,0,3:0:0:0:
400,144,31312,2,0,L|448:144,2,41,8|0|2,0:0|0:0|3:2,0:0:0:0:
272,80,31645,2,0,L|368:80,1,82,8|2,0:0|3:2,0:0:0:0:
112,256,31978,6,0,P|55:209|112:176,1,164,10|10,0:0|0:0,0:0:0:0:
208,176,32478,1,2,3:2:0:0:
112,208,32645,2,0,L|16:208,1,82,10|2,0:0|3:2,0:0:0:0:
128,320,32978,2,0,L|240:320,1,82,10|2,0:0|3:2,0:0:0:0:
480,320,33312,6,0,L|480:192,1,123,4|8,3:2|0:0,0:0:0:0:
416,176,33645,1,2,0:0:0:0:
256,320,33812,2,0,L|256:192,1,123,4|8,3:2|0:0,0:0:0:0:
320,176,34145,1,2,0:0:0:0:
480,320,34312,6,0,L|480:192,1,123,4|8,3:2|0:0,0:0:0:0:
416,176,34645,1,2,0:0:0:0:
256,320,34812,2,0,L|256:192,1,123,4|8,3:2|0:0,0:0:0:0:
320,176,35145,1,2,0:0:0:0:
480,320,35312,6,0,L|480:192,1,123,4|8,3:2|0:0,0:0:0:0:
416,176,35645,1,2,0:0:0:0:
256,320,35812,2,0,L|256:192,1,123,4|8,3:2|0:0,0:0:0:0:
320,176,36145,1,2,0:0:0:0:
448,160,36312,1,4,3:2:0:0:
208,192,36478,6,0,L|96:192,1,82,8|2,0:0|3:2,0:0:0:0:
222,288,36812,1,8,0:0:0:0:
269,266,36895,1,0,0:0:0:0:
269,214,36978,1,2,3:2:0:0:
223,191,37062,1,0,0:0:0:0:
126,192,37145,2,0,L|238:192,1,82,8|2,0:0|3:2,0:0:0:0:
304,192,37479,2,0,L|400:192,1,82,8|2,0:0|3:2,0:0:0:0:
128,304,37812,6,0,P|64:256|128:208,1,164,8|2,0:2|0:0,0:0:0:0:
224,224,38312,1,0,3:0:0:0:
64,208,38479,2,0,P|16:176|80:112,1,164,8|10,0:0|0:0,0:0:0:0:
176,112,38979,1,10,3:2:0:0:
448,112,39145,5,2,0:0:0:0:
477,139,39228,1,0,0:0:0:0:
483,178,39311,1,0,0:0:0:0:
463,213,39395,1,0,0:0:0:0:
426,228,39478,1,2,0:0:0:0:
336,224,39645,1,0,0:0:0:0:
432,208,39812,6,0,L|488:224,1,41,2|0,0:0|0:0,0:0:0:0:
488,264,39979,2,0,L|464:328,1,41
432,320,40145,1,2,0:0:0:0:
391,320,40228,1,0,0:0:0:0:
350,320,40311,1,0,0:0:0:0:
102,256,40478,5,8,3:2:0:0:
53,244,40561,1,0,3:2:0:0:
33,199,40644,1,8,3:2:0:0:
55,155,40728,1,0,3:2:0:0:
140,141,40811,1,12,3:2:0:0:
410,256,41145,5,8,3:2:0:0:
459,244,41228,1,0,3:2:0:0:
479,199,41311,1,8,3:2:0:0:
457,155,41395,1,0,3:2:0:0:
372,141,41478,1,12,3:2:0:0:
144,256,41812,6,0,L|144:192,1,41,8|0,3:2|3:2,0:0:0:0:
184,200,41978,1,8,3:2:0:0:
272,192,42145,2,0,L|336:192,2,41,8|0|8,3:2|3:2|3:2,0:0:0:0:
112,136,42478,6,0,L|112:232,1,82,2|2,3:2|0:0,0:0:0:0:
192,328,42812,2,0,L|96:328,1,82,2|2,0:0|0:0,0:0:0:0:
384,256,43145,6,0,P|432:208|320:96,1,246,6|0,0:0|0:0,0:0:0:0:
240,160,43812,2,0,L|496:160,1,246,4|0,3:2|3:0,0:0:0:0:
256,288,44478,6,0,L|64:288,1,164,12|8,3:2|0:0,0:0:0:0:
144,224,44978,1,0,3:0:0:0:
288,224,45144,1,8,0:0:0:0:
336,192,45227,1,0,0:0:0:0:
288,160,45310,1,2,3:2:0:0:
192,144,45478,2,0,L|96:144,1,82,8|2,0:0|3:2,0:0:0:0:
352,288,45811,6,0,P|400:240|336:192,1,164,10|10,0:0|0:0,0:0:0:0:
240,192,46311,1,2,3:2:0:0:
368,144,46478,2,0,L|480:144,1,82,10|2,0:0|3:2,0:0:0:0:
464,224,46811,2,0,L|352:224,1,82,8|0,0:0|3:0,0:0:0:0:
80,240,47144,6,0,P|48:208|96:160,1,123,4|8,3:2|0:0,0:0:0:0:
144,176,47478,1,2,0:0:0:0:
288,288,47644,2,0,P|320:256|272:208,1,123,4|8,3:2|0:0,0:0:0:0:
224,224,47978,1,2,0:0:0:0:
80,240,48144,6,0,P|48:208|96:160,1,123,4|8,3:2|0:0,0:0:0:0:
144,176,48478,1,2,0:0:0:0:
288,288,48644,2,0,P|320:256|272:208,1,123,4|8,3:2|0:0,0:0:0:0:
224,224,48978,1,2,0:0:0:0:
80,240,49144,6,0,P|48:208|96:160,1,123,4|8,3:2|0:0,0:0:0:0:
144,176,49478,1,2,0:0:0:0:
288,288,49644,2,0,P|320:256|272:208,1,123,4|8,3:2|0:0,0:0:0:0:
224,224,49977,1,2,0:0:0:0:
80,240,50143,6,0,P|48:208|96:160,1,123,4|8,3:2|0:0,0:0:0:0:
144,176,50477,1,2,0:0:0:0:
288,304,50643,1,4,3:2:0:0:
336,272,50726,1,2,0:0:0:0:
336,240,50809,1,2,0:0:0:0:
276,207,50893,2,0,L|228:207,2,41,0|2|2,3:2|0:0|0:0,0:0:0:0:
336,208,51143,1,0,3:2:0:0:
80,240,51310,6,0,P|48:208|96:160,1,123,2|8,0:0|0:0,0:0:0:0:
144,176,51644,1,2,0:0:0:0:
288,288,51810,2,0,P|320:256|272:208,1,123,4|8,3:2|0:0,0:0:0:0:
224,224,52143,1,2,0:0:0:0:
80,240,52310,6,0,P|48:208|96:160,1,123,4|8,3:2|0:0,0:0:0:0:
144,176,52644,1,2,0:0:0:0:
288,288,52810,1,4,3:2:0:0:
320,272,52893,1,2,0:0:0:0:
288,256,52976,1,2,0:0:0:0:
224,256,53060,2,0,L|176:256,1,41,0|2,3:2|0:0,0:0:0:0:
432,240,53310,6,0,P|434:202|353:157,1,123,2|8,0:2|0:0,0:0:0:0:
330,155,53644,1,2,0:0:0:0:
248,156,53810,1,4,3:2:0:0:
480,320,53976,5,8,0:0:0:0:
480,272,54059,1,0,0:0:0:0:
448,240,54142,1,2,3:2:0:0:
352,192,54310,2,0,L|464:192,1,82,8|2,0:0|3:2,0:0:0:0:
192,208,54643,5,8,0:0:0:0:
151,208,54726,1,0,0:0:0:0:
110,208,54809,1,2,3:2:0:0:
192,144,54976,2,0,L|304:144,1,82,8|2,0:0|3:2,0:0:0:0:
32,192,55310,6,0,L|32:96,1,82,8|0,0:2|0:0,0:0:0:0:
128,96,55643,2,0,L|240:96,1,82,2|0,0:0|3:0,0:0:0:0:
112,256,55976,2,0,P|64:240|112:160,1,164,10|8,0:0|0:0,0:0:0:0:
192,160,56476,1,8,0:0:0:0:
432,256,56643,5,4,3:2:0:0:
460,210,56754,1,0,3:2:0:0:
461,156,56865,1,0,3:2:0:0:
434,109,56976,1,0,3:2:0:0:
387,82,57087,1,0,3:2:0:0:
333,83,57198,1,0,3:2:0:0:
288,144,57310,2,0,L|160:144,1,109.333333333333,0|0,3:2|3:2,0:0:0:0:
252,223,57643,2,0,L|332:223,1,54.6666666666667,0|0,3:2|3:2,0:0:0:0:
16,288,57976,6,0,L|16:192,1,82,6|2,3:2|3:2,0:0:0:0:
176,192,58476,1,2,0:0:0:0:
176,176,58643,1,2,3:2:0:0:
352,176,58810,2,0,P|400:224|320:272,1,164,2|2,3:2|0:0,0:0:0:0:
112,320,59310,6,0,L|32:320,1,41,0|0,3:2|3:2,0:0:0:0:
112,272,59476,2,0,L|304:272,1,164
112,192,59976,2,0,L|48:192,1,41,8|8,0:0|0:0,0:0:0:0:
112,192,60143,2,0,P|160:160|96:96,1,164
352,192,60643,6,0,L|393:192,1,41,0|0,3:0|3:0,0:0:0:0:
352,240,60810,1,0,0:0:0:0:
270,240,60976,1,2,0:0:0:0:
188,240,61143,1,0,0:0:0:0:
352,288,61310,2,0,L|400:288,1,41,8|8,0:0|0:0,0:0:0:0:
352,288,61476,1,0,0:0:0:0:
265,224,61642,1,2,0:0:0:0:
345,152,61809,1,0,0:0:0:0:
48,144,61976,6,0,L|48:96,1,41,0|0,3:0|3:0,0:0:0:0:
112,96,62143,1,0,0:0:0:0:
147,115,62226,1,0,0:0:0:0:
160,153,62309,1,2,0:0:0:0:
145,190,62393,1,2,0:0:0:0:
109,208,62476,1,0,0:0:0:0:
224,208,62643,1,10,0:0:0:0:
464,208,62810,6,0,L|464:160,1,41,0|0,3:0|3:0,0:0:0:0:
384,144,62976,1,0,0:0:0:0:
344,149,63059,1,0,0:0:0:0:
321,181,63142,1,2,0:0:0:0:
329,220,63226,1,2,0:0:0:0:
362,241,63309,1,0,0:0:0:0:
480,240,63476,1,10,0:0:0:0:
192,336,63643,6,0,L|192:256,1,41,0|0,3:0|3:0,0:0:0:0:
256,288,63810,1,2,0:0:0:0:
295,278,63893,1,2,0:0:0:0:
323,249,63976,1,2,0:0:0:0:
332,210,64060,1,2,0:0:0:0:
319,172,64143,1,2,0:0:0:0:
287,146,64226,1,2,0:0:0:0:
247,142,64310,1,2,0:0:0:0:
144,144,64476,1,2,0:0:0:0:
400,64,64643,6,0,L|496:64,1,82,2|2,3:2|3:2,0:0:0:0:
400,144,64976,2,0,L|304:144,1,82,2|2,3:2|3:2,0:0:0:0:
80,128,65310,6,0,L|32:128,2,32.8,4|0|0,3:2|3:2|3:2,0:0:0:0:
256,192,65643,12,0,67643,3:2:0:0:
288,192,67976,5,0,3:2:0:0:
464,192,68142,2,0,P|416:128|462:221,1,451,4|2,3:2|0:0,0:0:0:0:
160,304,69228,6,0,L|160:176,1,102.5,6|10,3:2|0:0,0:0:0:0:
256,192,69561,2,0,L|400:192,1,102.5,0|10,3:2|0:0,0:0:0:0:
120,304,69894,2,0,L|42:303,2,51.25,2|0|10,3:2|3:0|0:2,0:0:0:0:
224,352,70228,1,2,3:2:0:0:
170,352,70311,1,0,0:0:0:0:
117,352,70394,1,8,0:0:0:0:
352,272,70561,5,2,3:2:0:0:
405,272,70644,1,0,3:0:0:0:
458,272,70727,1,10,0:2:0:0:
336,272,70894,2,0,L|192:272,1,102.5,2|10,3:2|0:2,0:0:0:0:
384,96,71228,1,2,3:2:0:0:
431,117,71311,1,2,0:0:0:0:
451,165,71394,1,10,0:0:0:0:
434,214,71477,1,2,0:0:0:0:
389,239,71561,1,2,3:2:0:0:
224,240,71728,1,2,0:0:0:0:
496,208,71894,6,0,L|496:64,1,102.5,2|10,3:2|0:0,0:0:0:0:
384,96,72228,2,0,L|512:96,1,102.5,2|10,3:2|0:2,0:0:0:0:
216,192,72561,2,0,L|104:192,1,102.5,2|10,3:2|0:2,0:0:0:0:
216,336,72894,2,0,L|72:336,1,102.5,0|2,3:2|3:2,0:0:0:0:
368,144,73228,6,0,L|480:144,1,102.5,8|0,3:2|3:2,0:0:0:0:
496,160,73478,2,0,L|390:160,1,102.5,8|0,3:2|3:2,0:0:0:0:
368,144,73728,6,0,L|480:144,1,102.5,8|0,3:2|3:2,0:0:0:0:
496,160,73978,2,0,L|390:160,1,102.5,8|0,3:2|3:2,0:0:0:0:
368,144,74228,6,0,L|480:144,1,102.5,8|0,3:2|3:2,0:0:0:0:
496,160,74478,2,0,L|390:160,1,102.5,8|0,3:2|3:2,0:0:0:0:
328,144,74728,5,2,3:2:0:0:
277,138,74811,1,0,3:0:0:0:
247,179,74894,1,0,3:0:0:0:
269,225,74977,1,0,3:0:0:0:
319,228,75061,1,0,3:0:0:0:
448,224,75228,2,0,L|448:336,1,102.5,0|0,3:0|3:0,0:0:0:0:
304,336,75644,1,2,0:0:0:0:
48,336,75811,6,0,L|48:208,1,102.5,6|10,3:2|0:0,0:0:0:0:
176,208,76144,2,0,L|64:208,1,102.5,2|10,3:2|0:2,0:0:0:0:
392,240,76477,1,2,3:2:0:0:
441,224,76560,1,0,3:0:0:0:
465,178,76643,1,10,0:2:0:0:
448,129,76726,1,0,0:0:0:0:
400,107,76810,1,2,3:2:0:0:
312,112,76977,1,10,0:0:0:0:
80,128,77144,6,0,L|0:128,2,51.25,2|2|10,3:2|3:2|3:2,0:0:0:0:
208,144,77477,1,2,3:2:0:0:
257,156,77560,1,2,0:0:0:0:
269,205,77643,1,10,0:0:0:0:
233,240,77726,1,2,0:0:0:0:
160,256,77811,2,0,L|48:256,2,102.5,2|10|2,3:2|0:2|3:2,0:0:0:0:
304,256,78311,1,8,0:0:0:0:
48,336,78477,5,4,3:2:0:0:
33,298,78560,1,0,0:0:0:0:
35,257,78643,1,2,0:0:0:0:
53,221,78726,1,0,0:0:0:0:
85,196,78810,1,8,0:0:0:0:
208,176,78977,1,2,0:0:0:0:
347,133,79144,6,0,L|347:245,1,82,0|2,3:0|0:0,0:0:0:0:
235,229,79477,2,0,L|123:229,1,82,8|2,0:0|0:0,0:0:0:0:
464,336,79811,6,0,L|464:224,1,82,0|2,3:2|0:0,0:0:0:0:
352,240,80144,1,8,0:0:0:0:
313,232,80227,1,0,0:0:0:0:
293,197,80310,1,0,0:0:0:0:
305,159,80393,1,0,0:0:0:0:
341,143,80477,1,0,3:0:0:0:
386,141,80561,2,0,L|440:144,1,41
344,224,80811,2,0,L|277:224,2,41,8|0|2,0:0|0:0|0:0,0:0:0:0:
112,224,81144,5,0,3:0:0:0:
64,208,81227,1,0,0:0:0:0:
40,168,81310,1,2,0:0:0:0:
64,128,81393,1,0,0:0:0:0:
112,112,81477,1,8,0:0:0:0:
256,112,81644,1,2,0:0:0:0:
16,192,81811,5,4,3:2:0:0:
16,233,81894,1,0,0:0:0:0:
16,274,81977,1,0,0:0:0:0:
112,336,82144,2,0,L|208:336,1,82,10|2,0:0|0:0,0:0:0:0:
336,272,82477,6,0,L|224:272,1,82,0|0,3:2|0:0,0:0:0:0:
160,192,82811,1,10,0:0:0:0:
201,192,82894,1,0,0:0:0:0:
242,192,82977,1,2,0:0:0:0:
496,192,83144,6,0,L|496:96,1,82,0|2,3:2|0:0,0:0:0:0:
400,112,83477,1,8,0:0:0:0:
359,112,83560,1,2,0:0:0:0:
318,112,83643,1,0,0:0:0:0:
208,208,83810,5,0,3:2:0:0:
249,208,83893,1,2,0:0:0:0:
290,208,83976,1,0,0:0:0:0:
192,304,84144,2,0,L|80:304,1,82,8|0,0:0|0:0,0:0:0:0:
400,288,84479,5,4,3:2:0:0:
424,276,84534,1,0,3:2:0:0:
445,258,84589,1,0,3:2:0:0:
461,236,84644,1,0,3:2:0:0:
470,210,84699,1,0,3:2:0:0:
472,183,84755,1,0,3:2:0:0:
467,156,84810,1,0,3:2:0:0:
460,135,84865,1,0,3:2:0:0:
438,111,84920,1,0,3:2:0:0:
416,95,84976,1,0,3:2:0:0:
390,86,85031,1,0,3:2:0:0:
256,80,85141,5,2,3:2:0:0:
256,56,87128,2,0,L|224:160,2,82,2|0|0,0:0|3:2|3:2,0:0:0:0:
352,56,87626,1,0,3:2:0:0:
96,280,87791,6,0,P|56:248|120:176,1,164,2|2,3:2|3:2,0:0:0:0:
240,184,88453,2,0,L|112:184,1,123,2|2,3:2|3:2,0:0:0:0:
248,272,88868,2,0,L|296:272,1,41,2|0,3:2|0:0,0:0:0:0:
55,290,89116,6,0,P|15:258|79:186,1,164,2|2,3:2|3:2,0:0:0:0:
199,194,89778,2,0,L|71:194,1,123,2|2,3:2|3:2,0:0:0:0:
207,282,90193,2,0,L|255:282,1,41,2|0,3:2|0:0,0:0:0:0:
491,292,90442,6,0,P|497:254|382:184,1,164,2|2,3:2|3:2,0:0:0:0:
288,240,91104,2,0,L|416:240,1,123,2|2,3:2|3:2,0:0:0:0:
280,328,91519,2,0,L|232:328,1,41,2|0,3:2|0:0,0:0:0:0:
496,304,91768,6,0,L|496:192,1,82,2|8,3:2|0:0,0:0:0:0:
338,192,92266,1,8,0:0:0:0:
496,144,92431,2,0,L|400:144,1,82,2|8,3:2|0:0,0:0:0:0:
304,192,92763,2,0,L|400:192,1,82,0|8,0:0|0:0,0:0:0:0:
80,352,93094,6,0,L|80:240,1,82,2|8,3:2|0:0,0:0:0:0:
238,240,93592,1,8,0:0:0:0:
80,192,93757,2,0,L|176:192,1,82,2|8,3:2|0:0,0:0:0:0:
272,240,94089,2,0,L|176:240,1,82,0|8,0:0|0:0,0:0:0:0:
496,304,94420,6,0,L|496:192,1,82,2|8,3:2|0:0,0:0:0:0:
338,192,94918,1,8,0:0:0:0:
496,144,95083,2,0,L|400:144,1,82,2|8,3:2|0:0,0:0:0:0:
304,192,95415,2,0,L|400:192,1,82,0|8,0:0|0:0,0:0:0:0:
152,288,95746,6,0,L|248:288,1,82,2|10,3:2|0:0,0:0:0:0:
320,280,96078,2,0,L|320:184,1,82,2|10,3:2|0:0,0:0:0:0:
232,192,96409,2,0,L|136:192,3,82,2|10|2|10,3:2|0:0|3:2|0:0,0:0:0:0:
384,328,97072,6,0,L|384:232,1,82,2|10,3:2|0:0,0:0:0:0:
288,232,97404,2,0,L|288:136,1,82,2|10,3:2|0:0,0:0:0:0:
384,136,97735,2,0,L|480:136,3,82,2|10|2|10,3:2|0:0|3:2|0:0,0:0:0:0:
216,328,98398,6,0,L|216:232,1,82,2|10,3:2|0:0,0:0:0:0:
312,232,98730,2,0,L|312:136,1,82,2|10,3:2|0:0,0:0:0:0:
216,136,99061,2,0,L|120:136,3,82,2|10|2|10,3:2|0:0|3:2|0:0,0:0:0:0:
368,288,99724,5,2,3:2:0:0:
407,282,99806,1,0,0:0:0:0:
430,250,99889,1,10,0:0:0:0:
422,211,99972,1,0,0:0:0:0:
389,190,100055,1,2,3:2:0:0:
288,144,100221,2,0,L|400:144,2,82,10|2|10,0:0|3:2|0:0,0:0:0:0:
370,144,100719,2,0,L|370:256,1,82,2|10,3:2|0:0,0:0:0:0:
136,336,101050,5,2,3:2:0:0:
96,330,101132,1,0,0:0:0:0:
73,298,101215,1,10,0:0:0:0:
81,259,101298,1,0,0:0:0:0:
114,238,101381,1,2,3:2:0:0:
216,192,101547,2,0,L|104:192,2,82,10|2|10,0:0|3:2|0:0,0:0:0:0:
134,192,102045,2,0,L|134:304,1,82,2|10,3:2|0:0,0:0:0:0:
366,306,102376,5,2,3:2:0:0:
406,300,102458,1,0,0:0:0:0:
429,268,102541,1,10,0:0:0:0:
421,229,102624,1,0,0:0:0:0:
388,208,102707,1,2,3:2:0:0:
286,162,102873,2,0,L|398:162,2,82,10|2|10,0:0|3:2|0:0,0:0:0:0:
368,80,103371,2,0,L|368:192,1,82,2|10,3:2|0:0,0:0:0:0:
80,288,103702,6,0,L|80:192,1,82,2|10,3:2|3:2,0:0:0:0:
174,174,104034,2,0,L|270:174,1,82,2|10,3:2|3:2,0:0:0:0:
352,96,104365,2,0,L|256:96,1,82,2|10,3:2|3:2,0:0:0:0:
174,174,104697,2,0,L|174:270,1,82,2|10,3:2|3:2,0:0:0:0:
432,288,105028,6,0,L|432:192,1,82,2|10,3:2|3:2,0:0:0:0:
338,174,105360,2,0,L|242:174,1,82,2|10,3:2|3:2,0:0:0:0:
160,96,105691,2,0,L|256:96,1,82,2|10,3:2|3:2,0:0:0:0:
338,174,106023,2,0,L|338:270,1,82,2|10,3:2|3:2,0:0:0:0:
80,288,106354,6,0,L|80:192,1,82,2|10,3:2|3:2,0:0:0:0:
174,174,106686,2,0,L|270:174,1,82,2|10,3:2|3:2,0:0:0:0:
352,96,107017,2,0,L|256:96,1,82,2|10,3:2|3:2,0:0:0:0:
174,174,107349,2,0,L|174:270,1,82,2|10,3:2|3:2,0:0:0:0:
448,256,107680,6,0,L|448:144,1,82,2|10,3:2|0:2,0:0:0:0:
320,160,108011,1,2,3:2:0:0:
448,112,108177,1,10,0:2:0:0:
457,151,108259,1,0,0:2:0:0:
448,191,108342,1,2,3:2:0:0:
422,222,108425,1,0,0:2:0:0:
385,239,108508,1,10,0:2:0:0:
288,256,108674,2,0,L|400:256,1,82,2|10,3:2|0:2,0:0:0:0:
96,144,109005,6,0,L|96:256,1,82,2|10,3:2|0:2,0:0:0:0:
224,240,109337,1,2,3:2:0:0:
96,288,109502,1,10,0:2:0:0:
86,248,109585,1,0,0:2:0:0:
95,208,109668,1,2,3:2:0:0:
121,177,109751,1,0,0:2:0:0:
158,160,109834,1,10,0:2:0:0:
256,144,110000,2,0,L|144:144,1,82,2|10,3:2|0:2,0:0:0:0:
448,256,110332,6,0,L|448:144,1,82,2|10,3:2|0:2,0:0:0:0:
320,160,110663,1,2,3:2:0:0:
448,112,110829,1,10,0:2:0:0:
457,151,110911,1,0,0:2:0:0:
448,191,110994,1,2,3:2:0:0:
422,222,111077,1,0,0:2:0:0:
385,239,111160,1,10,0:2:0:0:
288,256,111326,2,0,L|400:256,1,82,2|10,3:2|0:2,0:0:0:0:
128,304,111658,6,0,L|64:304,2,41,2|0|10,3:2|0:0|0:0,0:0:0:0:
256,288,111989,2,0,L|256:208,1,41,2|0,3:2|0:0,0:0:0:0:
192,224,112155,1,10,0:0:0:0:
80,208,112321,1,2,3:2:0:0:
43,193,112403,1,0,0:0:0:0:
28,155,112486,1,10,0:0:0:0:
46,120,112569,1,0,0:0:0:0:
85,109,112652,1,2,3:2:0:0:
160,112,112818,1,10,0:0:0:0:
400,80,112984,6,0,L|464:80,2,41,2|0|10,3:2|0:0|0:0,0:0:0:0:
272,96,113315,2,0,L|272:176,1,41,2|0,3:2|0:0,0:0:0:0:
336,160,113481,1,10,0:0:0:0:
448,176,113647,1,2,3:2:0:0:
485,191,113729,1,0,0:0:0:0:
500,229,113812,1,10,0:0:0:0:
482,264,113895,1,0,0:0:0:0:
443,275,113978,1,2,3:2:0:0:
368,272,114144,1,10,0:0:0:0:
112,80,114310,6,0,L|48:80,2,41,2|0|10,3:2|0:0|0:0,0:0:0:0:
240,96,114641,2,0,L|240:176,1,41,2|0,3:2|0:0,0:0:0:0:
176,160,114807,1,10,0:0:0:0:
64,176,114973,1,2,3:2:0:0:
27,191,115055,1,0,0:0:0:0:
12,229,115138,1,10,0:0:0:0:
30,264,115221,1,0,0:0:0:0:
69,275,115304,1,2,3:2:0:0:
144,272,115470,1,10,0:0:0:0:
432,304,115636,6,0,L|464:256,6,41,6|0|10|0|2|0|10,3:2|0:0|3:2|3:2|3:2|3:2|3:2,0:0:0:0:
320,304,116299,5,6,3:2:0:0:
279,304,116381,1,0,0:0:0:0:
246,281,116464,1,10,3:2:0:0:
232,243,116547,1,0,3:2:0:0:
241,204,116630,1,2,3:2:0:0:
272,178,116713,1,0,3:2:0:0:
312,174,116796,1,10,3:2:0:0:
64,64,116962,6,0,L|32:16,6,41,6|0|10|0|2|0|10,3:2|0:0|3:2|3:2|3:2|3:2|3:2,0:0:0:0:
176,64,117625,5,6,3:2:0:0:
217,64,117707,1,0,0:0:0:0:
250,87,117790,1,10,3:2:0:0:
264,125,117873,1,0,3:2:0:0:
255,164,117956,1,2,3:2:0:0:
224,190,118039,1,0,3:2:0:0:
184,194,118122,1,10,3:2:0:0:
256,192,118288,12,0,118785,3:0:0:0:
256,192,118951,12,0,119448,3:0:0:0:
256,192,119614,12,0,120111,3:0:0:0:
256,192,120277,12,0,120774,3:0:0:0:
256,192,120940,12,0,121437,3:0:0:0:
256,192,121603,12,2,121934,3:2:0:0:
128,346,122266,6,0,P|79:304|259:64,1,451,2|8,0:0|0:0,0:0:0:0:
342,107,123343,1,0,0:0:0:0:
368,124,123425,1,0,0:0:0:0:
388,149,123508,1,0,0:0:0:0:
398,179,123591,1,2,3:2:0:0:
399,211,123674,1,0,0:0:0:0:
390,241,123757,1,0,0:0:0:0:
372,267,123840,1,0,0:0:0:0:
346,286,123923,1,0,3:2:0:0:
316,296,124005,1,0,0:0:0:0:
284,296,124088,1,0,3:2:0:0:
16,192,124255,5,4,3:2:0:0:
128,192,124512,6,0,L|128:128,1,41,2|2,0:0|0:0,0:0:0:0:
