osu file format v14

[General]
AudioFilename: audio.mp3
AudioLeadIn: 0
PreviewTime: 6146
Countdown: 0
SampleSet: Soft
StackLeniency: 0.2
Mode: 2
LetterboxInBreaks: 0
WidescreenStoryboard: 0

[Editor]
DistanceSpacing: 1.5
BeatDivisor: 4
GridSize: 16
TimelineZoom: 2.66

[Metadata]
Title:Circus Galop (Cut Ver.)
TitleUnicode:Circus Galop (Cut Ver.)
Artist:Marc-Andre Hamelin
ArtistUnicode:Marc-André Hamelin
Creator:fayew
Version:Fortississimo
Source:
Tags:classical instrumental piano apo11o apollo moonpoint skill issue lol
BeatmapID:3995789
BeatmapSetID:1933753

[Difficulty]
HPDrainRate:4
CircleSize:4.8
OverallDifficulty:10
ApproachRate:10
SliderMultiplier:2.28
SliderTickRate:2

[Events]
//Background and Video events
0,0,"Circus Galop.jpg",0,0
//Break Periods
//Storyboard Layer 0 (Background)
//Storyboard Layer 1 (Fail)
//Storyboard Layer 2 (Pass)
//Storyboard Layer 3 (Foreground)
//Storyboard Layer 4 (Overlay)
//Storyboard Sound Samples

[TimingPoints]
1146,333.333333333333,4,2,1,60,1,0
1313,333.333333333333,4,2,1,60,1,0
5430,-100,4,2,1,60,0,0
5437,-100,4,2,1,60,0,0
5478,-100,4,2,1,5,0,0
6479,-10,4,2,1,60,0,0
6646,-100,4,2,1,60,0,0
16979,-83.3333333333333,4,2,1,60,0,0
17646,333.333333333333,4,2,1,60,1,0
27979,333.333333333333,4,2,1,60,1,0
30645,-100,4,2,1,60,0,1
33312,-100,4,2,1,60,0,0
36479,333.333333333333,4,2,1,60,1,0
44478,333.333333333333,4,2,1,60,1,1
47144,-100,4,2,1,60,0,0
49977,333.333333333333,4,2,1,60,1,0
56643,-66.6666666666667,4,2,1,60,0,0
57976,-100,4,2,1,60,0,0
65310,-83.3333333333333,4,2,1,60,0,0
68142,333.333333333333,4,2,1,60,1,0
69228,333.333333333333,4,2,1,60,1,0
69228,-66.6666666666667,4,2,1,60,0,1
75811,333.333333333333,4,2,1,60,1,0
75811,-66.6666666666667,4,2,1,60,0,1
78477,-76.9230769230769,4,2,1,60,0,0
81811,-86.9565217391304,4,2,1,60,0,0
84479,331.491712707182,4,2,1,60,1,0
84479,-83.3333333333333,4,2,1,60,0,0
86466,331.491712707182,4,2,1,60,1,0
87791,331.491712707182,4,2,1,60,1,0
87791,-90.9090909090909,4,2,1,60,0,0
118288,-100,4,2,1,60,0,0
122266,-83.3333333333333,4,2,1,60,0,0
124255,342.857142857143,4,2,1,60,1,0

[Colours]
Combo1 : 206,198,206
Combo2 : 148,148,148
Combo3 : 156,141,156
Combo4 : 206,198,198

[HitObjects]
400,192,1146,5,0,0:0:0:0:
256,192,1229,1,0,0:0:0:0:
112,192,1313,1,2,0:0:0:0:
112,192,1812,1,0,0:0:0:0:
256,192,1895,1,0,0:0:0:0:
400,192,1979,1,2,0:0:0:0:
400,192,2479,1,0,0:0:0:0:
256,192,2562,1,0,0:0:0:0:
480,192,2646,6,0,L|480:128,1,57,2|0,0:0|0:0,0:0:0:0:
316,185,2812,2,0,L|352:140,1,57
212,120,2979,2,0,L|269:81,1,57,2|0,0:0|0:0,0:0:0:0:
121,61,3146,2,0,L|194:62,1,57,2|0,0:0|0:0,0:0:0:0:
362,59,3312,2,0,L|298:60,1,57,2|0,0:0|0:0,0:0:0:0:
461,118,3479,2,0,L|401:118,1,57,2|0,0:0|0:0,0:0:0:0:
234,189,3646,2,0,L|292:187,1,57,2|0,0:0|0:0,0:0:0:0:
496,236,3812,2,0,L|436:233,1,57,2|0,0:0|0:0,0:0:0:0:
105,234,3979,6,0,P|56:213|129:91,1,228,2|0,0:0|0:0,0:0:0:0:
258,95,4396,1,4,3:2:0:0:
107,87,4479,1,0,3:0:0:0:
258,95,4562,1,0,3:0:0:0:
100,83,4646,2,0,L|181:87,1,57,0|0,3:2|3:0,0:0:0:0:
322,88,4812,2,0,L|248:87,1,57,0|0,3:0|3:2,0:0:0:0:
80,72,4979,1,0,3:0:0:0:
306,111,5062,2,0,L|364:115,1,57,0|0,3:0|3:2,0:0:0:0:
60,59,5229,1,0,3:0:0:0:
330,351,5312,6,0,P|452:287|452:287,1,100,2|0,3:2|0:0,0:0:0:0:
132,332,6479,2,0,B|42:298|42:298|81:234|81:234|128:328|128:328|80:230,2,380,2|2|2,0:0|0:0|0:0,0:0:0:0:
257,218,6646,6,0,L|372:219,1,114,2|0,0:0|0:0,0:0:0:0:
251,143,6979,2,0,L|131:144,1,114,8|0,0:0|0:0,0:0:0:0:
391,64,7312,1,2,0:0:0:0:
379,202,7479,1,2,0:0:0:0:
239,180,7646,2,0,L|362:173,1,114,10|0,0:0|0:0,0:0:0:0:
118,153,7979,5,0,0:0:0:0:
261,57,8146,2,0,L|319:58,2,57,2|2|10,0:0|0:0|0:0,0:0:0:0:
159,36,8479,1,0,0:0:0:0:
421,91,8646,1,2,0:0:0:0:
371,95,8729,1,0,0:0:0:0:
321,99,8812,1,2,0:0:0:0:
480,128,8896,1,0,0:0:0:0:
295,224,8979,2,0,P|273:167|301:120,1,114,8|2,0:0|0:0,0:0:0:0:
408,98,9187,2,0,L|453:98,2,28.5
251,50,9312,6,0,L|262:184,1,114,2|0,3:2|0:0,0:0:0:0:
369,186,9646,1,8,0:0:0:0:
259,177,9812,1,0,3:0:0:0:
498,144,9979,2,0,L|380:145,1,114,2|0,3:2|0:0,0:0:0:0:
270,144,10312,2,0,L|405:145,1,114,10|0,0:2|0:0,0:0:0:0:
112,225,10646,6,0,L|200:220,1,57,4|0,3:2|3:0,0:0:0:0:
20,185,10812,1,0,3:0:0:0:
162,229,10896,2,0,L|76:224,1,57,0|0,3:0|3:0,0:0:0:0:
253,202,11062,1,0,3:0:0:0:
92,70,11146,2,0,L|176:72,1,57,0|0,3:0|3:0,0:0:0:0:
315,115,11312,2,0,L|229:112,1,57,0|0,3:0|3:0,0:0:0:0:
447,61,11479,2,0,L|372:62,1,57,0|0,3:0|3:0,0:0:0:0:
206,193,11646,2,0,L|90:192,1,114,0|2,3:0|0:0,0:0:0:0:
149,165,11868,1,2,0:0:0:0:
206,144,11924,1,2,0:0:0:0:
60,272,11979,6,0,L|175:274,1,114,2|0,0:0|0:0,0:0:0:0:
279,220,12312,2,0,L|179:220,1,100,8|0,0:0|0:0,0:0:0:0:
471,171,12646,1,2,0:0:0:0:
319,187,12812,1,2,0:0:0:0:
471,171,12979,2,0,L|471:299,1,100,10|0,0:0|0:0,0:0:0:0:
225,192,13312,6,0,L|321:192,1,57,2|0,0:0|0:0,0:0:0:0:
110,80,13479,2,0,L|174:80,1,57,2|0,0:0|0:0,0:0:0:0:
336,112,13646,1,10,0:0:0:0:
160,80,13729,1,0,0:0:0:0:
336,112,13812,2,0,L|400:112,1,57,2|0,0:0|0:0,0:0:0:0:
160,80,13979,1,2,3:2:0:0:
158,162,14146,1,2,0:0:0:0:
386,112,14312,1,10,0:0:0:0:
278,111,14479,1,0,0:0:0:0:
496,240,14646,5,4,0:0:0:0:
352,320,14729,2,0,L|416:320,1,57,0|2,0:0|0:0,0:0:0:0:
256,256,14896,2,0,L|320:256,2,57,0|8|0,0:0|0:0|0:0,0:0:0:0:
448,192,15146,2,0,L|384:192,1,57,2|0,0:0|0:0,0:0:0:0:
240,160,15312,1,4,0:0:0:0:
400,144,15396,1,0,0:0:0:0:
224,128,15479,2,0,L|304:128,1,50,2|0,0:0|0:0,0:0:0:0:
448,112,15646,2,0,L|384:112,1,50,8|0,0:0|0:0,0:0:0:0:
240,80,15812,1,2,0:0:0:0:
304,71,15896,1,0,0:0:0:0:
122,64,15979,5,4,0:0:0:0:
298,64,16062,2,0,L|234:64,1,57,0|2,0:0|0:0,0:0:0:0:
182,110,16229,1,0,0:0:0:0:
336,144,16312,2,0,L|400:144,1,57,8|0,0:0|0:0,0:0:0:0:
224,208,16479,2,0,L|288:208,1,57,2|0,0:0|0:0,0:0:0:0:
96,256,16646,2,0,L|240:256,1,114,2|0,0:0|0:0,0:0:0:0:
88,192,16979,6,0,L|40:192,1,34.1999989562989,4|0,3:2|3:2,0:0:0:0:
176,144,17062,2,0,L|213:144,1,34.1999989562989,0|0,3:2|3:2,0:0:0:0:
336,128,17146,2,0,L|336:80,1,34.1999989562989,0|0,3:2|3:2,0:0:0:0:
224,64,17229,2,0,L|176:64,1,34.1999989562989,0|0,3:2|3:2,0:0:0:0:
336,48,17312,2,0,L|384:48,1,34.1999989562989,0|0,3:2|3:2,0:0:0:0:
496,64,17396,2,0,L|496:112,1,34.1999989562989,0|0,3:2|3:2,0:0:0:0:
240,128,17479,1,2,3:2:0:0:
360,128,17535,1,2,3:2:0:0:
480,128,17590,1,2,3:2:0:0:
304,368,17646,6,0,L|170:366,1,114,2|0,3:2|0:0,0:0:0:0:
336,320,17979,2,0,L|352:205,1,114,8|0,0:0|0:0,0:0:0:0:
112,192,18312,1,2,0:0:0:0:
368,112,18479,2,0,L|249:109,1,114,2|10,0:0|0:0,0:0:0:0:
384,64,18812,1,0,0:0:0:0:
128,304,18979,5,0,0:0:0:0:
368,240,19146,2,0,L|385:186,1,57,2|2,0:0|0:0,0:0:0:0:
224,176,19312,1,10,0:0:0:0:
336,144,19479,1,0,0:0:0:0:
64,144,19645,2,0,L|133:144,2,57,2|0|2,0:0|0:0|0:0,0:0:0:0:
224,128,19895,1,0,0:0:0:0:
48,96,19979,2,0,L|178:95,1,114,8|2,0:0|0:0,0:0:0:0:
288,128,20201,2,0,L|355:127,1,38,2|2,0:0|0:0,0:0:0:0:
112,288,20312,6,0,L|249:289,1,114,2|0,3:2|0:0,0:0:0:0:
455,240,20645,2,0,L|320:240,1,114,8|2,0:0|0:0,0:0:0:0:
80,224,20979,1,2,3:2:0:0:
336,176,21145,2,0,L|214:174,2,114,0|8|2,0:0|0:0|3:2,0:0:0:0:
80,160,21645,6,0,L|162:144,1,57,4|0,3:2|3:2,0:0:0:0:
318,90,21812,1,0,3:2:0:0:
64,176,21895,2,0,L|153:161,1,57,0|0,3:2|3:2,0:0:0:0:
272,112,22062,1,0,3:2:0:0:
48,192,22145,2,0,L|137:175,1,57,0|0,3:2|3:2,0:0:0:0:
239,148,22312,1,0,3:2:0:0:
90,100,22395,1,0,3:2:0:0:
303,88,22479,2,0,L|219:86,1,57,0|0,3:2|3:2,0:0:0:0:
72,62,22645,1,2,3:2:0:0:
224,96,22812,1,2,0:0:0:0:
176,96,22867,1,2,0:0:0:0:
128,96,22923,1,2,0:0:0:0:
256,272,22979,6,0,L|370:269,1,114,2|0,0:0|0:0,0:0:0:0:
240,208,23312,2,0,L|106:206,1,114,8|0,0:0|0:0,0:0:0:0:
416,144,23645,1,2,0:0:0:0:
176,128,23812,1,2,0:0:0:0:
432,64,23979,2,0,L|432:194,1,114,10|0,0:0|0:0,0:0:0:0:
144,256,24312,5,2,0:0:0:0:
128,200,24395,1,0,0:0:0:0:
296,176,24478,1,2,0:0:0:0:
304,112,24561,1,0,0:0:0:0:
112,144,24645,1,10,0:0:0:0:
172,144,24728,1,0,0:0:0:0:
112,144,24811,1,2,0:0:0:0:
320,80,24894,1,0,0:0:0:0:
64,320,24979,2,0,L|194:319,2,114,2|2|10,3:2|0:0|0:0,0:0:0:0:
320,304,25479,1,0,0:0:0:0:
16,240,25645,5,4,0:0:0:0:
160,320,25728,2,0,L|84:319,1,57,0|2,0:0|0:0,0:0:0:0:
256,256,25895,2,0,L|184:253,2,57,0|8|0,0:0|0:0|0:0,0:0:0:0:
64,192,26145,2,0,L|131:192,1,57,2|0,0:0|0:0,0:0:0:0:
272,160,26311,1,4,0:0:0:0:
112,144,26395,1,0,0:0:0:0:
288,128,26478,2,0,L|200:127,1,57,2|0,0:0|0:0,0:0:0:0:
64,112,26645,2,0,L|138:112,1,57,8|0,0:0|0:0,0:0:0:0:
272,80,26811,1,2,0:0:0:0:
213,66,26895,1,0,0:0:0:0:
370,81,26978,5,4,0:0:0:0:
194,81,27061,2,0,L|263:84,1,57,0|2,0:0|0:0,0:0:0:0:
309,85,27228,1,0,0:0:0:0:
150,149,27311,2,0,L|80:148,1,57,8|0,0:0|0:0,0:0:0:0:
289,225,27478,2,0,L|217:222,1,57,2|0,0:0|0:0,0:0:0:0:
432,192,27645,2,0,L|320:192,1,100,2|0,0:0|0:0,0:0:0:0:
48,288,27979,5,2,0:0:0:0:
128,288,27999,1,0,0:0:0:0:
256,288,28312,2,0,L|373:284,1,114,2|0,0:0|0:0,0:0:0:0:
240,192,28645,1,6,0:0:0:0:
160,192,28665,1,0,3:0:0:0:
320,192,28979,1,2,3:2:0:0:
400,192,28999,1,0,3:0:0:0:
192,192,29312,1,2,0:0:0:0:
112,192,29332,1,0,0:0:0:0:
304,224,29645,2,0,L|170:224,1,114,2|0,0:0|0:0,0:0:0:0:
464,112,29978,6,0,L|465:195,1,57,2|2,0:0|0:0,0:0:0:0:
384,224,30145,2,0,L|466:222,1,57,2|2,0:0|0:0,0:0:0:0:
176,304,30312,6,0,L|208:304,1,28.5,0|0,3:2|3:2,0:0:0:0:
320,272,30395,2,0,L|352:272,1,28.5,0|0,3:2|3:2,0:0:0:0:
480,240,30478,2,0,L|448:240,1,28.5,0|0,3:2|3:2,0:0:0:0:
320,224,30562,2,0,L|292:224,1,28.5,0|0,3:2|3:2,0:0:0:0:
480,160,30645,5,12,3:2:0:0:
320,160,30728,2,0,L|304:96,2,57,0|0|2,0:0|0:0|0:0,0:0:0:0:
464,160,30978,5,8,0:0:0:0:
304,160,31061,2,0,L|288:96,2,57,0|0|0,0:0|3:0|0:0,0:0:0:0:
448,160,31312,5,8,0:0:0:0:
288,160,31395,2,0,L|272:96,2,57,0|2|0,0:0|3:2|0:0,0:0:0:0:
432,160,31645,5,8,0:0:0:0:
272,160,31728,2,0,L|256:96,2,57,0|2|0,0:0|3:2|0:0,0:0:0:0:
416,160,31978,5,10,0:0:0:0:
256,160,32061,2,0,L|192:160,2,57,0|0|2,0:0|3:0|0:0,0:0:0:0:
400,160,32311,5,10,0:0:0:0:
240,160,32394,2,0,L|160:160,2,57,0|2|0,0:0|3:2|0:0,0:0:0:0:
384,160,32645,5,10,0:0:0:0:
224,160,32728,2,0,L|160:160,2,57,0|2|0,0:0|3:2|0:0,0:0:0:0:
368,160,32978,5,10,0:0:0:0:
208,160,33061,2,0,L|128:160,2,57,0|2|0,0:0|3:2|0:0,0:0:0:0:
432,112,33312,6,0,L|288:112,1,114,4|0,3:2|0:0,0:0:0:0:
480,64,33562,2,0,L|400:64,1,57,8|2,0:0|0:0,0:0:0:0:
80,112,33812,6,0,L|224:112,1,114,4|0,3:2|0:0,0:0:0:0:
32,64,34062,2,0,L|112:64,1,57,8|2,0:0|0:0,0:0:0:0:
432,112,34312,6,0,L|288:112,1,114,4|0,3:2|0:0,0:0:0:0:
480,64,34562,2,0,L|400:64,1,57,8|2,0:0|0:0,0:0:0:0:
80,112,34812,6,0,L|224:112,1,114,4|0,3:2|0:0,0:0:0:0:
32,64,35062,2,0,L|112:64,1,57,8|2,0:0|0:0,0:0:0:0:
432,112,35312,6,0,L|288:112,1,114,4|0,3:2|0:0,0:0:0:0:
480,64,35562,2,0,L|400:64,1,57,8|2,0:0|0:0,0:0:0:0:
80,112,35812,6,0,L|224:112,1,114,4|0,3:2|0:0,0:0:0:0:
32,64,36062,2,0,L|112:64,1,57,8|2,0:0|0:0,0:0:0:0:
432,112,36312,6,0,L|284:112,1,114,4|8,3:2|0:0,0:0:0:0:
260,112,36562,1,0,0:0:0:0:
416,192,36645,2,0,L|480:192,1,57,2|0,3:2|0:0,0:0:0:0:
258,176,36812,6,0,L|322:176,1,57,8|0,0:0|0:0,0:0:0:0:
160,256,36979,2,0,L|224:256,1,57,2|0,3:2|0:0,0:0:0:0:
448,80,37145,2,0,L|384:80,1,57,8|0,0:0|0:0,0:0:0:0:
464,32,37312,2,0,L|400:32,1,57,2|0,3:2|0:0,0:0:0:0:
160,176,37479,2,0,L|224:176,1,57,8|0,0:0|0:0,0:0:0:0:
144,224,37646,2,0,L|208:224,1,57,2|0,3:2|0:0,0:0:0:0:
352,272,37812,5,8,0:2:0:0:
400,256,37895,1,0,0:0:0:0:
400,208,37978,1,0,0:0:0:0:
352,192,38062,1,2,0:0:0:0:
176,208,38145,1,2,0:0:0:0:
297,164,38312,1,0,3:0:0:0:
144,96,38479,6,0,P|88:133|144:192,1,171,8|0,0:0|0:0,0:0:0:0:
352,208,38812,1,10,0:0:0:0:
128,272,38979,1,10,3:2:0:0:
384,336,39145,5,2,0:0:0:0:
334,336,39228,1,0,0:0:0:0:
284,336,39311,1,0,0:0:0:0:
464,288,39395,1,0,0:0:0:0:
272,304,39479,1,2,0:0:0:0:
322,304,39562,1,0,0:0:0:0:
372,304,39645,1,0,0:0:0:0:
192,256,39729,1,0,0:0:0:0:
368,272,39812,1,2,0:0:0:0:
318,272,39895,1,0,0:0:0:0:
268,272,39978,1,0,0:0:0:0:
448,224,40062,1,0,0:0:0:0:
256,240,40146,1,2,0:0:0:0:
306,240,40229,1,0,0:0:0:0:
356,240,40312,1,0,0:0:0:0:
176,192,40396,1,0,0:0:0:0:
400,208,40478,5,8,3:2:0:0:
256,208,40562,1,0,3:2:0:0:
112,208,40645,1,8,3:2:0:0:
256,176,40728,1,0,3:2:0:0:
112,176,40812,1,12,3:2:0:0:
112,208,41145,5,8,3:2:0:0:
256,208,41229,1,0,3:2:0:0:
400,208,41312,1,8,3:2:0:0:
256,176,41395,1,0,3:2:0:0:
400,176,41479,1,12,3:2:0:0:
400,208,41812,5,8,3:2:0:0:
112,208,41895,1,0,3:2:0:0:
400,208,41978,1,8,3:2:0:0:
160,208,42061,1,0,3:2:0:0:
400,208,42145,1,8,3:2:0:0:
208,208,42228,1,0,3:2:0:0:
400,208,42312,1,8,3:2:0:0:
256,208,42395,1,0,3:2:0:0:
400,208,42478,5,2,3:2:0:0:
400,208,42645,1,2,0:0:0:0:
336,208,42728,1,2,0:0:0:0:
272,208,42812,1,2,0:0:0:0:
464,208,42978,1,2,0:0:0:0:
176,256,43145,6,0,L|128:256,1,38,6|0,0:0|0:0,0:0:0:0:
272,224,43256,2,0,L|320:224,1,38
432,184,43367,2,0,L|384:184,1,38
272,176,43478,6,0,L|224:176,1,38
104,144,43590,2,0,L|152:144,1,38
264,112,43701,2,0,L|312:112,1,38
112,48,43812,6,0,L|64:48,1,38,4|0,3:2|3:0,0:0:0:0:
296,184,43923,2,0,L|360:184,1,38,0|0,3:0|3:0,0:0:0:0:
64,152,44034,2,0,L|16:152,1,38,0|0,3:0|3:0,0:0:0:0:
256,112,44145,5,0,3:0:0:0:
296,64,44201,1,0,3:0:0:0:
160,176,44256,1,0,3:0:0:0:
32,176,44312,1,0,3:0:0:0:
160,176,44367,1,0,3:0:0:0:
288,176,44423,1,0,3:0:0:0:
416,176,44478,5,12,3:2:0:0:
240,176,44561,2,0,L|240:256,2,57,0|0|2,0:0|0:0|0:3,0:0:0:0:
400,176,44811,5,8,0:0:0:0:
224,176,44894,2,0,L|224:256,2,57,0|0|0,0:0|3:0|0:0,0:0:0:0:
384,176,45144,5,8,0:0:0:0:
208,176,45227,2,0,L|208:256,2,57,0|2|0,0:0|3:2|0:0,0:0:0:0:
368,176,45477,5,8,0:0:0:0:
192,176,45560,2,0,L|192:256,2,57,0|2|0,0:0|3:2|0:0,0:0:0:0:
400,160,45811,5,10,0:0:0:0:
224,192,45894,1,0,0:0:0:0:
274,192,45977,1,0,3:0:0:0:
324,192,46060,1,2,0:0:0:0:
112,160,46144,5,10,0:0:0:0:
288,192,46227,1,0,0:0:0:0:
238,192,46310,1,2,3:2:0:0:
188,192,46393,1,0,0:0:0:0:
400,160,46478,5,10,0:0:0:0:
224,128,46561,1,2,0:0:0:0:
280,128,46644,1,2,3:2:0:0:
224,128,46727,1,2,0:0:0:0:
400,160,46811,5,8,0:0:0:0:
416,216,46894,1,0,0:0:0:0:
224,280,46977,1,0,3:0:0:0:
288,280,47060,1,0,0:0:0:0:
64,176,47144,6,0,L|208:176,1,114,4|0,3:2|0:0,0:0:0:0:
0,256,47394,1,8,0:0:0:0:
224,256,47477,1,2,0:0:0:0:
448,176,47644,6,0,L|304:176,1,114,4|0,3:2|0:0,0:0:0:0:
512,256,47894,1,8,0:0:0:0:
288,256,47977,1,2,0:0:0:0:
64,176,48144,6,0,L|208:176,1,114,4|0,3:2|0:0,0:0:0:0:
0,256,48394,1,8,0:0:0:0:
224,256,48477,1,2,0:0:0:0:
448,176,48644,6,0,L|304:176,1,114,4|0,3:2|0:0,0:0:0:0:
512,256,48894,1,8,0:0:0:0:
288,256,48977,1,2,0:0:0:0:
64,176,49144,6,0,L|208:176,1,114,4|0,3:2|0:0,0:0:0:0:
0,256,49394,1,8,0:0:0:0:
224,256,49477,1,2,0:0:0:0:
448,176,49644,6,0,L|304:176,1,114,4|0,3:2|0:0,0:0:0:0:
512,256,49894,1,8,0:0:0:0:
288,256,49977,1,2,0:0:0:0:
64,176,50143,6,0,L|208:176,1,114,4|0,3:2|0:0,0:0:0:0:
0,256,50393,1,8,0:0:0:0:
224,256,50476,1,2,0:0:0:0:
448,176,50643,6,0,L|368:176,1,57,4|2,3:2|0:0,0:0:0:0:
224,176,50810,1,2,0:0:0:0:
368,272,50893,2,0,L|288:272,1,57,0|2,3:2|0:0,0:0:0:0:
144,272,51060,1,2,0:0:0:0:
288,368,51143,2,0,L|208:368,1,57,0|2,3:2|0:0,0:0:0:0:
64,368,51310,1,2,0:0:0:0:
304,80,51393,6,0,L|304:160,1,57,2|0,0:2|0:0,0:0:0:0:
144,224,51560,1,8,0:0:0:0:
304,208,51643,1,2,0:0:0:0:
64,176,51810,6,0,L|208:176,1,114,4|0,3:2|0:0,0:0:0:0:
0,256,52060,1,8,0:0:0:0:
224,256,52143,1,2,0:0:0:0:
448,176,52310,6,0,L|304:176,1,114,4|0,3:2|0:0,0:0:0:0:
512,256,52560,1,8,0:0:0:0:
288,256,52643,1,2,0:0:0:0:
64,176,52810,5,4,3:2:0:0:
240,224,52893,2,0,L|160:224,1,57,2|2,0:2|0:2,0:0:0:0:
336,272,53060,1,0,3:2:0:0:
160,320,53143,2,0,L|240:320,1,57,2|2,0:2|0:2,0:0:0:0:
448,176,53310,6,0,L|304:176,1,114,2|0,0:2|0:0,0:0:0:0:
512,256,53560,1,8,0:0:0:0:
288,256,53643,1,2,0:0:0:0:
32,240,53810,1,4,3:2:0:0:
32,208,53893,1,0,0:0:0:0:
272,192,53976,5,8,0:0:0:0:
240,192,54060,1,0,0:0:0:0:
48,160,54143,2,0,L|112:160,1,57,2|0,3:2|0:0,0:0:0:0:
263,110,54310,6,0,L|205:109,1,57,8|0,0:0|0:0,0:0:0:0:
365,59,54476,2,0,L|363:147,1,57,2|0,3:2|0:0,0:0:0:0:
190,195,54643,5,8,0:0:0:0:
444,198,54810,1,2,3:2:0:0:
430,230,54893,1,0,0:0:0:0:
246,293,54976,6,0,L|306:291,1,57,8|0,0:0|0:0,0:0:0:0:
112,240,55143,2,0,L|176:240,1,57,2|0,3:2|0:0,0:0:0:0:
406,176,55310,6,0,L|278:176,1,114,8|0,0:2|0:0,0:0:0:0:
234,175,55560,1,2,0:0:0:0:
480,128,55643,1,2,0:0:0:0:
240,112,55810,1,0,3:0:0:0:
480,64,55976,6,0,P|409:150|480:173,1,228,10|8,0:0|0:0,0:0:0:0:
256,272,56476,1,8,0:0:0:0:
16,272,56643,5,4,3:2:0:0:
144,256,56699,1,0,3:0:0:0:
272,240,56754,1,0,3:0:0:0:
144,224,56810,2,0,L|80:224,2,57.0000021743775,0|0|0,3:0|3:0|3:0,3:0:0:0:
272,192,56976,2,0,L|352:192,1,57.0000021743775,0|0,3:0|3:0,3:0:0:0:
192,144,57088,2,0,L|128:144,1,57.0000021743775,0|0,3:0|3:0,3:0:0:0:
352,96,57199,2,0,L|432:96,1,57.0000021743775,0|0,3:0|3:0,3:0:0:0:
208,48,57310,5,0,3:0:0:0:
352,48,57365,1,0,3:0:0:0:
496,48,57421,2,0,L|496:112,1,57.0000021743775,0|0,3:0|3:0,3:0:0:0:
320,128,57532,2,0,L|256:128,1,57.0000021743775,0|0,3:0|3:0,3:0:0:0:
416,240,57643,2,0,L|480:240,2,57.0000021743775,0|0|0,3:0|3:0|3:0,3:0:0:0:
288,240,57810,1,0,3:0:0:0:
176,208,57851,1,0,3:0:0:0:
288,176,57894,1,0,3:0:0:0:
400,144,57935,1,0,3:0:0:0:
208,240,57976,5,6,3:2:0:0:
192,240,57997,1,0,0:0:0:0:
304,240,58142,1,2,3:2:0:0:
320,240,58163,1,0,0:0:0:0:
192,176,58310,1,0,0:0:0:0:
480,144,58476,5,2,0:0:0:0:
464,144,58497,1,0,0:0:0:0:
256,192,58643,1,2,3:2:0:0:
256,176,58664,1,0,0:0:0:0:
48,128,58810,1,2,3:2:0:0:
32,128,58831,1,0,0:0:0:0:
320,128,58976,1,0,0:0:0:0:
80,256,59143,1,2,0:0:0:0:
64,256,59164,1,0,0:0:0:0:
336,256,59310,5,0,3:2:0:0:
192,256,59393,1,0,3:2:0:0:
336,256,59476,1,0,0:0:0:0:
384,222,59559,1,0,0:0:0:0:
400,166,59642,1,2,0:0:0:0:
375,113,59726,1,2,0:0:0:0:
322,88,59809,1,0,0:0:0:0:
266,103,59892,1,0,0:0:0:0:
412,127,59976,5,8,0:0:0:0:
266,103,60060,1,8,0:0:0:0:
412,127,60143,1,0,0:0:0:0:
363,118,60226,1,0,0:0:0:0:
316,135,60309,1,2,0:0:0:0:
284,172,60393,1,2,0:0:0:0:
274,221,60476,1,0,0:0:0:0:
290,268,60559,1,0,0:0:0:0:
143,295,60643,5,0,3:0:0:0:
290,268,60726,1,0,3:0:0:0:
143,295,60810,1,0,0:0:0:0:
199,277,60893,1,0,0:0:0:0:
230,227,60976,1,2,0:0:0:0:
222,169,61060,1,2,0:0:0:0:
177,131,61143,1,0,0:0:0:0:
119,130,61226,1,0,0:0:0:0:
265,142,61310,5,8,0:0:0:0:
119,130,61393,1,8,0:0:0:0:
265,142,61476,1,0,0:0:0:0:
319,162,61559,1,0,0:0:0:0:
348,214,61642,1,2,0:0:0:0:
338,271,61726,1,2,0:0:0:0:
292,309,61809,1,0,0:0:0:0:
233,309,61892,1,0,0:0:0:0:
381,323,61976,5,0,3:0:0:0:
233,309,62060,1,0,3:0:0:0:
381,323,62143,1,0,0:0:0:0:
427,309,62226,1,0,0:0:0:0:
452,266,62309,1,2,0:0:0:0:
442,219,62393,1,2,0:0:0:0:
402,191,62476,1,0,0:0:0:0:
354,197,62559,1,0,0:0:0:0:
212,239,62643,5,10,0:0:0:0:
354,197,62810,1,0,3:0:0:0:
212,239,62893,1,0,3:0:0:0:
354,197,62976,1,0,0:0:0:0:
295,199,63059,1,0,0:0:0:0:
250,162,63142,1,2,0:0:0:0:
242,104,63226,1,2,0:0:0:0:
275,55,63309,1,0,0:0:0:0:
332,42,63392,1,0,0:0:0:0:
479,48,63476,5,10,0:0:0:0:
332,42,63643,1,0,3:0:0:0:
479,48,63726,1,0,3:0:0:0:
332,42,63810,6,0,L|256:42,1,57,2|2,0:0|0:0,0:0:0:0:
352,64,63976,2,0,L|428:64,1,57,2|2,0:0|0:0,0:0:0:0:
332,42,64143,6,0,L|256:42,1,57,2|2,0:0|0:0,0:0:0:0:
426,103,64310,2,0,L|502:103,1,57,2|2,0:0|0:0,0:0:0:0:
259,84,64476,6,0,L|259:142,1,57,2|2,0:0|0:0,0:0:0:0:
484,171,64643,2,0,L|421:171,1,57,2|2,3:2|3:2,0:0:0:0:
206,188,64810,6,0,L|276:188,1,57,2|2,3:2|3:2,0:0:0:0:
439,278,64976,6,0,L|363:278,1,57,2|2,3:2|3:2,0:0:0:0:
224,272,65143,5,2,3:2:0:0:
64,272,65226,5,2,3:2:0:0:
352,224,65310,6,0,L|432:224,1,54.7199983300782,4|0,3:2|3:2,0:0:0:0:
256,192,65443,2,0,L|192:192,1,54.7199983300782,0|0,3:2|3:2,0:0:0:0:
368,144,65576,1,0,3:2:0:0:
208,128,65643,6,0,L|208:64,1,54.7199983300782,0|0,3:2|3:2,0:0:0:0:
368,144,65776,2,0,L|288:144,1,54.7199983300782,0|0,3:2|3:2,0:0:0:0:
192,64,65910,1,0,3:2:0:0:
320,144,65976,5,0,3:2:0:0:
456,144,66043,1,0,3:2:0:0:
320,144,66110,1,0,3:2:0:0:
184,144,66176,2,0,L|104:144,1,54.7199983300782,0|0,3:2|3:2,0:0:0:0:
320,144,66310,6,0,L|384:144,1,54.7199983300782,0|0,3:2|3:2,0:0:0:0:
184,144,66443,2,0,L|104:144,1,54.7199983300782,0|0,3:2|3:2,0:0:0:0:
280,140,66576,1,0,3:2:0:0:
136,144,66643,5,0,3:2:0:0:
280,140,66710,2,0,L|360:140,1,54.7199983300782,0|0,3:2|3:2,0:0:0:0:
136,144,66843,2,0,L|72:144,1,54.7199983300782,0|0,3:2|3:2,0:0:0:0:
328,140,66976,6,0,L|392:140,1,54.7199983300782,0|0,3:2|3:2,0:0:0:0:
184,144,67110,2,0,L|104:144,1,54.7199983300782,0|0,3:2|3:2,0:0:0:0:
184,144,67243,1,0,3:2:0:0:
336,288,67310,5,0,3:2:0:0:
496,288,67376,2,0,L|496:208,1,54.7199983300782,0|0,3:2|3:2,0:0:0:0:
336,240,67510,2,0,L|256:240,1,54.7199983300782,0|0,3:2|3:2,0:0:0:0:
144,176,67643,5,0,3:2:0:0:
304,176,67710,1,0,3:2:0:0:
464,176,67776,1,0,3:2:0:0:
288,176,67843,1,0,3:2:0:0:
128,176,67910,1,0,3:2:0:0:
272,176,67976,5,0,3:2:0:0:
464,288,68142,6,0,L|480:288,2,14.25,4|0|0,3:2|3:0|3:0,0:0:0:0:
368,288,68204,1,0,3:0:0:0:
256,344,68225,5,0,3:0:0:0:
240,328,68246,1,0,3:0:0:0:
224,312,68267,1,0,3:0:0:0:
144,288,68287,1,0,3:0:0:0:
48,288,68308,6,0,L|32:288,2,14.25,0|0|0,3:0|3:0|3:0,0:0:0:0:
160,272,68371,1,0,3:0:0:0:
272,256,68392,6,0,L|288:256,2,14.25,0|0|0,3:0|3:0|3:0,0:0:0:0:
176,256,68454,1,0,3:0:0:0:
80,240,68476,6,0,L|64:240,2,14.25,0|0|0,3:0|3:0|3:0,0:0:0:0:
176,224,68537,1,0,3:0:0:0:
256,192,68558,5,0,3:0:0:0:
272,192,68579,1,0,3:0:0:0:
288,192,68600,1,0,3:0:0:0:
376,176,68621,1,0,3:0:0:0:
464,160,68642,6,0,L|480:160,2,14.25,0|0|0,3:0|3:0|3:0,0:0:0:0:
328,144,68704,1,0,3:0:0:0:
192,144,68725,6,0,L|176:144,2,14.25,0|0|0,3:0|3:0|3:0,0:0:0:0:
312,128,68787,1,0,3:0:0:0:
432,128,68808,6,0,L|448:128,2,14.25,0|0|0,3:0|3:0|3:0,0:0:0:0:
324,112,68870,1,0,3:0:0:0:
208,96,68892,6,0,L|192:96,2,14.25,0|0|0,3:0|3:0|3:0,0:0:0:0:
312,96,68954,1,0,3:0:0:0:
416,80,68975,5,0,3:0:0:0:
496,192,69058,2,0,L|512:152,2,38,2|2|2,0:0|0:0|0:0,0:0:0:0:
208,192,69228,5,6,3:2:0:0:
170,192,69269,1,0,0:0:0:0:
133,192,69311,1,0,0:0:0:0:
236,144,69353,1,0,0:0:0:0:
336,128,69394,1,10,0:0:0:0:
373,128,69435,1,0,0:0:0:0:
411,128,69477,1,0,0:0:0:0:
192,96,69561,5,0,3:2:0:0:
176,136,69602,1,0,0:0:0:0:
192,171,69644,1,0,0:0:0:0:
384,192,69728,1,10,0:0:0:0:
432,224,69769,1,0,0:0:0:0:
384,256,69811,1,0,0:0:0:0:
144,256,69894,5,2,3:2:0:0:
125,256,69915,1,0,0:0:0:0:
106,256,69936,1,0,3:0:0:0:
240,224,69978,1,0,3:0:0:0:
259,224,69999,1,0,0:0:0:0:
277,224,70020,1,0,3:0:0:0:
128,208,70061,1,10,0:2:0:0:
90,208,70102,1,0,0:0:0:0:
53,208,70144,1,0,0:0:0:0:
272,160,70228,6,0,L|176:112,1,85.5000032615663,2|0,3:2|0:0,0:0:0:0:
416,80,70394,1,8,0:0:0:0:
448,112,70435,1,0,0:0:0:0:
416,144,70477,1,0,0:0:0:0:
160,272,70561,6,0,L|224:272,1,42.7500016307831,2|0,3:2|3:0,0:0:0:0:
304,240,70644,2,0,L|352:240,1,42.7500016307831,0|0,3:0|3:0,0:0:0:0:
464,192,70728,2,0,L|376:192,1,85.5000032615663,10|0,0:2|0:0,0:0:0:0:
176,112,70894,5,2,3:2:0:0:
152,144,70935,1,0,3:0:0:0:
176,176,70977,1,0,3:0:0:0:
288,176,71019,1,0,3:0:0:0:
400,112,71061,1,10,0:2:0:0:
362,112,71102,1,0,0:0:0:0:
325,112,71144,1,0,0:0:0:0:
218,112,71186,1,0,0:0:0:0:
112,160,71228,6,0,L|64:160,2,42.7500016307831,2|0|2,3:2|0:0|0:0,0:0:0:0:
208,160,71353,1,0,0:0:0:0:
304,160,71394,2,0,L|352:160,2,42.7500016307831,10|0|2,0:0|0:0|0:0,0:0:0:0:
208,160,71519,1,0,0:0:0:0:
112,240,71561,5,2,3:2:0:0:
149,240,71602,1,0,0:0:0:0:
187,240,71644,1,0,0:0:0:0:
360,224,71728,1,2,0:0:0:0:
312,224,71783,1,2,0:0:0:0:
264,224,71839,1,2,0:0:0:0:
384,160,71894,6,0,L|432:160,2,42.7500016307831,2|0|0,3:2|0:0|0:0,0:0:0:0:
272,144,72019,1,0,0:0:0:0:
160,128,72061,2,0,L|112:128,2,42.7500016307831,10|0|0,0:0|0:0|0:0,0:0:0:0:
304,96,72186,1,0,0:0:0:0:
448,48,72228,6,0,L|432:112,1,42.7500016307831,2|0,3:2|0:0,0:0:0:0:
304,144,72311,2,0,L|256:144,1,42.7500016307831
128,112,72394,2,0,L|144:176,1,42.7500016307831,10|0,0:2|0:0,0:0:0:0:
272,208,72477,2,0,L|320:208,1,42.7500016307831
480,272,72561,6,0,L|480:224,1,42.7500016307831,2|0,3:2|0:0,0:0:0:0:
368,224,72644,2,0,L|304:224,1,42.7500016307831
192,224,72728,2,0,L|160:224,2,21.3750008153916,10|0|0,0:2|0:0|0:0,0:0:0:0:
304,176,72811,1,0,0:0:0:0:
322,176,72832,1,0,0:0:0:0:
341,176,72853,1,0,0:0:0:0:
160,176,72894,6,0,L|117:176,1,42.7500016307831,0|0,3:2|3:2,0:0:0:0:
256,176,72978,1,0,3:2:0:0:
360,176,73019,1,0,3:2:0:0:
464,176,73061,2,0,L|512:176,2,42.7500016307831,2|0|0,3:2|0:0|0:0,0:0:0:0:
96,336,73228,5,8,3:2:0:0:
288,272,73311,1,0,3:2:0:0:
352,272,73394,1,0,3:2:0:0:
96,272,73478,5,8,3:2:0:0:
288,304,73561,1,0,3:2:0:0:
352,304,73644,1,0,3:2:0:0:
96,336,73728,5,8,3:2:0:0:
288,336,73811,1,0,3:2:0:0:
352,336,73894,1,0,3:2:0:0:
96,304,73978,5,8,3:2:0:0:
288,320,74061,1,0,3:2:0:0:
352,320,74144,1,0,3:2:0:0:
96,336,74228,5,8,3:2:0:0:
288,320,74311,1,0,3:2:0:0:
352,320,74394,1,0,3:2:0:0:
96,320,74478,5,8,3:2:0:0:
288,320,74561,1,0,3:2:0:0:
352,320,74644,1,0,3:2:0:0:
96,288,74728,5,2,3:2:0:0:
240,288,74811,1,0,3:0:0:0:
384,288,74893,1,0,3:0:0:0:
240,288,74978,1,0,3:0:0:0:
96,288,75061,1,0,3:0:0:0:
64,272,75144,1,0,3:0:0:0:
96,256,75228,1,0,3:0:0:0:
176,256,75311,1,0,3:0:0:0:
256,256,75394,1,0,3:0:0:0:
96,224,75478,1,0,3:0:0:0:
432,240,75644,2,0,L|496:240,2,42.7500016307831,2|2|2,0:0|0:0|0:0,0:0:0:0:
128,224,75811,6,0,L|192:224,1,42.7500016307831,6|0,3:2|0:0,0:0:0:0:
304,176,75894,2,0,L|368:176,1,42.7500016307831
192,128,75977,2,0,L|128:128,1,42.7500016307831,10|0,0:0|0:0,0:0:0:0:
16,96,76061,2,0,L|80:96,1,42.7500016307831
341,63,76144,5,2,3:2:0:0:
359,47,76165,1,0,0:0:0:0:
361,74,76185,1,0,3:0:0:0:
384,61,76206,1,0,0:0:0:0:
377,93,76227,1,0,3:0:0:0:
402,85,76248,1,0,0:0:0:0:
383,119,76269,1,0,3:0:0:0:
409,115,76290,1,0,0:0:0:0:
378,145,76310,1,10,0:2:0:0:
405,146,76331,1,0,0:0:0:0:
366,167,76352,1,0,0:0:0:0:
389,173,76373,1,0,0:0:0:0:
345,181,76394,1,0,0:0:0:0:
234,208,76436,1,0,0:0:0:0:
129,255,76477,5,2,3:2:0:0:
147,255,76498,1,0,0:0:0:0:
165,255,76519,1,0,3:0:0:0:
287,223,76561,1,0,3:0:0:0:
305,223,76582,1,0,0:0:0:0:
323,223,76603,1,0,3:0:0:0:
477,192,76644,1,10,0:2:0:0:
459,192,76665,1,0,0:0:0:0:
440,192,76686,1,0,0:0:0:0:
302,192,76727,1,0,0:0:0:0:
285,192,76748,1,0,0:0:0:0:
266,192,76769,1,0,0:0:0:0:
126,144,76811,5,2,3:2:0:0:
89,141,76852,1,0,0:0:0:0:
60,118,76894,1,0,0:0:0:0:
50,82,76936,1,0,0:0:0:0:
61,48,76977,1,10,0:0:0:0:
91,26,77019,1,0,0:0:0:0:
128,25,77061,1,0,0:0:0:0:
320,160,77144,6,0,L|352:160,1,21.3750008153916,2|0,3:2|0:0,0:0:0:0:
181,172,77186,1,0,3:2:0:0:
155,164,77206,1,0,0:0:0:0:
158,194,77227,1,2,3:2:0:0:
125,193,77247,1,0,0:0:0:0:
148,225,77269,1,0,3:2:0:0:
111,232,77289,1,0,0:0:0:0:
151,256,77311,1,10,3:2:0:0:
117,273,77331,1,0,0:0:0:0:
168,283,77352,1,0,3:2:0:0:
139,302,77373,1,0,0:0:0:0:
288,320,77394,2,0,L|336:320,1,42.7500016307831,2|0,3:2|3:2,0:0:0:0:
160,304,77477,6,0,L|84:257,1,85.5000032615663,2|2,3:2|0:0,0:0:0:0:
87,259,77644,2,0,L|163:307,1,85.5000032615663,10|2,0:0|0:0,0:0:0:0:
432,128,77811,1,2,3:2:0:0:
368,128,77894,1,0,0:0:0:0:
176,128,77977,1,10,0:2:0:0:
432,112,78144,1,2,3:2:0:0:
304,80,78311,1,8,0:0:0:0:
48,64,78477,6,0,L|48:144,1,74.0999966079713,4|0,3:2|0:0,0:0:0:0:
240,192,78644,2,0,L|160:192,1,74.0999966079713,2|0,0:0|0:0,0:0:0:0:
352,128,78811,1,8,0:0:0:0:
144,128,78894,2,0,L|224:128,1,74.0999966079713,0|2,0:0|0:0,0:0:0:0:
400,80,79061,1,0,0:0:0:0:
224,192,79144,2,0,L|304:192,1,74.0999966079713,0|0,3:0|0:0,0:0:0:0:
112,272,79311,2,0,L|192:272,1,74.0999966079713,2|0,0:0|0:0,0:0:0:0:
336,192,79477,2,0,L|269:125,1,74.0999966079713,8|0,0:0|0:0,0:0:0:0:
432,112,79644,1,2,0:0:0:0:
384,112,79727,1,0,0:0:0:0:
208,112,79811,6,0,L|208:224,1,74.0999966079713,0|0,3:2|0:0,0:0:0:0:
352,224,79977,2,0,L|352:300,1,74.0999966079713,2|0,0:0|0:0,0:0:0:0:
208,288,80144,2,0,L|284:288,3,74.0999966079713,8|0|0|0,0:0|0:0|0:0|0:0,0:0:0:0:
448,256,80477,6,0,L|371:256,3,74.0999966079713,0|0|0|0,3:0|0:0|0:0|0:0,0:0:0:0:
224,204,80811,2,0,L|304:204,3,74.0999966079713,8|0|2|0,0:0|0:0|0:0|0:0,0:0:0:0:
448,96,81144,6,0,L|432:192,3,74.0999966079713,0|0|2|0,3:0|0:0|0:0|0:0,0:0:0:0:
240,128,81477,2,0,L|296:77,3,74.0999966079713,8|0|2|0,0:0|0:0|0:0|0:0,0:0:0:0:
48,192,81811,6,0,L|128:192,1,65.550001250267,4|0,3:2|0:0,0:0:0:0:
16,240,81977,2,0,L|94:240,1,65.550001250267
272,288,82144,2,0,L|192:288,1,65.550001250267,10|0,0:0|0:0,0:0:0:0:
305,336,82311,2,0,L|225:336,1,65.550001250267,2|0,0:0|0:0,0:0:0:0:
451,224,82477,2,0,L|451:300,1,65.550001250267,0|0,3:2|0:0,0:0:0:0:
220,224,82644,2,0,L|297:224,1,65.550001250267
448,160,82811,1,10,0:0:0:0:
304,176,82894,1,0,0:0:0:0:
448,112,82977,2,0,L|448:208,1,65.550001250267,2|0,0:0|0:0,0:0:0:0:
256,192,83144,6,0,L|336:192,1,65.550001250267,0|0,3:2|0:0,0:0:0:0:
160,144,83310,1,2,0:0:0:0:
320,128,83394,1,0,0:0:0:0:
160,112,83477,2,0,L|272:112,1,65.550001250267,8|2,0:0|0:0,0:0:0:0:
224,40,83644,1,0,0:0:0:0:
88,88,83727,2,0,L|88:168,1,65.550001250267,2|0,0:0|3:2,0:0:0:0:
288,176,83894,1,2,0:0:0:0:
144,224,83977,2,0,L|220:224,1,65.550001250267,0|2,0:0|0:0,0:0:0:0:
48,304,84144,2,0,L|160:304,3,65.550001250267,8|2|0|0,0:0|0:0|0:0|0:0,0:0:0:0:
352,192,84479,5,4,3:2:0:0:
208,192,84534,2,0,L|144:192,1,45.5999986083985,0|0,3:2|3:2,0:0:0:0:
304,160,84644,2,0,L|368:160,1,45.5999986083985,0|0,3:2|3:2,0:0:0:0:
192,144,84755,2,0,L|128:144,1,45.5999986083985,0|0,3:2|3:2,0:0:0:0:
320,120,84865,2,0,L|384:120,1,45.5999986083985,0|0,3:2|3:2,0:0:0:0:
176,88,84976,2,0,L|112:88,1,45.5999986083985,0|0,3:2|3:2,0:0:0:0:
336,48,85086,1,0,3:0:0:0:
128,80,85141,5,2,3:2:0:0:
112,80,85162,1,0,0:0:0:0:
112,256,87128,6,0,L|112:192,4,57,2|0|0|0|0,0:0|3:2|3:2|3:2|3:2,0:0:0:0:
160,224,87543,1,2,3:2:0:0:
112,206,87626,1,0,3:2:0:0:
192,192,87709,1,0,3:2:0:0:
40,112,87791,6,0,L|40:256,1,125.400003826904,2|0,3:2|0:0,0:0:0:0:
104,256,88039,1,0,0:0:0:0:
184,112,88122,2,0,L|184:256,1,125.400003826904,2|0,3:2|0:0,0:0:0:0:
248,256,88370,1,0,0:0:0:0:
312,224,88453,2,0,L|312:95,1,125.400003826904,2|0,3:2|0:0,0:0:0:0:
392,112,88702,2,0,L|392:256,1,125.400003826904,2|2,3:2|3:2,0:0:0:0:
472,208,88951,1,0,0:0:0:0:
40,112,89116,6,0,L|40:256,1,125.400003826904,2|0,3:2|0:0,0:0:0:0:
104,256,89364,1,0,0:0:0:0:
184,112,89448,2,0,L|184:256,1,125.400003826904,2|0,3:2|0:0,0:0:0:0:
248,256,89697,1,0,0:0:0:0:
312,224,89778,2,0,L|312:96,1,125.400003826904,2|0,3:2|0:0,0:0:0:0:
392,112,90027,2,0,L|392:256,1,125.400003826904,2|2,3:2|3:2,0:0:0:0:
472,208,90276,1,0,0:0:0:0:
40,112,90442,5,2,3:2:0:0:
40,162,90525,1,0,0:0:0:0:
40,212,90608,1,0,0:0:0:0:
104,256,90691,1,0,0:0:0:0:
184,112,90773,1,2,3:2:0:0:
184,162,90857,1,0,0:0:0:0:
184,212,90940,1,0,0:0:0:0:
248,256,91023,1,0,0:0:0:0:
312,224,91105,1,2,3:2:0:0:
312,174,91188,1,0,0:0:0:0:
312,124,91271,1,0,0:0:0:0:
392,112,91354,1,2,3:2:0:0:
392,162,91437,1,0,0:0:0:0:
392,212,91520,1,2,3:2:0:0:
472,208,91603,1,0,0:0:0:0:
472,152,91686,1,0,0:0:0:0:
32,112,91768,6,0,L|32:176,1,62.7000019134522,2|0,3:2|0:0,0:0:0:0:
208,176,91934,2,0,L|208:240,1,62.7000019134522,8|0,0:0|0:0,0:0:0:0:
144,176,92100,2,0,L|144:240,1,62.7000019134522,2|0,3:2|0:0,0:0:0:0:
368,176,92266,2,0,L|368:240,1,62.7000019134522,8|0,0:0|0:0,0:0:0:0:
304,112,92431,2,0,L|304:176,1,62.7000019134522,2|0,3:2|0:0,0:0:0:0:
160,176,92597,2,0,L|96:176,1,62.7000019134522,8|2,0:0|0:0,0:0:0:0:
160,224,92763,2,0,L|160:304,1,62.7000019134522,0|2,0:0|0:0,0:0:0:0:
304,176,92929,2,0,L|368:176,1,62.7000019134522,8|0,0:0|0:0,0:0:0:0:
32,112,93094,6,0,L|32:176,1,62.7000019134522,2|0,3:2|0:0,0:0:0:0:
208,176,93260,2,0,L|208:240,1,62.7000019134522,8|0,0:0|0:0,0:0:0:0:
144,112,93426,2,0,L|144:176,1,62.7000019134522,2|0,3:2|0:0,0:0:0:0:
352,176,93592,2,0,L|352:240,1,62.7000019134522,8|0,0:0|0:0,0:0:0:0:
288,224,93757,2,0,L|224:224,1,62.7000019134522,2|0,3:2|0:0,0:0:0:0:
464,192,93923,2,0,L|400:192,1,62.7000019134522,8|2,0:0|0:0,0:0:0:0:
336,192,94089,2,0,L|336:272,1,62.7000019134522,0|2,0:0|0:0,0:0:0:0:
176,160,94255,2,0,L|240:160,1,62.7000019134522,8|0,0:0|0:0,0:0:0:0:
32,112,94420,6,0,L|32:192,1,62.7000019134522,2|0,3:2|0:0,0:0:0:0:
224,192,94586,2,0,L|224:256,1,62.7000019134522,8|0,0:0|0:0,0:0:0:0:
288,192,94752,2,0,L|288:272,1,62.7000019134522,2|0,3:2|0:0,0:0:0:0:
96,192,94918,2,0,L|96:256,1,62.7000019134522,8|0,0:0|0:0,0:0:0:0:
160,192,95083,2,0,L|160:272,1,62.7000019134522,2|0,3:2|0:0,0:0:0:0:
352,192,95249,2,0,L|352:256,1,62.7000019134522,8|2,0:0|0:0,0:0:0:0:
416,192,95415,2,0,L|416:272,1,62.7000019134522,0|2,0:0|0:0,0:0:0:0:
279,191,95581,2,0,L|215:191,1,62.7000019134522,8|0,0:0|0:0,0:0:0:0:
80,112,95746,6,0,L|80:192,1,62.7000019134522,2|0,3:2|0:0,0:0:0:0:
144,208,95912,2,0,L|80:208,1,62.7000019134522,10|2,0:0|0:0,0:0:0:0:
160,176,96078,2,0,L|96:176,1,62.7000019134522,2|0,3:2|0:0,0:0:0:0:
176,144,96244,2,0,L|112:144,1,62.7000019134522,10|2,0:0|0:0,0:0:0:0:
208,136,96409,2,0,L|274:136,1,62.7000019134522,2|0,3:2|0:0,0:0:0:0:
187,94,96575,2,0,L|253:94,1,62.7000019134522,10|2,0:0|0:0,0:0:0:0:
344,88,96741,2,0,L|410:88,1,62.7000019134522,2|2,3:2|0:0,0:0:0:0:
323,46,96907,2,0,L|389:46,1,62.7000019134522,10|0,0:0|0:0,0:0:0:0:
128,160,97072,6,0,L|128:240,1,62.7000019134522,2|0,3:2|0:0,0:0:0:0:
192,256,97238,2,0,L|128:256,1,62.7000019134522,10|2,0:0|0:0,0:0:0:0:
208,224,97404,2,0,L|144:224,1,62.7000019134522,2|0,3:2|0:0,0:0:0:0:
224,192,97570,2,0,L|160:192,1,62.7000019134522,10|2,0:0|0:0,0:0:0:0:
264,216,97735,2,0,L|327:216,1,62.7000019134522,2|0,3:2|0:0,0:0:0:0:
244,176,97901,2,0,L|307:176,1,62.7000019134522,10|2,0:0|0:0,0:0:0:0:
400,160,98067,2,0,L|467:160,1,62.7000019134522,2|2,3:2|0:0,0:0:0:0:
378,116,98233,2,0,L|446:116,1,62.7000019134522,10|0,0:0|0:0,0:0:0:0:
176,176,98398,6,0,L|176:256,1,62.7000019134522,2|0,3:2|0:0,0:0:0:0:
240,272,98564,2,0,L|176:272,1,62.7000019134522,10|2,0:0|0:0,0:0:0:0:
256,240,98730,2,0,L|192:240,1,62.7000019134522,2|0,3:2|0:0,0:0:0:0:
272,208,98896,2,0,L|208:208,1,62.7000019134522,10|2,0:0|0:0,0:0:0:0:
304,224,99061,2,0,L|370:224,1,62.7000019134522,2|0,3:2|0:0,0:0:0:0:
286,188,99227,2,0,L|352:188,1,62.7000019134522,10|2,0:0|0:0,0:0:0:0:
416,176,99393,2,0,L|480:176,1,62.7000019134522,2|2,3:2|0:0,0:0:0:0:
400,144,99559,2,0,L|464:144,1,62.7000019134522,10|0,0:0|0:0,0:0:0:0:
96,192,99724,6,0,L|96:256,1,62.7000019134522,2|0,3:2|0:0,0:0:0:0:
160,144,99890,2,0,L|160:208,1,62.7000019134522,10|0,0:0|0:0,0:0:0:0:
224,96,100056,2,0,L|160:96,1,62.7000019134522,2|2,3:2|0:0,0:0:0:0:
256,48,100222,2,0,L|192:48,1,62.7000019134522,10|2,0:0|0:0,0:0:0:0:
336,192,100387,2,0,L|400:192,1,62.7000019134522,2|2,3:2|0:0,0:0:0:0:
304,144,100553,2,0,L|368:144,1,62.7000019134522,10|2,0:0|0:0,0:0:0:0:
272,96,100719,2,0,L|352:96,1,62.7000019134522,2|0,3:2|0:0,0:0:0:0:
240,48,100884,2,0,L|336:48,1,62.7000019134522,10|0,0:0|0:0,0:0:0:0:
448,192,101050,6,0,L|448:256,1,62.7000019134522,2|0,3:2|0:0,0:0:0:0:
384,192,101216,2,0,L|448:192,1,62.7000019134522,10|0,0:0|0:0,0:0:0:0:
352,144,101382,2,0,L|416:144,1,62.7000019134522,2|2,3:2|0:0,0:0:0:0:
320,96,101548,2,0,L|384:96,1,62.7000019134522,10|2,0:0|0:0,0:0:0:0:
208,208,101713,2,0,L|144:208,1,62.7000019134522,2|2,3:2|0:0,0:0:0:0:
240,160,101879,2,0,L|176:160,1,62.7000019134522,10|2,0:0|0:0,0:0:0:0:
272,112,102045,2,0,L|192:112,1,62.7000019134522,2|0,3:2|0:0,0:0:0:0:
304,64,102210,2,0,L|208:64,1,62.7000019134522,10|0,0:0|0:0,0:0:0:0:
104,256,102376,6,0,L|40:256,1,62.7000019134522,2|0,3:2|0:0,0:0:0:0:
136,208,102542,2,0,L|72:208,1,62.7000019134522,10|0,0:0|0:0,0:0:0:0:
168,160,102708,2,0,L|104:160,1,62.7000019134522,2|2,3:2|0:0,0:0:0:0:
200,112,102874,2,0,L|136:112,1,62.7000019134522,10|2,0:0|0:0,0:0:0:0:
288,224,103039,2,0,L|352:224,1,62.7000019134522,2|2,3:2|0:0,0:0:0:0:
256,176,103205,2,0,L|320:176,1,62.7000019134522,10|2,0:0|0:0,0:0:0:0:
224,128,103371,2,0,L|304:128,1,62.7000019134522,2|0,3:2|0:0,0:0:0:0:
192,80,103536,2,0,L|288:80,1,62.7000019134522,10|0,0:0|0:0,0:0:0:0:
112,224,103702,6,0,L|48:224,1,62.7000019134522,2|0,3:2|0:0,0:0:0:0:
208,192,103868,2,0,L|144:192,1,62.7000019134522,10|0,3:2|0:0,0:0:0:0:
304,160,104034,2,0,L|240:160,1,62.7000019134522,2|0,3:2|0:0,0:0:0:0:
64,144,104199,2,0,L|128:144,1,62.7000019134522,10|0,3:2|0:0,0:0:0:0:
320,224,104365,6,0,L|384:224,1,62.7000019134522,2|0,3:2|0:0,0:0:0:0:
224,192,104531,2,0,L|288:192,1,62.7000019134522,10|0,3:2|0:0,0:0:0:0:
128,160,104697,2,0,L|192:160,1,62.7000019134522,2|0,3:2|0:0,0:0:0:0:
368,144,104862,2,0,L|304:144,1,62.7000019134522,10|0,3:2|0:0,0:0:0:0:
80,224,105028,6,0,L|16:224,1,62.7000019134522,2|0,3:2|0:0,0:0:0:0:
176,192,105194,2,0,L|112:192,1,62.7000019134522,10|0,3:2|0:0,0:0:0:0:
272,160,105360,2,0,L|208:160,1,62.7000019134522,2|0,3:2|0:0,0:0:0:0:
32,144,105525,2,0,L|96:144,1,62.7000019134522,10|0,3:2|0:0,0:0:0:0:
352,224,105691,6,0,L|416:224,1,62.7000019134522,2|0,3:2|0:0,0:0:0:0:
256,192,105857,2,0,L|320:192,1,62.7000019134522,10|0,3:2|0:0,0:0:0:0:
160,160,106023,2,0,L|224:160,1,62.7000019134522,2|0,3:2|0:0,0:0:0:0:
400,144,106188,2,0,L|336:144,1,62.7000019134522,10|0,3:2|0:0,0:0:0:0:
118,234,106354,6,0,L|54:234,1,62.7000019134522,2|0,3:2|0:0,0:0:0:0:
230,202,106520,2,0,L|166:202,1,62.7000019134522,10|0,3:2|0:0,0:0:0:0:
342,170,106686,2,0,L|278:170,1,62.7000019134522,2|0,3:2|0:0,0:0:0:0:
454,138,106851,2,0,L|390:138,1,62.7000019134522,10|0,3:2|0:0,0:0:0:0:
96,231,107017,6,0,L|32:231,1,62.7000019134522,2|0,3:2|0:0,0:0:0:0:
224,199,107183,2,0,L|160:199,1,62.7000019134522,10|0,3:2|0:0,0:0:0:0:
352,167,107349,2,0,L|288:167,1,62.7000019134522,2|0,3:2|0:0,0:0:0:0:
480,135,107514,2,0,L|418:135,1,62.7000019134522,10|0,3:2|0:0,0:0:0:0:
64,224,107680,6,0,L|160:224,1,62.7000019134522,2|0,3:2|0:2,0:0:0:0:
320,192,107846,2,0,L|224:192,1,62.7000019134522,10|0,0:2|0:2,0:0:0:0:
448,160,108011,2,0,L|384:160,1,62.7000019134522,2|0,3:2|0:2,0:0:0:0:
192,128,108177,2,0,L|288:128,1,62.7000019134522,10|0,0:2|0:2,0:0:0:0:
416,128,108343,5,2,3:2:0:0:
224,96,108426,1,0,0:2:0:0:
384,64,108509,2,0,L|320:64,1,62.7000019134522,10|0,0:2|0:2,0:0:0:0:
480,32,108674,2,0,L|416:32,1,62.7000019134522,2|0,3:2|0:2,0:0:0:0:
224,128,108840,2,0,L|288:128,1,62.7000019134522,10|0,0:2|0:2,0:0:0:0:
448,160,109006,6,0,L|352:160,1,62.7000019134522,2|0,3:2|0:2,0:0:0:0:
192,192,109172,2,0,L|288:192,1,62.7000019134522,10|0,0:2|0:2,0:0:0:0:
64,224,109337,2,0,L|128:224,1,62.7000019134522,2|0,3:2|0:2,0:0:0:0:
320,256,109503,2,0,L|224:256,1,62.7000019134522,10|0,0:2|0:2,0:0:0:0:
112,288,109669,5,2,3:2:0:0:
288,288,109752,1,0,0:2:0:0:
128,320,109835,2,0,L|192:320,1,62.7000019134522,10|0,0:2|0:2,0:0:0:0:
32,352,110000,2,0,L|96:352,1,62.7000019134522,2|0,3:2|0:2,0:0:0:0:
288,256,110166,2,0,L|224:256,1,62.7000019134522,10|0,0:2|0:2,0:0:0:0:
448,192,110332,5,2,3:2:0:0:
256,192,110415,1,0,0:2:0:0:
416,256,110498,2,0,L|320:256,1,62.7000019134522,10|0,0:2|0:2,0:0:0:0:
512,288,110663,2,0,L|416:288,1,62.7000019134522,2|0,3:2|0:2,0:0:0:0:
256,320,110829,2,0,L|352:320,1,62.7000019134522,10|0,0:2|0:2,0:0:0:0:
96,256,110995,5,2,3:2:0:0:
320,256,111078,1,0,0:2:0:0:
160,192,111161,2,0,L|224:192,1,62.7000019134522,10|0,0:2|0:2,0:0:0:0:
136,128,111326,2,0,L|200:128,1,62.7000019134522,2|0,3:2|0:2,0:0:0:0:
112,64,111492,2,0,L|176:64,1,62.7000019134522,10|0,0:2|0:2,0:0:0:0:
368,176,111658,5,2,3:2:0:0:
208,192,111741,2,0,L|272:192,1,62.7000019134522,0|10,0:0|0:0,0:0:0:0:
96,224,111907,1,0,0:0:0:0:
256,240,111990,2,0,L|192:240,1,62.7000019134522,2|0,3:2|0:0,0:0:0:0:
368,304,112155,2,0,L|272:304,1,62.7000019134522,10|2,0:0|0:0,0:0:0:0:
96,320,112321,6,0,L|160:320,1,62.7000019134522,2|0,3:2|0:0,0:0:0:0:
320,272,112487,1,10,0:0:0:0:
160,256,112570,1,0,0:0:0:0:
352,224,112652,2,0,L|288:224,3,62.7000019134522,2|0|10|2,3:2|0:0|0:0|0:0,0:0:0:0:
128,176,112984,5,2,3:2:0:0:
288,192,113067,2,0,L|224:192,1,62.7000019134522,0|10,0:0|0:0,0:0:0:0:
400,224,113233,1,0,0:0:0:0:
240,240,113316,2,0,L|304:240,1,62.7000019134522,2|0,3:2|0:0,0:0:0:0:
128,304,113481,2,0,L|224:304,1,62.7000019134522,10|2,0:0|0:0,0:0:0:0:
400,320,113647,6,0,L|336:320,1,62.7000019134522,2|0,3:2|0:0,0:0:0:0:
176,272,113813,1,10,0:0:0:0:
336,256,113896,1,0,0:0:0:0:
144,224,113978,2,0,L|208:224,3,62.7000019134522,2|0|10|2,3:2|0:0|0:0|0:0,0:0:0:0:
368,176,114310,5,2,3:2:0:0:
208,192,114393,2,0,L|272:192,1,62.7000019134522,0|10,0:0|0:0,0:0:0:0:
96,224,114559,1,0,0:0:0:0:
256,240,114642,2,0,L|192:240,1,62.7000019134522,2|0,3:2|0:0,0:0:0:0:
368,304,114807,2,0,L|272:304,1,62.7000019134522,10|2,0:0|0:0,0:0:0:0:
96,320,114973,6,0,L|160:320,1,62.7000019134522,2|0,3:2|0:0,0:0:0:0:
320,272,115139,1,10,0:0:0:0:
160,256,115222,1,0,0:0:0:0:
352,224,115304,2,0,L|288:224,3,62.7000019134522,2|0|10|2,3:2|0:0|0:0|0:0,0:0:0:0:
128,176,115636,5,6,3:2:0:0:
288,192,115719,2,0,L|224:192,1,62.7000019134522,0|10,0:0|3:2,0:0:0:0:
400,224,115885,1,0,3:2:0:0:
240,240,115968,2,0,L|304:240,1,62.7000019134522,2|0,3:2|3:2,0:0:0:0:
128,304,116133,2,0,L|224:304,1,62.7000019134522,10|0,3:2|3:2,0:0:0:0:
400,320,116299,6,0,L|336:320,1,62.7000019134522,6|0,3:2|0:0,0:0:0:0:
176,272,116465,1,10,3:2:0:0:
336,256,116548,1,0,3:2:0:0:
144,224,116630,2,0,L|208:224,3,62.7000019134522,2|0|10|0,3:2|3:2|3:2|3:2,0:0:0:0:
384,160,116962,6,0,L|368:224,1,62.7000019134522,6|0,3:2|0:0,0:0:0:0:
224,272,117128,1,10,3:2:0:0:
368,272,117210,1,0,3:2:0:0:
224,272,117293,1,2,3:2:0:0:
80,272,117375,1,0,3:2:0:0:
224,272,117459,1,10,3:2:0:0:
368,272,117542,1,0,3:2:0:0:
160,176,117625,6,0,L|177:237,1,62.7000019134522,6|0,3:2|0:0,0:0:0:0:
320,249,117791,1,10,3:2:0:0:
147,249,117873,1,0,3:2:0:0:
320,249,117956,1,2,3:2:0:0:
492,249,118038,1,0,3:2:0:0:
320,249,118122,1,10,3:2:0:0:
147,249,118205,1,0,3:2:0:0:
384,208,118288,6,0,L|416:208,1,28.5,6|0,3:2|3:2,0:0:0:0:
253,209,118371,1,0,3:2:0:0:
227,212,118412,1,0,3:2:0:0:
205,195,118453,1,0,3:2:0:0:
204,168,118495,1,0,3:2:0:0:
224,149,118536,1,0,3:2:0:0:
250,150,118578,1,0,3:2:0:0:
384,160,118619,6,0,L|432:160,1,28.5,0|0,3:0|3:0,0:0:0:0:
409,160,118702,2,0,L|361:160,1,28.5,0|0,3:0|3:0,0:0:0:0:
259,96,118785,2,0,L|211:96,1,28.5,0|0,3:0|3:0,0:0:0:0:
234,96,118868,2,0,L|282:96,1,28.5,0|0,3:0|3:0,0:0:0:0:
384,208,118951,6,0,L|416:208,1,28.5,6|0,3:2|3:2,0:0:0:0:
240,208,119034,1,0,3:2:0:0:
214,211,119075,1,0,3:2:0:0:
193,194,119116,1,0,3:2:0:0:
192,167,119158,1,0,3:2:0:0:
211,148,119199,1,0,3:2:0:0:
237,149,119241,1,0,3:2:0:0:
392,160,119282,6,0,L|440:160,1,28.5,0|0,3:0|3:0,0:0:0:0:
417,160,119365,2,0,L|369:160,1,28.5,0|0,3:0|3:0,0:0:0:0:
240,96,119448,2,0,L|192:96,1,28.5,0|0,3:0|3:0,0:0:0:0:
215,96,119531,2,0,L|263:96,1,28.5,0|0,3:0|3:0,0:0:0:0:
384,208,119614,6,0,L|416:208,1,28.5,6|0,3:2|3:2,0:0:0:0:
224,208,119697,1,0,3:2:0:0:
198,211,119738,1,0,3:2:0:0:
177,194,119779,1,0,3:2:0:0:
176,167,119821,1,0,3:2:0:0:
195,148,119862,1,0,3:2:0:0:
221,149,119904,1,0,3:2:0:0:
400,160,119945,6,0,L|448:160,1,28.5,0|0,3:0|3:0,0:0:0:0:
425,160,120028,2,0,L|377:160,1,28.5,0|0,3:0|3:0,0:0:0:0:
224,96,120111,2,0,L|176:96,1,28.5,0|0,3:0|3:0,0:0:0:0:
199,96,120194,2,0,L|247:96,1,28.5,0|0,3:0|3:0,0:0:0:0:
384,208,120277,6,0,L|416:208,1,28.5,6|0,3:2|3:2,0:0:0:0:
208,208,120360,1,0,3:2:0:0:
182,211,120401,1,0,3:2:0:0:
161,194,120442,1,0,3:2:0:0:
160,167,120484,1,0,3:2:0:0:
179,148,120525,1,0,3:2:0:0:
205,149,120567,1,0,3:2:0:0:
408,160,120608,6,0,L|456:160,1,28.5,0|0,3:0|3:0,0:0:0:0:
433,160,120691,2,0,L|385:160,1,28.5,0|0,3:0|3:0,0:0:0:0:
208,96,120774,2,0,L|160:96,1,28.5,0|0,3:0|3:0,0:0:0:0:
183,96,120857,2,0,L|231:96,1,28.5,0|0,3:0|3:0,0:0:0:0:
384,208,120940,6,0,L|416:208,1,28.5,6|0,3:2|3:2,0:0:0:0:
192,208,121023,1,0,3:2:0:0:
166,211,121064,1,0,3:2:0:0:
145,194,121105,1,0,3:2:0:0:
144,167,121147,1,0,3:2:0:0:
264,152,121188,1,0,3:2:0:0:
290,153,121230,1,0,3:2:0:0:
416,160,121271,6,0,L|464:160,1,28.5,0|0,3:0|3:0,0:0:0:0:
441,160,121354,2,0,L|393:160,1,28.5,0|0,3:0|3:0,0:0:0:0:
192,96,121437,2,0,L|144:96,1,28.5,0|0,3:0|3:0,0:0:0:0:
167,96,121520,2,0,L|215:96,1,28.5,0|0,3:0|3:0,0:0:0:0:
384,208,121603,6,0,L|416:208,1,28.5,6|0,3:2|3:2,0:0:0:0:
176,208,121686,1,0,3:2:0:0:
150,211,121727,1,0,3:2:0:0:
129,194,121768,1,0,3:2:0:0:
128,167,121810,1,0,3:2:0:0:
232,160,121851,1,0,3:2:0:0:
336,160,121893,1,0,3:2:0:0:
432,160,121934,6,0,L|480:160,1,28.5,2|2,3:2|3:2,0:0:0:0:
320,96,122017,2,0,L|272:96,1,28.5,2|2,3:2|3:2,0:0:0:0:
64,96,122100,2,0,L|16:96,1,28.5,2|2,3:2|3:2,0:0:0:0:
176,48,122183,2,0,L|224:48,1,28.5,2|0,3:2|0:0,0:0:0:0:
424,168,122266,6,0,L|495:168,1,45.5999986083985,2|0,0:0|0:0,0:0:0:0:
88,192,122376,6,0,L|18:192,1,45.5999986083985,2|0,0:0|0:0,0:0:0:0:
420,159,122487,6,0,L|490:159,1,45.5999986083985,2|0,0:0|0:0,0:0:0:0:
93,183,122597,6,0,L|22:183,1,45.5999986083985,2|2,0:0|0:0,0:0:0:0:
416,150,122708,6,0,L|486:150,1,45.5999986083985,2|2,0:0|0:0,0:0:0:0:
160,176,122818,6,0,L|90:176,1,45.5999986083985,0|0,3:2|3:2,0:0:0:0:
411,141,122929,6,0,L|482:141,1,45.5999986083985,2|2,0:0|0:0,0:0:0:0:
101,165,123039,6,0,L|31:165,1,45.5999986083985,2|2,0:0|0:0,0:0:0:0:
288,160,123150,5,10,0:0:0:0:
384,160,123177,1,8,0:0:0:0:
480,160,123205,1,10,0:0:0:0:
106,157,123260,6,0,L|35:157,1,45.5999986083985,2|0,0:0|0:0,0:0:0:0:
402,124,123371,6,0,L|473:124,1,45.5999986083985
110,148,123481,6,0,L|40:148,1,45.5999986083985
398,115,123592,6,0,L|468:115,1,45.5999986083985,2|0,3:2|0:0,0:0:0:0:
115,139,123702,6,0,L|44:139,1,45.5999986083985
394,106,123813,6,0,L|464:106,1,45.5999986083985
208,144,123923,6,0,L|138:144,1,45.5999986083985,0|0,3:2|3:2,0:0:0:0:
304,128,124034,6,0,L|375:128,1,45.5999986083985,0|0,3:2|3:2,0:0:0:0:
216,112,124144,6,0,L|146:112,1,45.5999986083985,0|0,3:2|3:2,0:0:0:0:
472,192,124255,5,4,3:2:0:0:
496,192,124276,1,0,0:0:0:0:
472,192,124297,1,0,0:0:0:0:
16,176,124512,5,2,0:0:0:0:
496,176,124597,5,2,0:0:0:0:
