osu file format v14

[General]
AudioFilename: audio.mp3
AudioLeadIn: 0
PreviewTime: 30381
Countdown: 0
SampleSet: Soft
StackLeniency: 0.3
Mode: 0
LetterboxInBreaks: 0
WidescreenStoryboard: 1

[Editor]
DistanceSpacing: 1
BeatDivisor: 4
GridSize: 4
TimelineZoom: 1

[Metadata]
Title:Galactik Football
TitleUnicode:Galactik Football
Artist:Marc Tomasi & Mehdi Elmorabit
ArtistUnicode:Marc Tomasi & Mehdi Elmorabit
Creator:Pachiru
Version:Liuth's Normal
Source:Galactik Football
Tags:liuth cartoon snow kids shadows
BeatmapID:1456969
BeatmapSetID:687708

[Difficulty]
HPDrainRate:3
CircleSize:3.5
OverallDifficulty:4
ApproachRate:5
SliderMultiplier:2
SliderTickRate:1

[Events]
//Background and Video events
0,0,"galactik-football.jpg",0,0
Video,0,"galactik.avi"
//Break Periods
//Storyboard Layer 0 (Background)
//Storyboard Layer 1 (Fail)
//Storyboard Layer 2 (Pass)
//Storyboard Layer 3 (Foreground)
//Storyboard Sound Samples

[TimingPoints]
16,689.655172413793,4,2,1,20,1,0
16,-100,4,2,1,20,0,0
360,-100,4,2,1,30,0,0
705,-100,4,2,1,40,0,0
30360,-100,4,2,1,40,0,1
41395,-100,4,2,1,40,0,0
52429,-100,4,2,1,40,0,1
57947,-100,4,2,1,40,0,0

[Colours]
Combo1 : 73,155,169
Combo2 : 159,0,0
Combo3 : 16,119,194

[HitObjects]
124,268,16,6,0,P|192:276|232:248,1,100,0|0,0:0|0:0,0:0:0:0:
288,188,705,2,0,P|352:192|388:220,1,100,2|2,0:0|0:0,0:0:0:0:
460,272,1395,1,8,3:0:0:0:
376,328,1740,1,8,3:0:0:0:
276,328,2084,1,8,3:0:0:0:
196,272,2429,1,8,3:0:0:0:
168,176,2774,6,0,L|144:72,1,100,4|0,1:0|0:0,0:0:0:0:
216,8,3464,2,0,P|260:36|316:36,1,100,8|0,3:0|0:0,0:0:0:0:
408,44,4153,2,0,P|460:64|488:108,2,100,0|0|8,0:0|0:0|3:0,0:0:0:0:
307,38,5188,1,0,0:0:0:0:
216,76,5533,6,0,B|176:84|176:84|100:56|100:56|108:96|88:140,1,200,0|8,3:0|3:0,0:0:0:0:
40,220,6567,1,0,0:0:0:0:
60,320,6912,2,0,B|111:309|136:256|136:256|177:270|177:270|228:252,1,200,0|8,0:0|3:0,0:0:0:0:
320,216,7947,2,0,L|380:228,1,50,0|0,0:0|0:0,0:0:0:0:
420,232,8291,6,0,B|448:188|448:188|444:136,2,100,4|0|8,0:0|0:0|3:0,0:0:0:0:
360,312,9326,1,0,0:0:0:0:
264,304,9671,2,0,P|208:296|152:312,1,100,0|0,0:0|0:0,0:0:0:0:
72,344,10360,1,8,3:0:0:0:
28,256,10705,2,0,L|12:196,1,50,0|0,0:0|0:0,0:0:0:0:
20,156,11050,6,0,P|76:176|124:160,1,100,0|0,3:0|0:0,0:0:0:0:
212,144,11740,2,0,P|272:156|308:192,1,100,8|0,3:0|0:0,0:0:0:0:
356,264,12429,1,4,0:0:0:0:
292,340,12774,1,0,0:0:0:0:
192,340,13119,1,4,0:0:0:0:
161,142,13809,6,0,B|225:66|225:66|273:94|329:82,1,200,4|8,1:1|3:0,0:0:0:0:
420,84,14843,1,0,0:0:0:0:
360,4,15188,2,0,P|320:100|372:172,1,200,0|8,0:0|3:0,0:0:0:0:
456,220,16222,1,0,0:0:0:0:
392,296,16567,6,0,B|272:292,1,100,0|0,3:0|3:0,0:0:0:0:
200,328,17257,1,8,3:0:0:0:
116,260,17602,1,0,0:0:0:0:
80,168,17947,2,0,P|72:120|100:68,1,100,0|0,0:0|0:0,0:0:0:0:
180,24,18636,1,8,3:0:0:0:
276,52,18981,2,0,L|324:40,1,50,0|0,0:0|0:0,0:0:0:0:
376,40,19326,6,0,P|416:76|424:128,1,100,4|0,0:0|0:0,0:0:0:0:
372,204,20015,2,0,P|332:168|324:116,1,100,8|0,3:0|0:0,0:0:0:0:
376,40,20705,2,0,P|304:24|252:48,1,100,0|0,0:0|0:0,0:0:0:0:
184,64,21395,1,8,3:0:0:0:
220,156,21740,1,0,0:0:0:0:
124,188,22084,6,0,P|75:195|28:178,1,100,10|0,3:0|0:0,0:0:0:0:
92,96,22774,2,0,P|124:184|76:280,1,200,8|8,3:0|3:0,0:0:0:0:
12,348,23809,1,0,0:0:0:0:
81,275,24153,2,0,P|149:263|193:279,1,100,8|8,3:0|3:0,0:0:0:0:
272,308,24843,6,0,P|328:316|372:292,1,100,4|0,3:2|0:0,0:0:0:0:
400,260,25360,2,0,L|380:148,1,100,10|0,3:0|0:0,0:0:0:0:
372,112,25878,2,0,P|428:124|506:69,2,150,10|10|8,3:0|3:0|3:0,0:0:0:0:
283,65,27257,1,4,0:0:0:0:
199,120,27602,6,0,L|199:184,2,50,2|0|8,0:0|0:0|3:0,0:0:0:0:
114,66,28291,1,8,3:0:0:0:
66,54,28464,2,0,P|38:98|47:152,1,100,0|0,0:0|0:0,0:0:0:0:
244,220,29671,1,8,3:0:0:0:
244,220,30360,5,4,1:0:0:0:
336,256,30705,2,0,P|392:272|444:256,2,100,0|8|0,0:0|3:0|0:0,0:0:0:0:
244,220,31740,1,4,3:0:0:0:
152,260,32084,2,0,P|108:304|104:352,2,100,0|8|0,0:0|3:0|0:0,0:0:0:0:
244,220,33119,5,4,3:0:0:0:
336,256,33464,2,0,P|388:264|436:240,1,100,0|8,0:0|3:0,0:0:0:0:
484,160,34153,1,0,0:0:0:0:
408,96,34498,2,0,L|301:91,1,100,8|0,3:0|0:0,0:0:0:0:
216,132,35188,2,0,L|114:125,1,100,8|0,3:0|0:0,0:0:0:0:
28,80,35878,5,4,3:0:0:0:
32,180,36222,2,0,L|20:244,1,50,0|0,0:0|0:0,0:0:0:0:
8,276,36567,2,0,P|64:264|112:276,1,100,8|0,3:0|0:0,0:0:0:0:
200,304,37257,1,4,3:0:0:0:
296,276,37602,2,0,L|348:268,1,50,0|0,0:0|0:0,0:0:0:0:
392,284,37947,2,0,B|428:248|428:248|444:200,1,100,8|0,3:0|0:0,0:0:0:0:
448,100,38636,5,4,3:0:0:0:
348,120,38981,2,0,P|296:128|240:104,2,100,0|8|0,0:0|3:0|0:0,0:0:0:0:
384,28,40016,2,0,P|336:12|288:20,1,100,8|0,3:0|0:0,0:0:0:0:
192,48,40705,1,8,3:0:0:0:
96,76,41050,1,8,3:0:0:0:
52,166,41395,6,0,B|56:230|20:274|20:274|68:278|100:314,1,200,4|0,1:0|3:0,0:0:0:0:
196,300,42429,1,0,0:0:0:0:
292,276,42774,2,0,B|360:272|408:312|408:312|424:216,1,200,0|8,0:0|3:0,0:0:0:0:
432,136,43809,1,0,0:0:0:0:
448,36,44153,6,0,B|376:24|336:80|336:80|296:76|260:96,1,200,0|8,3:0|3:0,0:0:0:0:
184,152,45188,1,0,0:0:0:0:
160,249,45533,2,0,P|216:249|252:221,1,100,0|0,0:0|0:0,0:0:0:0:
318,150,46222,2,0,P|365:137|411:155,1,100,8|0,3:0|0:0,0:0:0:0:
492,220,46912,6,0,P|504:272|488:328,2,100,4|0|8,0:0|0:0|3:0,0:0:0:0:
424,148,47947,1,0,0:0:0:0:
324,156,48291,2,0,P|272:164|212:136,1,100,0|0,0:0|0:0,0:0:0:0:
144,96,48981,1,8,3:0:0:0:
60,44,49326,1,0,0:0:0:0:
144,96,49671,6,0,B|148:148|148:148|128:200,1,100,4|0,0:0|0:0,0:0:0:0:
92,284,50360,2,0,B|196:284|172:352|276:352,1,200,8|0,3:0|0:0,0:0:0:0:
372,340,51395,1,8,3:0:0:0:
460,292,51740,1,12,3:0:0:0:
460,192,52084,1,8,3:0:0:0:
372,144,52429,6,0,P|324:160|276:144,1,100,4|0,1:0|0:0,0:0:0:0:
232,120,52947,2,0,L|196:228,1,100,10|0,3:0|0:0,0:0:0:0:
180,260,53464,2,0,P|132:276|36:238,2,150,10|10|4,3:0|3:0|0:0,0:0:0:0:
366,331,55188,6,0,L|310:343,1,50,8|8,3:0|3:0,0:0:0:0:
219,364,55705,2,0,L|203:316,1,50,8|8,3:0|3:0,0:0:0:0:
176,220,56222,2,0,L|100:240,1,50,8|8,3:0|3:0,0:0:0:0:
31,262,56740,2,0,L|11:210,2,50,8|0|8,3:0|0:0|3:0,0:0:0:0:
52,307,57257,2,0,P|88:347|136:359,1,100,8|8,3:0|3:0,0:0:0:0:
225,326,57947,2,0,L|285:334,1,50,12|8,3:0|3:0,0:0:0:0:
323,341,58291,5,4,1:0:0:0:
