osu file format v14

[General]
AudioFilename: audio.mp3
AudioLeadIn: 0
PreviewTime: 30381
Countdown: 0
SampleSet: Soft
StackLeniency: 0.3
Mode: 0
LetterboxInBreaks: 0
WidescreenStoryboard: 1

[Editor]
DistanceSpacing: 1.4
BeatDivisor: 4
GridSize: 4
TimelineZoom: 2

[Metadata]
Title:Galactik Football
TitleUnicode:Galactik Football
Artist:Marc Tomasi & Mehdi Elmorabit
ArtistUnicode:Marc Tomasi & Mehdi Elmorabit
Creator:Pachiru
Version:Insane
Source:Galactik Football
Tags:liuth cartoon snow kids shadows
BeatmapID:1455352
BeatmapSetID:687708

[Difficulty]
HPDrainRate:6
CircleSize:4
OverallDifficulty:7
ApproachRate:8.5
SliderMultiplier:3.1
SliderTickRate:1

[Events]
//Background and Video events
Video,0,"galactik.avi"
0,0,"galactik-football.jpg",0,0
//Break Periods
//Storyboard Layer 0 (Background)
//Storyboard Layer 1 (Fail)
//Storyboard Layer 2 (Pass)
//Storyboard Layer 3 (Foreground)
//Storyboard Sound Samples

[TimingPoints]
16,689.655172413793,4,2,1,20,1,0
16,-100,4,2,1,20,0,0
360,-100,4,2,1,30,0,0
705,-100,4,2,1,40,0,0
30360,-100,4,2,1,40,0,1
41395,-100,4,2,1,40,0,0
52429,-100,4,2,1,40,0,1
57947,-100,4,2,1,40,0,0

[Colours]
Combo1 : 73,155,169
Combo2 : 159,0,0
Combo3 : 16,119,194

[HitObjects]
32,260,15,5,0,0:0:0:0:
60,332,187,1,0,0:0:0:0:
144,332,359,1,0,0:0:0:0:
172,260,533,1,0,0:0:0:0:
96,132,705,2,0,L|104:216,1,77.5,2|2,2:0|0:0,0:0:0:0:
200,64,1050,2,0,L|192:141,1,77.5,2|2,0:0|0:0,0:0:0:0:
300,264,1396,5,8,3:0:0:0:
412,139,1568,1,8,3:0:0:0:
415,260,1740,1,8,3:0:0:0:
291,148,1912,1,8,3:0:0:0:
360,320,2085,5,8,3:0:0:0:
347,80,2257,1,8,3:0:0:0:
234,210,2430,1,8,3:0:0:0:
474,195,2602,1,8,3:0:0:0:
291,148,2775,6,0,P|260:72|296:8,1,155,4|0,1:0|0:0,0:0:0:0:
347,80,3292,1,0,0:0:0:0:
292,228,3464,2,0,L|196:228,2,77.5,8|0|0,3:0|0:0|0:0,0:0:0:0:
376,364,3982,2,0,L|380:276,1,77.5,4|0,0:0|0:0,0:0:0:0:
472,168,4327,2,0,L|468:245,1,77.5,4|0,0:0|0:0,0:0:0:0:
384,192,4671,1,0,0:0:0:0:
256,344,4844,2,0,P|188:372|116:344,1,155,8|0,3:0|0:0,0:0:0:0:
76,268,5361,1,0,0:0:0:0:
152,140,5533,6,0,L|144:220,1,77.5,0|0,3:0|0:0,0:0:0:0:
4,136,5878,2,0,L|12:216,1,77.5
76,60,6223,2,0,B|200:48|200:48|178:69,1,155,8|0,3:0|0:0,0:0:0:0:
143,216,6740,2,0,P|181:223|218:215,1,77.5,4|0,0:0|0:0,0:0:0:0:
371,158,7085,2,0,P|333:151|296:160,1,77.5,4|0,0:0|0:0,0:0:0:0:
336,236,7430,1,0,0:0:0:0:
460,88,7602,2,0,L|452:256,1,155,8|0,3:0|0:0,0:0:0:0:
448,328,8120,1,0,0:0:0:0:
296,256,8292,6,0,L|384:264,1,77.5,4|0,0:0|0:0,0:0:0:0:
248,344,8637,2,0,L|328:352,1,77.5
340,168,8982,2,0,L|262:160,2,77.5,8|0|0,3:0|0:0|0:0,0:0:0:0:
204,216,9499,2,0,P|184:176|188:132,1,77.5,4|0,0:0|0:0,0:0:0:0:
60,216,9844,2,0,P|78:182|79:143,1,77.5,4|0,0:0|0:0,0:0:0:0:
132,76,10189,1,0,0:0:0:0:
60,216,10361,2,0,B|64:332|64:332|96:292,1,155,8|0,3:0|0:0,0:0:0:0:
144,236,10878,1,0,0:0:0:0:
248,344,11051,6,0,P|208:352|164:340,1,77.5,0|0,3:0|0:0,0:0:0:0:
292,208,11396,2,0,P|300:245|292:283,1,77.5
212,160,11740,2,0,P|204:122|212:84,1,77.5,8|0,3:0|0:0,0:0:0:0:
288,124,12085,1,0,0:0:0:0:
216,248,12258,1,0,0:0:0:0:
64,160,12430,6,0,B|137:136|137:136|288:197,1,232.5,4|0,0:0|0:0,0:0:0:0:
356,170,13120,2,0,B|284:195|284:195|118:128,1,232.5,4|0,0:0|0:0,0:0:0:0:
56,344,13809,6,0,L|228:336,1,155,12|0,0:3|0:0,0:0:0:0:
296,332,14327,1,0,0:0:0:0:
200,176,14498,2,0,L|204:272,2,77.5,8|0|0,3:0|0:0|0:0,0:0:0:0:
272,40,15016,2,0,P|278:91|264:124,1,77.5,4|0,0:0|0:0,0:0:0:0:
116,46,15361,2,0,P|114:98|132:129,1,77.5,4|0,0:0|0:0,0:0:0:0:
196,76,15706,1,0,0:0:0:0:
292,200,15878,2,0,B|343:196|343:196|371:186|371:186|399:192|399:192|447:189,1,155,8|0,3:0|0:0,0:0:0:0:
512,140,16395,1,0,0:0:0:0:
416,36,16567,6,0,L|424:120,1,77.5,0|0,3:0|0:0,0:0:0:0:
296,44,16913,2,0,L|304:128,1,77.5
456,232,17258,2,0,B|377:213|377:213|306:242,1,155,8|0,3:0|0:0,0:0:0:0:
184,332,17774,2,0,P|224:340|268:328,1,77.5,4|0,0:0|0:0,0:0:0:0:
132,260,18120,2,0,P|92:252|48:264,1,77.5,4|0,0:0|0:0,0:0:0:0:
100,332,18464,1,0,0:0:0:0:
220,248,18637,2,0,L|212:84,1,155,8|0,3:0|0:0,0:0:0:0:
152,32,19154,1,0,0:0:0:0:
19,143,19327,6,0,L|11:39,1,77.5,4|0,0:0|0:0,0:0:0:0:
123,199,19671,2,0,L|128:121,1,77.5
65,264,20016,2,0,P|109:288|157:280,2,77.5,8|0|0,3:0|0:0|0:0,0:0:0:0:
217,247,20533,2,0,P|229:291|213:335,1,77.5,4|0,0:0|0:0,0:0:0:0:
340,247,20878,2,0,P|328:283|335:321,1,77.5,4|0,0:0|0:0,0:0:0:0:
428,289,21223,1,0,0:0:0:0:
280,164,21395,2,0,L|436:152,1,155,8|0,3:0|0:0,0:0:0:0:
268,56,22085,6,0,L|104:68,1,155,2|0,3:0|0:0,0:0:0:0:
60,160,22602,2,0,L|214:148,1,155,2|0,3:0|0:0,0:0:0:0:
264,232,23120,2,0,L|100:244,1,155,2|0,3:0|0:0,0:0:0:0:
53,322,23636,1,8,3:0:0:0:
287,379,23981,1,4,3:0:0:0:
353,298,24154,1,8,3:0:0:0:
281,162,24499,2,0,L|288:247,1,77.5,8|0,3:0|0:0,0:0:0:0:
352,116,24844,6,0,P|292:80|212:112,1,155,10|0,3:0|0:0,0:0:0:0:
156,180,25360,2,0,P|84:202|21:162,1,155,10|0,3:0|0:0,0:0:0:0:
36,72,25878,2,0,P|107:49|170:89,1,155,10|0,3:0|0:0,0:0:0:0:
236,156,26395,2,0,P|307:178|370:138,1,155,10|0,3:0|0:0,0:0:0:0:
292,88,26912,1,8,3:0:0:0:
332,264,27258,1,4,0:0:0:0:
148,232,27602,6,0,L|252:220,1,77.5,2|0,0:0|0:0,0:0:0:0:
160,336,27947,1,8,3:0:0:0:
140,132,28292,1,8,3:0:0:0:
84,308,28464,2,0,P|52:268|72:172,1,155,0|0,3:0|0:0,0:0:0:0:
140,132,28981,2,0,L|296:116,1,155,0|8,3:3|3:0,0:0:0:0:
294,116,29671,1,0,3:0:0:0:
294,116,30361,6,0,L|456:95,1,155,4|0,1:0|0:0,0:0:0:0:
488,16,30878,1,0,0:0:0:0:
456,196,31050,2,0,L|302:215,1,155,8|0,3:0|0:0,0:0:0:0:
232,316,31568,2,0,P|272:320|308:304,1,77.5,4|0,0:0|0:0,0:0:0:0:
280,120,31912,2,0,P|240:116|204:132,1,77.5,4|0,0:0|0:0,0:0:0:0:
156,204,32258,1,0,0:0:0:0:
32,104,32430,2,0,B|40:276,1,155,8|0,3:0|0:0,0:0:0:0:
224,48,33120,6,0,P|151:14|80:48,1,155,0|0,3:0|0:0,0:0:0:0:
32,104,33637,1,0,0:0:0:0:
160,248,33809,2,0,L|152:80,1,155,8|0,3:0|0:0,0:0:0:0:
83,255,34327,2,0,L|79:177,1,77.5,4|0,0:0|0:0,0:0:0:0:
240,248,34671,2,0,L|234:170,1,77.5,4|0,0:0|0:0,0:0:0:0:
287,103,35016,1,0,0:0:0:0:
386,240,35188,2,0,L|372:73,1,155,8|0,3:0|0:0,0:0:0:0:
280,328,35878,6,0,B|316:312|356:324|356:324|400:336|440:312,1,155,4|0,3:0|0:0,0:0:0:0:
476,244,36396,1,0,0:0:0:0:
364,128,36568,2,0,B|380:244|380:244|344:200,1,155,8|0,3:0|0:0,0:0:0:0:
304,52,37085,2,0,L|384:36,1,77.5,4|0,0:0|0:0,0:0:0:0:
272,152,37430,2,0,L|192:136,1,77.5,4|0,0:0|0:0,0:0:0:0:
112,120,37775,1,0,0:0:0:0:
40,280,37947,2,0,P|116:308|180:280,1,155,8|0,3:0|0:0,0:0:0:0:
331,104,38637,6,0,P|401:75|472:104,1,155,0|0,3:0|0:0,0:0:0:0:
404,160,39154,1,0,0:0:0:0:
264,44,39326,2,0,L|104:44,1,155,8|0,3:0|0:0,0:0:0:0:
260,192,40016,2,0,L|100:192,1,155,8|0,3:0|0:0,0:0:0:0:
29,248,40533,1,0,0:0:0:0:
149,348,40706,1,8,3:0:0:0:
105,192,40878,1,8,3:0:0:0:
53,348,41051,1,8,3:0:0:0:
177,248,41223,1,8,3:0:0:0:
112,72,41396,6,0,P|156:128|240:128,1,155,4|0,1:0|0:0,0:0:0:0:
304,84,41912,1,0,0:0:0:0:
400,240,42085,2,0,L|408:144,2,77.5,0|0|0,3:0|0:0|0:0,0:0:0:0:
284,336,42602,2,0,P|296:300|290:258,1,77.5,4|0,0:0|0:0,0:0:0:0:
180,336,42947,2,0,P|168:300|174:258,1,77.5,4|0,0:0|0:0,0:0:0:0:
232,196,43292,1,0,0:0:0:0:
80,336,43464,2,0,P|56:288|84:196,1,155,8|0,3:0|0:0,0:0:0:0:
152,144,43982,1,0,0:0:0:0:
204,12,44153,6,0,P|216:48|210:90,1,77.5,0|0,3:0|0:0,0:0:0:0:
100,12,44498,2,0,P|88:48|94:90,1,77.5
212,269,44844,2,0,L|216:192,2,77.5,8|0|0,3:0|0:0|0:0,0:0:0:0:
320,356,45361,2,0,L|242:352,1,77.5,4|0,0:0|0:0,0:0:0:0:
135,266,45706,2,0,L|212:269,1,77.5,4|0,0:0|0:0,0:0:0:0:
280,220,46051,1,0,0:0:0:0:
212,48,46223,2,0,B|220:164|220:164|256:136,1,155,8|0,3:0|0:0,0:0:0:0:
316,88,46740,1,0,0:0:0:0:
448,148,46913,6,0,P|408:160|368:148,1,77.5,4|0,0:0|0:0,0:0:0:0:
364,16,47257,2,0,P|404:4|444:16,1,77.5
316,88,47602,2,0,L|152:96,1,155,8|0,3:0|0:0,0:0:0:0:
88,216,48120,2,0,L|80:124,1,77.5,4|0,0:0|0:0,0:0:0:0:
154,18,48464,2,0,L|160:95,1,77.5,4|0,0:0|0:0,0:0:0:0:
168,180,48809,1,0,0:0:0:0:
272,288,48982,2,0,P|246:209|304:152,1,155,8|0,3:0|0:0,0:0:0:0:
332,232,49499,1,0,0:0:0:0:
216,344,49671,6,0,L|60:344,1,155,4|0,0:0|0:0,0:0:0:0:
12,252,50189,2,0,L|167:252,1,155,4|0,0:0|0:0,0:0:0:0:
208,160,50706,2,0,L|53:160,1,155,4|0,0:0|0:0,0:0:0:0:
16,76,51222,2,0,L|171:76,1,155,4|0,0:0|0:0,0:0:0:0:
248,32,51740,1,8,3:0:0:0:
364,88,51913,1,8,3:0:0:0:
328,8,52085,1,8,3:0:0:0:
280,112,52258,1,8,3:0:0:0:
440,100,52430,6,0,P|464:172|440:248,1,155,4|0,1:0|0:0,0:0:0:0:
370,316,52947,2,0,P|296:338|224:314,1,155,10|0,3:0|0:0,0:0:0:0:
153,242,53464,2,0,P|130:168|154:96,1,155,10|0,3:0|0:0,0:0:0:0:
226,24,53982,2,0,P|299:1|371:25,1,155,10|0,3:0|0:0,0:0:0:0:
442,97,54499,1,8,3:0:0:0:
284,220,54844,1,4,0:0:0:0:
472,296,55189,5,4,1:0:0:0:
472,296,55361,1,8,3:0:0:0:
352,132,55706,1,8,3:0:0:0:
352,132,55878,1,8,3:0:0:0:
224,308,56223,1,8,3:0:0:0:
224,308,56395,2,8,P|144:336|80:308,2,155,8|8|8,3:0|3:0|3:0,3:0:0:0:
144,144,57258,2,8,B|152:256|152:256|180:224,1,155,8|8,3:0|3:0,3:0:0:0:
315,54,57947,6,0,L|400:60,1,77.5,8|8,3:0|3:0,0:0:0:0:
226,45,58291,1,4,1:0:0:0:
