osu file format v14

[General]
AudioFilename: audio.mp3
AudioLeadIn: 0
PreviewTime: 30381
Countdown: 0
SampleSet: Soft
StackLeniency: 0.3
Mode: 0
LetterboxInBreaks: 0
WidescreenStoryboard: 1

[Editor]
DistanceSpacing: 1.3
BeatDivisor: 4
GridSize: 4
TimelineZoom: 1

[Metadata]
Title:Galactik Football
TitleUnicode:Galactik Football
Artist:Marc Tomasi & Mehdi Elmorabit
ArtistUnicode:Marc Tomasi & Mehdi Elmorabit
Creator:Pachiru
Version:Hard
Source:Galactik Football
Tags:liuth cartoon snow kids shadows
BeatmapID:1456968
BeatmapSetID:687708

[Difficulty]
HPDrainRate:5
CircleSize:3.5
OverallDifficulty:5
ApproachRate:7
SliderMultiplier:2.6
SliderTickRate:1

[Events]
//Background and Video events
Video,0,"galactik.avi"
0,0,"galactik-football.jpg",0,0
//Break Periods
//Storyboard Layer 0 (Background)
//Storyboard Layer 1 (Fail)
//Storyboard Layer 2 (Pass)
//Storyboard Layer 3 (Foreground)
//Storyboard Sound Samples

[TimingPoints]
16,689.655172413793,4,2,1,20,1,0
16,-100,4,2,1,20,0,0
360,-100,4,2,1,30,0,0
705,-100,4,2,1,40,0,0
30360,-100,4,2,1,40,0,1
41395,-100,4,2,1,40,0,0
52429,-100,4,2,1,40,0,1
57947,-100,4,2,1,40,0,0

[Colours]
Combo1 : 73,155,169
Combo2 : 159,0,0
Combo3 : 16,119,194

[HitObjects]
120,336,16,6,0,L|112:272,3,65,0|0|0|0,0:0|0:0|0:0|0:0,0:0:0:0:
171,211,705,2,0,L|163:147,1,65,2|2,0:0|0:0,0:0:0:0:
248,132,1050,2,0,L|256:196,1,65,2|2,0:0|0:0,0:0:0:0:
360,248,1395,6,0,L|436:240,3,65,8|8|8|8,3:0|3:0|3:0|3:0,0:0:0:0:
508,152,2084,2,0,L|436:160,1,65,8|8,3:0|3:0,0:0:0:0:
340,88,2429,1,8,3:0:0:0:
424,76,2602,1,8,3:0:0:0:
360,168,2774,6,0,L|276:176,1,65,4|0,1:0|0:0,0:0:0:0:
220,216,3119,2,0,L|155:209,1,65
106,127,3464,1,8,3:0:0:0:
225,7,3809,1,0,0:0:0:0:
165,66,3981,2,0,P|228:92|288:64,2,130,4|4|0,0:0|0:0|0:0,0:0:0:0:
225,7,4843,1,8,3:0:0:0:
344,126,5188,2,0,L|412:126,1,65,0|0,0:0|0:0,0:0:0:0:
468,185,5533,6,0,P|476:220|468:256,1,65,0|0,3:0|0:0,0:0:0:0:
411,308,5878,2,0,P|376:316|340:308,1,65,0|0,0:0|0:0,0:0:0:0:
276,268,6222,2,0,P|216:248|148:268,1,130,8|0,3:0|0:0,0:0:0:0:
116,340,6740,2,0,P|80:308|80:224,2,130,4|4|0,0:0|0:0|0:0,0:0:0:0:
153,264,7602,1,8,3:0:0:0:
33,144,7947,2,0,L|33:80,1,65,0|0,0:0|0:0,0:0:0:0:
92,19,8291,6,0,L|168:19,3,65,4|0|0|0,0:0|0:0|0:0|0:0,0:0:0:0:
216,78,8981,1,8,3:0:0:0:
376,24,9326,1,0,0:0:0:0:
435,83,9498,2,0,P|460:140|436:204,2,130,4|4|0,0:0|0:0|0:0,0:0:0:0:
376,144,10360,1,8,3:0:0:0:
436,296,10705,2,0,L|504:296,1,65,0|0,0:0|0:0,0:0:0:0:
501,380,11050,6,0,L|433:380,3,65,0|0|0|0,3:0|0:0|0:0|0:0,0:0:0:0:
360,340,11740,2,0,L|228:340,1,130,8|0,3:0|0:0,0:0:0:0:
170,280,12257,1,0,0:0:0:0:
229,220,12429,2,0,P|252:160|228:96,1,130,4|0,0:0|0:0,0:0:0:0:
229,220,13119,1,4,0:0:0:0:
229,220,13809,6,0,L|428:220,1,195,4|0,1:1|0:0,0:0:0:0:
483,160,14498,1,8,3:0:0:0:
363,40,14843,1,0,0:0:0:0:
422,99,15015,2,0,P|360:124|300:92,2,130,4|4|0,0:0|0:0|0:0,0:0:0:0:
363,40,15878,1,8,3:0:0:0:
243,159,16222,2,0,L|163:159,1,65,0|0,0:0|0:0,0:0:0:0:
118,218,16567,6,0,L|118:294,3,65,0|0|0|0,3:0|0:0|0:0|0:0,0:0:0:0:
177,342,17257,2,0,P|232:364|296:340,1,130,8|0,3:0|0:0,0:0:0:0:
348,272,17774,2,0,P|407:249|466:273,2,130,4|4|0,0:0|0:0|0:0,0:0:0:0:
408,332,18636,1,8,3:0:0:0:
292,208,18981,2,0,L|292:128,1,65,0|0,0:0|0:0,0:0:0:0:
256,68,19326,6,0,L|172:68,1,65,4|0,0:0|0:0,0:0:0:0:
131,8,19671,2,0,L|47:8,1,65
6,67,20015,1,8,3:0:0:0:
151,215,20360,1,0,0:0:0:0:
210,155,20533,2,0,L|342:155,2,130,4|4|0,0:0|0:0|0:0,0:0:0:0:
151,215,21395,2,0,P|124:272|156:340,1,130,8|0,3:0|0:0,0:0:0:0:
212,276,21912,1,0,0:0:0:0:
272,336,22084,6,0,B|336:324|336:324|388:352|388:352|460:336,1,195,10|10,3:0|3:0,0:0:0:0:
241,201,23119,2,0,B|310:186|310:186|362:214|362:214|426:202,1,195,10|10,3:0|3:0,0:0:0:0:
395,35,23981,1,4,3:0:0:0:
412,116,24153,1,0,0:0:0:0:
208,32,24498,2,0,L|284:48,1,65,8|8,3:0|3:0,0:0:0:0:
186,117,24843,6,0,B|122:105|122:105|70:133|70:133|-2:117,1,195,4|10,3:2|3:0,0:0:0:0:
215,252,25878,2,0,B|151:240|151:240|99:268|99:268|29:252,1,195,10|10,3:0|3:0,0:0:0:0:
58,85,26740,1,4,3:0:0:0:
14,157,26912,2,0,P|76:168|132:127,1,130,8|4,3:0|0:0,0:0:0:0:
296,356,27602,5,8,3:0:0:0:
372,336,27774,1,8,3:0:0:0:
452,315,27947,2,0,P|428:248|448:196,1,130,8|8,3:0|3:0,0:0:0:0:
388,135,28464,2,0,P|412:68|392:16,1,130,0|0,0:0|0:0,0:0:0:0:
332,72,28981,1,8,3:0:0:0:
332,72,29671,1,8,3:0:0:0:
172,336,30360,6,0,P|152:284|176:212,1,130,4|0,1:0|0:0,0:0:0:0:
236,160,30878,1,0,0:0:0:0:
316,192,31050,2,0,L|464:192,1,130,8|0,3:0|0:0,0:0:0:0:
446,353,31740,2,0,P|384:372|320:352,1,130,4|0,3:0|0:0,0:0:0:0:
256,293,32257,1,0,0:0:0:0:
196,352,32429,2,0,P|139:375|75:355,1,130,8|0,3:0|0:0,0:0:0:0:
66,182,33119,6,0,P|89:122|70:61,1,130,4|0,3:0|0:0,0:0:0:0:
136,8,33636,1,0,0:0:0:0:
204,60,33809,2,0,P|185:121|208:180,1,130,8|0,3:0|0:0,0:0:0:0:
275,232,34326,1,0,3:2:0:0:
343,180,34498,2,0,L|335:104,1,65,8|0,3:0|3:2,3:0:0:0:
419,104,34843,2,0,L|425:168,1,65,0|0,0:0|0:0,0:0:0:0:
439,252,35188,2,0,L|445:316,1,65,8|0,3:0|0:0,0:0:0:0:
363,328,35533,2,0,L|356:263,1,65,0|0,0:0|0:0,0:0:0:0:
275,232,35878,6,0,L|140:244,1,130,4|0,3:0|0:0,0:0:0:0:
80,296,36395,1,0,0:0:0:0:
12,248,36567,2,0,L|4:116,1,130,8|0,3:0|0:0,0:0:0:0:
144,24,37257,2,0,L|288:16,1,130,4|0,3:0|0:0,0:0:0:0:
333,76,37774,1,0,0:0:0:0:
392,16,37947,2,0,P|417:85|393:137,1,130,8|0,3:0|0:0,0:0:0:0:
268,244,38636,6,0,L|280:380,1,130,4|0,3:0|0:0,0:0:0:0:
180,236,39326,2,0,L|192:372,1,130,8|0,3:0|0:0,0:0:0:0:
92,228,40016,2,0,L|104:364,1,130,8|0,3:0|0:0,0:0:0:0:
4,220,40705,2,0,L|12:312,1,65,8|8,3:0|3:0,0:0:0:0:
97,163,41050,2,0,L|91:227,1,65,8|8,3:0|3:0,0:0:0:0:
45,94,41395,6,0,B|92:69|140:88|140:88|193:111|241:87,1,195,4|0,1:0|0:0,0:0:0:0:
189,15,42084,1,0,3:0:0:0:
97,163,42429,1,0,0:0:0:0:
156,222,42602,2,0,L|288:222,2,130,4|4|0,0:0|0:0|0:0,0:0:0:0:
96,281,43464,1,8,3:0:0:0:
264,360,43809,2,0,L|352:360,1,65
388,300,44153,6,0,L|464:300,3,65,0|0|0|0,3:0|0:0|0:0|0:0,0:0:0:0:
453,215,44843,2,0,L|321:215,1,130,8|0,3:0|0:0,0:0:0:0:
263,155,45360,2,0,P|240:96|268:32,2,130,4|4|0,0:0|0:0|0:0,0:0:0:0:
324,96,46222,1,8,3:0:0:0:
204,215,46567,2,0,L|132:215,1,65,0|0,0:0|0:0,0:0:0:0:
80,276,46912,6,0,P|56:200|140:128,1,195,4|0,0:0|0:0,0:0:0:0:
139,215,47602,1,8,3:0:0:0:
140,44,47947,1,0,0:0:0:0:
212,88,48119,2,0,P|260:112|336:84,2,130,4|4|0,0:0|0:0|0:0,0:0:0:0:
272,28,48981,1,8,3:0:0:0:
376,160,49326,1,0,0:0:0:0:
212,208,49671,6,0,P|187:266|210:326,1,130,4|0,0:0|0:0,0:0:0:0:
296,325,50188,2,0,P|320:266|297:206,1,130,4|0,0:0|0:0,0:0:0:0:
212,208,50705,2,0,P|189:148|213:89,1,130,4|0,0:0|0:0,0:0:0:0:
300,88,51222,2,0,P|322:147|298:206,1,130,4|4,0:0|0:0,0:0:0:0:
212,208,51740,2,0,L|136:208,1,65,12|8,0:0|3:0,0:0:0:0:
87,267,52084,2,0,L|11:267,1,65,8|8,3:0|3:0,0:0:0:0:
22,351,52429,6,0,L|166:351,1,130,4|0,1:0|0:0,0:0:0:0:
212,290,52947,2,0,L|356:290,1,130,10|0,3:0|0:0,0:0:0:0:
401,349,53464,2,0,P|424:296|388:224,1,130,10|0,3:0|0:0,0:0:0:0:
338,172,53981,2,0,P|314:113|340:55,1,130,10|0,3:0|0:0,0:0:0:0:
400,116,54498,1,4,0:0:0:0:
280,235,54843,1,4,3:0:0:0:
132,156,55188,6,0,L|112:72,1,65,8|8,3:0|3:0,0:0:0:0:
64,252,55705,2,0,L|44:168,1,65,8|8,3:0|3:0,0:0:0:0:
199,254,56222,2,0,L|214:190,1,65,8|8,3:0|3:0,0:0:0:0:
145,346,56740,2,0,P|203:370|260:343,1,130,8|8,3:0|3:0,0:0:0:0:
324,288,57257,1,8,3:0:0:0:
213,190,57602,1,8,3:0:0:0:
344,48,57947,6,0,L|409:48,1,65,8|8,3:0|3:0,0:0:0:0:
376,144,58291,1,4,1:0:0:0:
