osu file format v14

[General]
AudioFilename: audio.ogg
AudioLeadIn: 0
PreviewTime: 52976
Countdown: 0
SampleSet: Soft
StackLeniency: 0.7
Mode: 0
LetterboxInBreaks: 0
WidescreenStoryboard: 1

[Editor]
DistanceSpacing: 1
BeatDivisor: 4
GridSize: 16
TimelineZoom: 1.5

[Metadata]
Title:Keys ~Toki o Musunde~ (Short Ver.)
TitleUnicode:Keys ~時を結んで~ (Short Ver.)
Artist:Mar.na
ArtistUnicode:Mar.na
Creator:My Angel Eririn
Version:Normal
Source:あるいは恋という名の魔法
Tags:Marika 真里歌 omochi soft おもちそふと eroge op vn visual novel jpop pop j-pop galgame video game japanese arui wa koi to iu na no mahou or the magic named love arukoi あるこい ある恋 はすね vgm ost original sound track female vocals vocalist opening 楠野功太郎
BeatmapID:4474836
BeatmapSetID:2128167

[Difficulty]
HPDrainRate:3
CircleSize:3.6
OverallDifficulty:4
ApproachRate:5.6
SliderMultiplier:1
SliderTickRate:1

[Events]
//Background and Video events
0,0,"keys3.jpg",0,0
//Break Periods
//Storyboard Layer 0 (Background)
//Storyboard Layer 1 (Fail)
//Storyboard Layer 2 (Pass)
//Storyboard Layer 3 (Foreground)
//Storyboard Layer 4 (Overlay)
//Storyboard Sound Samples

[TimingPoints]
1430,360.576923076923,4,2,1,40,1,0
1430,-105.263157894737,4,2,1,40,0,0
6120,-105.263157894737,4,2,1,5,0,0
6490,363.636363636364,4,2,1,75,1,0
6490,-100,4,2,1,75,0,0
7217,361.881785283474,4,2,1,75,1,0
7217,-100,4,2,1,75,0,0
10112,362.537764350453,4,2,1,75,1,0
11562,357.142857142857,4,2,1,75,1,0
12990,365.853658536585,4,2,1,75,1,0
12990,-111.111111111111,4,2,1,75,0,0
14270,387.096774193548,4,2,1,75,1,0
14463,357.142857142857,4,2,1,70,1,0
15891,361.44578313253,4,2,1,60,1,0
15891,-105.263157894737,4,2,1,60,0,0
27457,372.670807453416,4,2,1,65,1,0
27457,-100,4,2,1,65,0,0
27829,351.082504388531,4,2,1,65,1,0
28180,359.281437125748,4,2,1,65,1,0
28898,361.44578313253,4,2,1,65,1,0
43717,357.142857142857,4,2,1,70,1,0
44074,361.44578313253,4,2,1,70,1,0
44796,361.44578313253,4,2,1,70,1,0
44796,-90.9090909090909,4,2,1,70,0,0
49133,357.142857142857,4,2,1,70,1,0
49133,-90.9090909090909,4,2,1,70,0,0
50204,361.44578313253,4,2,1,70,1,0
50204,-90.9090909090909,4,2,1,70,0,0
50565,361.44578313253,4,2,1,70,1,0
50565,-90.9090909090909,4,2,1,70,0,0
51287,368.098159509202,4,2,1,70,1,0
51287,-90.9090909090909,4,2,1,70,0,0
52023,394.736842105263,4,2,1,70,1,0
52023,-111.111111111111,4,2,1,70,0,0
52812,329.67032967033,4,2,1,5,1,0
52812,-100,4,2,1,5,0,0
53471,361.01083032491,4,2,1,85,1,0
53471,-90.9090909090909,4,2,1,85,0,1
62135,365.853658536585,4,2,1,85,1,1
62135,-90.9090909090909,4,2,1,85,0,1
63598,361.44578313253,4,2,1,85,1,1
63598,-90.9090909090909,4,2,1,85,0,1
65043,360.793746241732,4,2,1,85,1,1
65043,-90.9090909090909,4,2,1,85,0,1
69372,363.636363636364,4,2,1,85,1,1
69372,-90.9090909090909,4,2,1,85,0,1
70826,365.853658536585,4,2,1,85,1,1
70826,-90.9090909090909,4,2,1,85,0,1
72289,357.142857142857,4,2,1,85,1,1
72289,-90.9090909090909,4,2,1,85,0,1
73717,365.853658536585,4,2,1,85,1,1
73717,-90.9090909090909,4,2,1,85,0,1
74448,355.029585798817,4,2,1,85,1,1
74448,-90.9090909090909,4,2,1,85,0,1
75513,361.44578313253,4,2,1,45,1,0
76597,-100,4,2,1,45,0,0
79127,-100,4,2,1,5,0,0

[Colours]
Combo1 : 80,0,213
Combo2 : 255,128,192
Combo3 : 255,255,0
Combo4 : 140,223,255

[HitObjects]
165,224,1430,6,0,L|150:166,2,47.4999987316132,2|0|0,0:0|0:0|0:0,0:0:0:0:
168,271,1970,2,0,P|214:282|266:268,1,94.9999974632264,2|2,0:0|0:0,0:0:0:0:
353,258,2692,2,0,L|330:361,2,94.9999974632264,2|2|2,0:0|0:0|0:0,0:0:0:0:
385,169,3773,1,2,0:0:0:0:
385,169,3954,1,2,0:0:0:0:
467,216,4314,6,0,L|455:271,2,47.4999987316132,2|0|0,0:0|0:0|0:0,0:0:0:0:
505,187,4855,2,0,P|516:136|498:86,1,94.9999974632264,2|2,0:0|0:0,0:0:0:0:
435,38,5576,1,2,0:0:0:0:
435,38,5756,2,0,L|415:129,1,94.9999974632264,2|0,0:0|0:0,0:0:0:0:
418,231,6490,1,0,3:1:0:0:
338,291,6853,2,0,L|272:277,1,50,8|8,0:0|0:0,0:0:0:0:
242,262,7217,6,0,B|184:265|205:294|129:299,1,100,4|8,3:1|0:0,0:0:0:0:
100,304,7759,2,0,P|79:252|90:199,1,100,2|2,0:0|3:2,0:0:0:0:
78,109,8483,2,0,L|63:41,1,50,2|0,0:0|3:1,0:0:0:0:
103,25,8845,2,0,L|156:38,1,50,2|8,0:0|0:0,0:0:0:0:
196,59,9207,2,0,P|249:73|300:54,1,100,2|2,0:0|3:2,0:0:0:0:
338,43,9750,1,8,0:0:0:0:
431,8,10112,6,0,B|447:39|447:39|422:108,1,100,4|8,3:1|0:0,0:0:0:0:
411,148,10655,2,0,P|462:158|495:197,2,100,2|2|2,0:0|3:2|3:2,0:0:0:0:
361,159,11562,1,0,3:1:0:0:
283,220,11919,1,8,0:0:0:0:
283,220,12097,2,0,P|260:170|277:119,1,100,4|8,3:1|0:0,0:0:0:0:
293,83,12633,1,0,3:1:0:0:
378,61,12990,6,0,B|399:50|418:25|418:25|477:35|465:177|380:196,1,269.999991760254,4|0,3:1|0:0,0:0:0:0:
281,216,14463,6,0,P|282:240|300:267,2,50,8|0|0,0:0|3:1|3:1,0:0:0:0:
251,176,14998,2,0,P|271:153|270:119,2,50,8|0|0,0:0|3:1|3:1,0:0:0:0:
200,177,15534,1,8,0:0:0:0:
112,212,15891,6,0,P|92:263|111:309,1,94.9999974632264,4|0,3:1|3:1,0:0:0:0:
184,348,16613,2,0,P|227:319|282:335,1,94.9999974632264,2|0,3:2|3:1,0:0:0:0:
316,345,17156,1,0,0:0:0:0:
316,345,17336,2,0,L|414:365,1,94.9999974632264,2|0,3:2|3:1,0:0:0:0:
474,295,18059,1,2,3:2:0:0:
413,221,18421,1,2,3:2:0:0:
476,150,18782,6,0,L|497:48,1,94.9999974632264,2|0,3:2|3:1,0:0:0:0:
402,75,19505,2,0,L|383:168,1,94.9999974632264,2|0,3:2|3:1,0:0:0:0:
289,184,20228,2,0,L|310:85,1,94.9999974632264,2|0,3:2|3:1,0:0:0:0:
317,47,20770,1,2,0:0:0:0:
317,47,20951,2,0,P|274:26|227:45,1,94.9999974632264,2|0,3:2|3:1,0:0:0:0:
157,100,21674,5,0,3:1:0:0:
203,177,22035,2,0,P|247:162|288:183,2,94.9999974632264,2|2|2,3:2|3:2|3:2,0:0:0:0:
116,215,23119,2,0,L|19:194,1,94.9999974632264,2|0,3:2|3:1,0:0:0:0:
13,100,23842,1,2,3:2:0:0:
91,45,24204,1,2,3:2:0:0:
181,71,24565,6,0,P|175:127|204:168,1,94.9999974632264,2|0,3:2|3:1,0:0:0:0:
243,175,25107,1,2,0:0:0:0:
243,175,25288,2,0,L|340:154,1,94.9999974632264,2|0,3:2|3:1,0:0:0:0:
425,122,26011,2,0,B|466:120|485:85|485:85|476:124|503:160,1,142.49999619484,4|8,3:1|0:0,0:0:0:0:
509,249,26915,1,0,3:1:0:0:
509,249,27095,1,0,3:1:0:0:
483,342,27457,6,0,L|378:319,1,100,4|8,3:1|0:0,0:0:0:0:
292,285,28180,2,0,P|239:271|190:292,1,100,2|8,3:2|0:0,0:0:0:0:
157,313,28718,1,2,0:2:0:0:
157,313,28898,2,0,P|105:331|53:315,1,100,2|8,3:2|0:0,0:0:0:0:
8,236,29620,1,2,3:2:0:0:
61,151,29982,1,10,0:0:0:0:
16,61,30343,6,0,P|56:30|104:27,1,100,2|8,3:2|0:0,0:0:0:0:
200,1,31066,2,0,L|222:107,1,100,2|8,3:2|0:0,0:0:0:0:
294,167,31789,2,0,L|315:68,1,100,2|8,3:2|0:0,0:0:0:0:
327,21,32331,1,2,3:2:0:0:
327,21,32512,2,0,L|275:11,2,50,2|0|8,3:2|3:1|0:0,0:0:0:0:
426,9,33235,6,0,P|449:36|444:100,1,100,2|10,3:2|0:0,0:0:0:0:
424,142,33777,1,2,0:0:0:0:
332,100,34138,1,2,3:2:0:0:
246,149,34500,1,2,0:2:0:0:
246,149,34681,2,0,P|223:176|228:240,1,100,2|10,3:2|3:2,0:0:0:0:
249,281,35223,1,2,0:0:0:0:
162,331,35584,1,2,3:2:0:0:
80,281,35946,5,2,0:0:0:0:
80,281,36126,2,0,P|104:237|92:188,1,100,6|10,3:2|0:0,0:0:0:0:
56,156,36669,2,0,P|31:112|40:46,1,100,2|2,0:0|3:2,0:0:0:0:
69,30,37211,1,10,0:2:0:0:
135,111,37572,1,0,3:1:0:0:
135,111,37753,2,0,L|192:98,1,50,8|0,0:0|3:1,0:0:0:0:
228,77,38114,2,0,P|272:52|325:80,1,100,8|0,0:0|3:1,0:0:0:0:
362,81,38657,1,0,3:1:0:0:
455,44,39018,6,0,L|443:103,1,50,10|8,3:2|3:2,0:0:0:0:
472,242,39741,1,8,0:0:0:0:
472,242,39922,1,2,3:2:0:0:
382,281,40283,1,4,3:1:0:0:
382,281,40464,2,0,P|397:328|381:379,2,100,2|8|8,0:0|0:0|0:0,0:0:0:0:
342,188,41548,1,0,3:1:0:0:
278,110,41910,6,0,L|206:125,1,50,8|8,0:0|0:0,0:0:0:0:
131,234,42632,1,8,0:0:0:0:
131,234,42813,1,2,3:2:0:0:
205,309,43175,1,4,3:1:0:0:
205,309,43355,2,0,P|251:313|305:277,1,100,2|12,0:0|0:0,0:0:0:0:
346,200,44074,1,0,3:1:0:0:
251,168,44435,6,0,L|183:153,1,50,8|8,0:0|0:0,0:0:0:0:
147,154,44796,2,0,P|112:195|113:260,1,110.000003356934,4|8,3:1|0:0,0:0:0:0:
167,341,45518,1,2,3:2:0:0:
271,306,45880,1,10,0:0:0:0:
369,351,46241,2,0,P|404:310|403:245,1,110.000003356934,2|8,3:2|0:0,0:0:0:0:
396,201,46783,5,0,0:0:0:0:
363,95,47145,2,0,P|393:87|426:94,2,55.0000016784668,2|8|2,3:2|0:0|0:0,0:0:0:0:
315,120,47687,1,4,3:1:0:0:
221,176,48049,1,10,0:0:0:0:
221,176,48229,2,0,P|203:122|218:67,2,110.000003356934,2|2|2,0:0|3:2|0:0,0:0:0:0:
260,215,49133,1,2,3:2:0:0:
174,284,49490,2,0,L|99:266,1,55.0000016784668,8|2,0:0|3:2,0:0:0:0:
66,261,49847,2,0,B|82:227|82:227|61:140,1,110.000003356934,2|10,3:2|0:0,0:0:0:0:
50,47,50565,6,0,P|77:28|109:34,1,55.0000016784668,12|0,0:0|3:1,0:0:0:0:
145,56,50926,2,0,P|172:75|204:69,1,55.0000016784668,12|0,0:0|3:0,0:0:0:0:
242,52,51287,1,12,0:0:0:0:
346,84,51655,2,0,P|373:65|405:71,1,55.0000016784668,8|8,0:0|0:0,0:0:0:0:
433,84,52023,6,0,P|471:170|438:264,1,179.999994506836,4|0,3:1|0:0,0:0:0:0:
257,310,53471,6,0,P|208:322|149:360,1,110.000003356934,6|10,3:2|0:0,0:0:0:0:
113,383,54012,1,2,0:0:0:0:
113,383,54193,2,0,P|88:335|32:295,1,110.000003356934,2|10,3:2|0:0,0:0:0:0:
3,265,54734,1,2,0:0:0:0:
90,198,55095,1,2,0:0:0:0:
43,99,55456,2,0,P|76:91|95:71,1,55.0000016784668,2|0,0:0|3:1,0:0:0:0:
135,45,55817,2,0,P|115:28|100:-3,2,55.0000016784668,2|10|2,3:2|0:0|0:0,0:0:0:0:
184,70,56359,5,2,3:2:0:0:
288,30,56720,1,10,0:0:0:0:
288,30,56900,2,0,P|328:67|384:88,1,110.000003356934,2|2,0:0|3:2,0:0:0:0:
491,75,57622,1,2,0:0:0:0:
491,75,57803,2,0,P|463:126|449:183,1,110.000003356934,2|8,3:2|0:0,0:0:0:0:
475,230,58344,1,2,0:0:0:0:
475,230,58525,2,0,L|405:245,1,55.0000016784668,2|0,3:2|3:1,0:0:0:0:
376,274,58886,1,8,0:0:0:0:
292,345,59247,6,0,L|226:331,1,55.0000016784668,6|0,3:2|0:0,0:0:0:0:
189,308,59608,2,0,P|160:331|134:341,1,55.0000016784668,10|0,0:0|0:0,0:0:0:0:
91,356,59969,2,0,P|56:308|58:252,1,110.000003356934,2|10,3:2|0:0,0:0:0:0:
66,205,60510,1,2,0:0:0:0:
117,107,60871,1,2,0:0:0:0:
223,135,61232,2,0,P|241:167|238:195,1,55.0000016784668,2|0,0:0|3:1,0:0:0:0:
225,238,61593,2,0,L|167:250,2,55.0000016784668,2|10|2,3:2|0:0|0:0,0:0:0:0:
260,279,62135,6,0,P|318:295|372:268,1,110.000003356934,6|10,3:2|0:0,0:0:0:0:
417,273,62683,2,0,P|442:211|483:173,1,110.000003356934,2|2,0:0|3:2,0:0:0:0:
470,75,63415,1,2,3:2:0:0:
470,75,63598,2,0,P|448:103|421:121,1,55.0000016784668,6|0,3:2|3:1,0:0:0:0:
381,124,63959,1,12,0:0:0:0:
381,124,64140,1,4,0:0:0:0:
278,84,64501,2,0,L|266:29,2,55.0000016784668,8|8|8,3:2|0:0|0:0,0:0:0:0:
231,114,65043,6,0,P|204:164|220:221,1,110.000003356934,6|10,3:2|0:0,0:0:0:0:
248,258,65584,1,2,0:0:0:0:
250,367,65944,2,0,P|277:369|312:351,1,55.0000016784668,2|8,3:2|0:0,0:0:0:0:
351,333,66305,2,0,L|459:308,2,110.000003356934,2|2|2,0:0|0:0|0:0,0:0:0:0:
241,309,67388,2,0,P|237:283|252:252,1,55.0000016784668,2|8,3:2|0:0,0:0:0:0:
284,224,67748,5,2,0:0:0:0:
284,224,67929,2,0,P|235:183|225:129,1,110.000003356934,6|10,3:2|0:0,0:0:0:0:
222,85,68470,1,2,0:0:0:0:
112,88,68831,2,0,P|113:118|95:147,1,55.0000016784668,2|8,3:2|0:0,0:0:0:0:
77,191,69192,1,2,0:0:0:0:
77,191,69372,2,0,B|132:179|124:232|187:219,1,110.000003356934,2|10,3:2|0:0,0:0:0:0:
238,229,69917,1,2,0:0:0:0:
238,229,70099,2,0,L|254:153,2,55.0000016784668,2|8|8,3:2|3:2|0:0,0:0:0:0:
280,330,70826,6,0,L|339:342,1,55.0000016784668,6|0,3:2|0:0,0:0:0:0:
389,343,71191,2,0,P|440:289|435:196,1,165.000005035401,10|0,0:0|3:1,0:0:0:0:
420,149,71923,1,8,0:0:0:0:
333,83,72289,2,0,L|268:69,1,55.0000016784668,0|0,3:1|0:0,0:0:0:0:
225,59,72646,1,8,0:0:0:0:
120,83,73003,1,0,3:1:0:0:
120,83,73181,2,0,P|88:129|106:189,1,110.000003356934,2|0,3:2|3:1,0:0:0:0:
132,220,73717,6,0,P|111:242|78:255,2,55.0000016784668,14|0|0,0:2|3:1|3:1,0:0:0:0:
183,188,74265,1,14,0:0:0:0:
287,226,74625,1,0,3:1:0:0:
287,226,74803,2,0,P|316:211|339:187,1,55.0000016784668,12|0,0:0|3:1,0:0:0:0:
371,157,75158,5,8,0:0:0:0:
371,157,75335,1,8,0:0:0:0:
256,192,76506,12,0,79127,0:0:0:0:
