osu file format v14

[General]
AudioFilename: audio.ogg
AudioLeadIn: 0
PreviewTime: 52976
Countdown: 0
SampleSet: Soft
StackLeniency: 0.7
Mode: 0
LetterboxInBreaks: 0
WidescreenStoryboard: 1

[Editor]
DistanceSpacing: 1.4
BeatDivisor: 4
GridSize: 16
TimelineZoom: 1.5

[Metadata]
Title:Keys ~Toki o Musunde~ (Short Ver.)
TitleUnicode:Keys ~時を結んで~ (Short Ver.)
Artist:Mar.na
ArtistUnicode:Mar.na
Creator:My Angel Eririn
Version:Hard
Source:あるいは恋という名の魔法
Tags:Marika 真里歌 omochi soft おもちそふと eroge op vn visual novel jpop pop j-pop galgame video game japanese arui wa koi to iu na no mahou or the magic named love arukoi あるこい ある恋 はすね vgm ost original sound track female vocals vocalist opening 楠野功太郎
BeatmapID:4474835
BeatmapSetID:2128167

[Difficulty]
HPDrainRate:4
CircleSize:3.8
OverallDifficulty:6
ApproachRate:8
SliderMultiplier:1.2
SliderTickRate:1

[Events]
//Background and Video events
0,0,"keys3.jpg",0,0
//Break Periods
//Storyboard Layer 0 (Background)
//Storyboard Layer 1 (Fail)
//Storyboard Layer 2 (Pass)
//Storyboard Layer 3 (Foreground)
//Storyboard Layer 4 (Overlay)
//Storyboard Sound Samples

[TimingPoints]
1430,360.576923076923,4,2,1,40,1,0
1430,-105.263157894737,4,2,1,40,0,0
6297,-105.263157894737,4,2,1,5,0,0
6490,363.636363636364,4,2,1,75,1,0
6490,-100,4,2,1,75,0,0
7217,361.881785283474,4,2,1,75,1,0
10112,362.537764350453,4,2,1,75,1,0
11562,357.142857142857,4,2,1,75,1,0
12990,365.853658536585,4,2,1,75,1,0
12990,-111.111111111111,4,2,1,75,0,0
14270,387.096774193548,4,2,1,75,1,0
14463,357.142857142857,4,2,1,70,1,0
15891,361.44578313253,4,2,1,60,1,0
15891,-105.263157894737,4,2,1,60,0,0
27457,372.670807453416,4,2,1,65,1,0
27829,351.082504388531,4,2,1,65,1,0
28180,359.281437125748,4,2,1,65,1,0
28898,361.44578313253,4,2,1,65,1,0
43717,357.142857142857,4,2,1,70,1,0
44074,361.44578313253,4,2,1,70,1,0
44796,361.44578313253,4,2,1,70,1,0
44796,-90.9090909090909,4,2,1,70,0,0
49133,357.142857142857,4,2,1,70,1,0
49133,-90.9090909090909,4,2,1,70,0,0
50204,361.44578313253,4,2,1,70,1,0
50565,361.44578313253,4,2,1,70,1,0
50565,-90.9090909090909,4,2,1,70,0,0
51287,368.098159509202,4,2,1,70,1,0
51287,-90.9090909090909,4,2,1,70,0,0
52023,394.736842105263,4,2,1,70,1,0
52023,-105.263157894737,4,2,1,70,0,0
52812,329.67032967033,4,2,1,5,1,0
52812,-100,4,2,1,5,0,0
53471,361.01083032491,4,2,1,85,1,1
53471,-90.9090909090909,4,2,1,85,0,1
62135,365.853658536585,4,2,1,85,1,1
62135,-90.9090909090909,4,2,1,85,0,1
63598,361.44578313253,4,2,1,85,1,1
63598,-90.9090909090909,4,2,1,85,0,1
65043,360.793746241732,4,2,1,85,1,1
65043,-90.9090909090909,4,2,1,85,0,1
69372,363.636363636364,4,2,1,85,1,1
69372,-90.9090909090909,4,2,1,85,0,1
70826,365.853658536585,4,2,1,85,1,1
70826,-90.9090909090909,4,2,1,85,0,1
72289,357.142857142857,4,2,1,85,1,1
72289,-90.9090909090909,4,2,1,85,0,1
73717,365.853658536585,4,2,1,85,1,1
73717,-90.9090909090909,4,2,1,85,0,1
74448,355.029585798817,4,2,1,85,1,1
74448,-90.9090909090909,4,2,1,85,0,1
75513,361.44578313253,4,2,1,45,1,1
76506,-111.111111111111,4,2,1,45,0,0
76597,-111.111111111111,4,2,1,5,0,0
79126,-111.111111111111,4,2,1,5,0,0

[Colours]
Combo1 : 80,0,213
Combo2 : 255,128,192
Combo3 : 255,255,0
Combo4 : 140,223,255

[HitObjects]
147,169,1430,6,0,L|158:226,2,56.9999984779358,2|0|0,0:0|0:0|0:0,0:0:0:0:
91,111,1970,2,0,P|145:86|204:112,1,113.999996955872,2|2,0:0|0:0,0:0:0:0:
330,170,2692,2,0,P|321:138|341:107,1,56.9999984779358,2|0,0:0|0:0,0:0:0:0:
409,105,3052,2,0,L|394:36,2,56.9999984779358,2|2|2,0:0|0:0|0:0,0:0:0:0:
413,268,3773,1,2,0:0:0:0:
413,268,3954,1,2,0:0:0:0:
259,311,4314,6,0,L|319:322,2,56.9999984779358,2|0|0,0:0|0:0|0:0,0:0:0:0:
179,322,4855,2,0,P|180:286|162:264,1,56.9999984779358,2|0,0:0|0:0,0:0:0:0:
110,215,5216,2,0,P|95:188|100:145,1,56.9999984779358,2|0,0:0|0:0,0:0:0:0:
103,82,5576,1,2,0:0:0:0:
103,82,5756,2,0,P|157:48|257:76,1,170.999995433807,2|0,0:0|0:0,0:0:0:0:
319,124,6490,5,0,3:1:0:0:
263,186,6671,2,0,L|272:216,5,30,8|8|8|8|8|8,0:0|0:0|0:0|0:0|0:0|0:0,0:0:0:0:
279,244,7217,6,0,P|321:274|392:264,1,120,4|8,3:1|0:0,0:0:0:0:
457,219,7759,1,2,0:0:0:0:
457,219,7850,1,8,0:0:0:0:
457,219,7940,1,0,3:1:0:0:
502,154,8121,2,0,P|513:125|503:81,1,60,2|8,3:2|0:0,0:0:0:0:
454,33,8483,2,0,P|435:58|403:65,1,60,2|0,0:0|3:1,0:0:0:0:
332,27,8845,2,0,P|308:49|301:87,1,60,2|8,0:0|0:0,0:0:0:0:
294,165,9207,1,2,0:0:0:0:
294,165,9297,1,8,0:0:0:0:
294,165,9388,1,0,3:1:0:0:
210,156,9569,1,2,3:2:0:0:
178,78,9750,2,0,P|178:47|165:10,1,60,8|0,0:0|0:0,0:0:0:0:
80,7,10112,6,0,P|93:67|75:132,1,120,4|8,3:1|0:0,0:0:0:0:
69,207,10655,2,0,L|26:223,2,30,2|8|0,0:0|0:0|3:1,0:0:0:0:
153,203,11018,2,0,P|182:213|202:237,1,60,2|8,3:2|3:2,0:0:0:0:
244,313,11380,1,2,3:2:0:0:
244,313,11562,2,0,L|229:381,2,60,0|0|8,3:1|0:0|0:0,0:0:0:0:
326,296,12097,2,0,P|339:234|314:176,1,120,4|8,3:1|0:0,0:0:0:0:
243,146,12633,1,0,3:1:0:0:
383,191,12990,6,0,B|477:163|532:19|426:-44|326:4|372:65,1,323.999990112305,4|0,3:1|0:0,0:0:0:0:
186,54,14463,6,0,P|219:45|250:58,2,60,8|0|0,0:0|3:1|3:1,0:0:0:0:
185,137,14998,2,0,P|219:146|253:134,2,60,8|0|0,0:0|3:1|3:1,0:0:0:0:
109,118,15534,1,8,0:0:0:0:
109,118,15891,6,0,P|78:173|91:233,1,113.999996955872,4|0,3:1|3:1,0:0:0:0:
137,371,16613,2,0,P|168:326|224:334,1,113.999996955872,2|0,3:2|3:1,0:0:0:0:
298,369,17156,1,0,0:0:0:0:
298,369,17336,2,0,L|324:245,1,113.999996955872,2|0,3:2|3:1,0:0:0:0:
382,109,18059,2,0,L|397:175,1,56.9999984779358,2|0,3:2|0:0,0:0:0:0:
378,243,18421,2,0,P|410:246|443:225,1,56.9999984779358,2|0,3:2|0:0,0:0:0:0:
495,185,18782,6,0,P|511:126|480:60,1,113.999996955872,2|0,3:2|3:1,0:0:0:0:
353,1,19505,2,0,P|293:16|252:76,1,113.999996955872,2|0,3:2|3:1,0:0:0:0:
269,214,20228,2,0,P|312:257|384:263,1,113.999996955872,2|0,3:2|3:1,0:0:0:0:
439,247,20770,1,2,0:0:0:0:
497,192,20951,2,0,L|510:126,1,56.9999984779358,2|0,3:2|0:0,0:0:0:0:
437,50,21312,2,0,L|424:118,1,56.9999984779358,0|0,3:1|0:0,0:0:0:0:
411,185,21674,1,0,3:1:0:0:
411,185,22035,6,0,P|466:180|525:223,2,113.999996955872,2|2|2,3:2|3:2|3:2,0:0:0:0:
258,232,23119,2,0,L|233:349,1,113.999996955872,2|0,3:2|3:1,0:0:0:0:
75,363,23842,2,0,P|60:337|66:312,1,56.9999984779358,2|0,3:2|0:0,0:0:0:0:
134,269,24204,2,0,P|149:297|143:327,1,56.9999984779358,2|0,3:2|0:0,0:0:0:0:
218,331,24565,6,0,B|281:326|256:280|324:276,1,113.999996955872,2|0,3:2|3:1,0:0:0:0:
394,274,25107,1,2,0:0:0:0:
469,301,25288,2,0,L|460:371,2,56.9999984779358,2|0|0,3:2|0:0|3:1,0:0:0:0:
503,231,25830,1,0,0:0:0:0:
468,158,26011,2,0,P|524:119|483:30,1,170.999995433807,4|8,3:1|0:0,0:0:0:0:
337,46,26915,1,0,3:1:0:0:
337,46,27095,2,0,P|320:86|332:130,1,85.4999977169037,0|0,3:1|0:0,0:0:0:0:
349,161,27457,6,0,L|212:139,1,120,4|8,3:1|0:0,0:0:0:0:
150,165,28004,1,0,0:0:0:0:
118,87,28180,2,0,P|121:56|135:29,1,60,2|0,3:2|3:1,0:0:0:0:
49,35,28539,2,0,P|38:60|39:101,1,60,8|2,0:0|0:2,0:0:0:0:
28,172,28898,2,0,L|57:307,1,120,2|8,3:2|0:0,0:0:0:0:
169,366,29620,2,0,P|200:376|238:359,1,60,2|0,3:2|3:1,0:0:0:0:
280,305,29982,2,0,P|313:294|352:311,1,60,10|0,0:0|0:0,0:0:0:0:
402,352,30343,6,0,P|421:291|400:229,1,120,2|8,3:2|0:0,0:0:0:0:
420,158,30885,1,0,0:0:0:0:
420,158,31066,2,0,P|366:138|303:156,1,120,2|8,3:2|0:0,0:0:0:0:
141,178,31789,2,0,P|122:117|143:55,1,120,2|8,3:2|0:0,0:0:0:0:
217,40,32331,1,2,3:2:0:0:
294,72,32512,2,0,L|280:137,2,60,2|0|8,3:2|3:1|0:0,0:0:0:0:
372,37,33054,5,2,0:2:0:0:
372,37,33235,2,0,B|408:61|408:61|394:152,1,120,2|10,3:2|0:0,0:0:0:0:
434,211,33777,2,0,P|467:203|496:212,1,60,2|0,0:0|3:1,0:0:0:0:
493,293,34138,2,0,P|460:300|423:288,1,60,2|8,3:2|0:0,0:0:0:0:
345,289,34500,1,2,0:2:0:0:
345,289,34681,2,0,B|308:249|308:249|321:176,1,120,2|10,3:2|3:2,0:0:0:0:
350,106,35223,2,0,P|358:73|349:44,1,60,2|0,0:0|3:1,0:0:0:0:
268,44,35584,2,0,P|261:77|273:114,1,60,2|8,3:2|0:0,0:0:0:0:
273,178,35946,5,2,0:0:0:0:
273,178,36126,2,0,B|202:188|224:133|148:144,1,120,6|10,3:2|0:0,0:0:0:0:
78,141,36669,2,0,P|96:201|79:262,1,120,2|2,0:0|3:2,0:0:0:0:
57,336,37211,2,0,L|126:349,1,60,10|0,0:2|0:0,0:0:0:0:
197,324,37572,2,0,P|189:356|197:382,2,60,0|8|0,3:1|0:0|3:1,0:0:0:0:
248,256,38114,1,8,0:0:0:0:
248,256,38205,1,8,0:0:0:0:
248,256,38295,2,0,L|317:267,1,60,8|0,0:0|3:1,0:0:0:0:
375,216,38657,1,0,3:1:0:0:
432,277,38837,1,2,3:2:0:0:
492,220,39018,5,10,3:2:0:0:
492,220,39199,1,8,3:2:0:0:
339,19,39741,1,8,0:0:0:0:
267,63,39922,2,0,P|255:100|265:136,1,60,2|0,3:2|3:2,0:0:0:0:
275,202,40283,2,0,L|393:177,1,120,4|0,3:1|3:1,0:0:0:0:
372,258,40825,2,0,L|295:275,1,60,8|0,0:0|0:0,0:0:0:0:
228,269,41187,1,8,0:0:0:0:
156,225,41367,2,0,L|142:290,2,60,2|0|2,3:2|3:1|3:2,0:0:0:0:
143,145,41910,5,8,0:0:0:0:
143,145,42090,1,8,0:0:0:0:
358,8,42632,1,8,0:0:0:0:
421,63,42813,2,0,P|433:100|423:136,1,60,2|0,3:2|3:2,0:0:0:0:
414,203,43175,2,0,L|296:178,1,120,4|0,3:1|3:1,0:0:0:0:
306,262,43717,2,0,L|382:276,1,60,12|0,0:0|0:0,0:0:0:0:
440,239,44074,1,0,3:1:0:0:
486,172,44254,1,8,0:0:0:0:
486,172,44345,1,8,0:0:0:0:
486,172,44435,2,0,L|495:125,3,30,8|8|8|8,0:0|0:0|0:0|0:0,0:0:0:0:
499,107,44796,6,0,P|455:70|386:89,1,132.00000402832,4|8,3:1|0:0,0:0:0:0:
306,121,45338,1,0,0:0:0:0:
306,121,45428,1,0,0:0:0:0:
306,121,45518,2,0,P|275:95|258:56,1,66.0000020141602,2|0,3:2|3:1,0:0:0:0:
193,0,45880,2,0,P|178:46|163:63,1,66.0000020141602,10|0,0:0|0:0,0:0:0:0:
103,126,46241,2,0,P|45:97|-1:49,2,132.00000402832,2|8|0,3:2|0:0|3:1,0:0:0:0:
158,200,47145,2,0,P|188:171|221:161,2,66.0000020141602,2|8|2,3:2|0:0|0:0,0:0:0:0:
83,254,47687,6,0,L|59:190,1,66.0000020141602,4|0,3:1|0:0,0:0:0:0:
3,118,48049,1,10,0:0:0:0:
74,58,48229,1,2,0:0:0:0:
74,58,48320,1,0,0:0:0:0:
74,58,48410,2,0,P|91:86|129:109,1,66.0000020141602,0|2,3:1|3:2,0:0:0:0:
164,184,48771,2,0,P|197:155|237:141,1,66.0000020141602,8|2,0:0|0:0,0:0:0:0:
257,61,49133,2,0,P|324:84|391:51,1,132.00000402832,2|8,3:2|0:0,0:0:0:0:
470,55,49668,2,0,P|484:28|504:-1,2,66.0000020141602,2|2|0,3:2|3:2|3:1,0:0:0:0:
493,134,50204,1,10,0:0:0:0:
439,270,50565,6,0,P|407:291|388:322,1,66.0000020141602,12|0,0:0|3:1,0:0:0:0:
329,381,50926,2,0,P|308:352|272:338,1,66.0000020141602,12|0,0:0|3:0,0:0:0:0:
209,284,51287,1,12,0:0:0:0:
125,308,51471,1,8,3:2:0:0:
125,308,51563,1,8,0:0:0:0:
125,308,51655,2,0,B|116:266,3,33.0000010070801,8|8|8|8,0:0|0:0|0:0|0:0,0:0:0:0:
110,254,52023,6,0,P|110:150|12:181,1,227.999993911743,4|0,3:1|0:0,0:0:0:0:
18,170,53471,6,0,B|58:192|58:192|100:160|150:168,1,132.00000402832,6|10,3:2|0:0,0:0:0:0:
200,248,54012,1,2,0:0:0:0:
200,248,54102,1,8,0:0:0:0:
200,248,54193,2,0,P|236:235|261:210,1,66.0000020141602,2|0,3:2|3:1,0:0:0:0:
323,154,54554,1,10,0:0:0:0:
381,225,54734,2,0,P|371:264|345:299,1,66.0000020141602,2|0,0:0|3:1,0:0:0:0:
424,348,55095,2,0,P|462:337|506:342,1,66.0000020141602,2|8,0:0|0:0,0:0:0:0:
510,247,55456,2,0,P|481:218|463:178,1,66.0000020141602,2|0,0:0|3:1,0:0:0:0:
436,109,55817,6,0,L|449:43,2,66.0000020141602,2|10|2,3:2|0:0|0:0,0:0:0:0:
348,140,56359,2,0,P|281:132|220:87,1,132.00000402832,2|10,3:2|0:0,0:0:0:0:
158,52,56900,1,2,0:0:0:0:
158,52,56990,1,8,0:0:0:0:
158,52,57081,2,0,P|132:81|86:94,1,66.0000020141602,0|2,3:1|3:2,0:0:0:0:
16,109,57442,1,8,0:0:0:0:
44,196,57622,1,2,0:0:0:0:
11,282,57803,2,0,P|76:311|125:358,1,132.00000402832,2|8,3:2|0:0,0:0:0:0:
194,295,58344,1,2,0:0:0:0:
194,295,58434,1,8,0:0:0:0:
194,295,58525,1,2,3:2:0:0:
273,342,58705,2,0,L|261:380,2,33.0000010070801,0|8|8,3:1|0:0|0:0,0:0:0:0:
362,306,59066,5,8,0:0:0:0:
362,306,59156,1,8,0:0:0:0:
362,306,59247,2,0,P|389:279|428:261,1,66.0000020141602,6|0,3:2|0:0,0:0:0:0:
500,233,59608,2,0,P|477:204|468:154,1,66.0000020141602,10|0,0:0|0:0,0:0:0:0:
499,90,59969,2,0,P|459:74|429:44,1,66.0000020141602,2|0,3:2|3:1,0:0:0:0:
348,67,60330,1,10,0:0:0:0:
262,24,60510,2,0,P|239:65|203:74,1,66.0000020141602,2|0,0:0|3:1,0:0:0:0:
140,112,60871,2,0,P|119:85|88:56,1,66.0000020141602,2|8,0:0|0:0,0:0:0:0:
43,143,61232,2,0,P|74:180|89:219,1,66.0000020141602,2|0,0:0|3:1,0:0:0:0:
92,291,61593,1,2,3:2:0:0:
92,291,61774,1,10,0:0:0:0:
188,302,61954,1,2,0:0:0:0:
254,376,62135,6,0,P|283:323|267:238,1,132.00000402832,6|10,3:2|0:0,0:0:0:0:
244,176,62683,2,0,P|216:188|190:214,1,66.0000020141602,2|0,0:0|3:1,0:0:0:0:
119,261,63049,2,0,P|81:257|52:237,1,66.0000020141602,2|8,3:2|0:0,0:0:0:0:
0,166,63415,1,2,3:2:0:0:
115,180,63598,2,0,L|95:104,1,66.0000020141602,6|0,3:2|3:1,0:0:0:0:
76,30,63959,1,12,0:0:0:0:
76,30,64140,1,4,0:0:0:0:
256,70,64501,5,8,3:2:0:0:
315,155,64682,1,8,0:0:0:0:
315,155,64772,1,8,0:0:0:0:
315,155,64863,1,8,0:0:0:0:
315,155,64953,1,8,0:0:0:0:
315,155,65043,2,0,P|380:138|430:77,1,132.00000402832,6|10,3:2|0:0,0:0:0:0:
455,7,65584,2,0,P|490:25|505:53,1,66.0000020141602,2|0,0:0|3:1,0:0:0:0:
500,139,65944,2,0,L|484:212,1,66.0000020141602,2|8,3:2|0:0,0:0:0:0:
501,294,66305,2,0,P|443:284|372:312,1,132.00000402832,2|2,0:0|0:0,0:0:0:0:
304,368,66846,1,8,0:0:0:0:
229,313,67027,2,0,L|191:320,2,33.0000010070801,2|8|0,0:0|0:0|3:1,0:0:0:0:
287,240,67388,2,0,P|297:213|292:170,1,66.0000020141602,2|8,3:2|0:0,0:0:0:0:
238,97,67748,5,2,0:0:0:0:
296,23,67929,2,0,P|240:0|171:31,1,132.00000402832,6|10,3:2|0:0,0:0:0:0:
83,25,68470,2,0,P|89:57|78:90,1,66.0000020141602,2|0,0:0|3:1,0:0:0:0:
8,144,68831,2,0,P|29:181|58:199,1,66.0000020141602,2|8,3:2|0:0,0:0:0:0:
138,213,69192,1,2,0:0:0:0:
91,300,69372,2,0,B|165:281|152:345|222:331,1,132.00000402832,2|10,3:2|0:0,0:0:0:0:
288,279,69917,1,2,0:0:0:0:
347,351,70099,2,0,P|380:324|425:313,1,66.0000020141602,2|0,3:2|3:2,0:0:0:0:
501,294,70462,5,8,0:0:0:0:
501,294,70553,1,8,0:0:0:0:
501,294,70644,1,8,0:0:0:0:
501,294,70735,1,8,0:0:0:0:
501,294,70826,2,0,P|459:245|428:171,1,132.00000402832,6|10,3:2|0:0,0:0:0:0:
418,92,71374,2,0,P|382:104|357:129,1,66.0000020141602,2|0,0:0|3:1,0:0:0:0:
323,207,71740,2,0,P|295:228|251:217,1,66.0000020141602,0|8,3:2|0:0,0:0:0:0:
185,194,72106,1,0,0:0:0:0:
102,241,72289,2,0,B|78:205|78:205|92:152|58:105,1,132.00000402832,0|8,3:1|0:0,0:0:0:0:
71,27,72824,1,2,0:0:0:0:
153,68,73003,2,0,P|190:66|219:46,1,66.0000020141602,0|2,3:1|3:2,0:0:0:0:
301,20,73360,1,10,0:0:0:0:
379,68,73539,1,0,3:1:0:0:
462,74,73717,6,0,B|480:59|503:67|503:67|521:106|464:161,1,132.00000402832,14|0,0:2|3:1,0:0:0:0:
385,154,74265,2,0,L|409:216,1,66.0000020141602,14|0,0:0|3:1,0:0:0:0:
475,282,74625,1,0,3:1:0:0:
475,282,74803,2,0,L|411:307,1,66.0000020141602,12|0,0:0|3:1,0:0:0:0:
340,358,75158,5,8,0:0:0:0:
273,271,75335,1,8,0:0:0:0:
178,205,76506,6,0,B|250:159|231:359|9:225|152:74|388:87|388:87|320:148|320:148|366:160|366:160|312:205|312:205|354:229|354:229|336:252|307:266|268:272,1,782.999976104737
