osu file format v14

[General]
AudioFilename: audio.mp3
AudioLeadIn: 0
PreviewTime: 5671
Countdown: 0
SampleSet: Soft
StackLeniency: 0.2
Mode: 0
LetterboxInBreaks: 0
WidescreenStoryboard: 0

[Editor]
DistanceSpacing: 1
BeatDivisor: 4
GridSize: 32
TimelineZoom: 1

[Metadata]
Title:Pink Bean Dance Song
TitleUnicode:Pink Bean Dance Song
Artist:Maplestory
ArtistUnicode:Maplestory
Creator:Koalazy
Version:Easy
Source:Maplestory
Tags:
BeatmapID:1888376
BeatmapSetID:904698

[Difficulty]
HPDrainRate:5
CircleSize:5
OverallDifficulty:9
ApproachRate:9
SliderMultiplier:1.32
SliderTickRate:1

[Events]
//Background and Video events
0,0,"pink.jpg",0,0
//Break Periods
//Storyboard Layer 0 (Background)
//Storyboard Layer 1 (Fail)
//Storyboard Layer 2 (Pass)
//Storyboard Layer 3 (Foreground)
//Storyboard Sound Samples

[TimingPoints]
4081,454.545454545455,4,2,1,40,1,0
8853,-33.3333333333333,4,2,1,40,0,0
9535,-90.9090909090909,4,2,1,40,0,0
13171,-83.3333333333333,4,2,1,40,0,0
15899,-33.3333333333333,4,2,1,40,0,0
16467,-200,4,2,1,40,0,0
16808,-76.9230769230769,4,2,1,40,0,0
20444,-71.4285714285714,4,2,1,40,0,0
24081,-66.6666666666667,4,2,1,40,0,0
28626,-66.6666666666667,4,2,1,40,0,1
42262,-66.6666666666667,4,2,1,10,0,0

[Colours]
Combo1 : 255,128,192
Combo2 : 90,225,255

[HitObjects]
72,61,4081,6,0,B|60:63|55:68|55:68|52:88|69:100|69:100|79:97|84:89,1,66
167,73,4535,2,0,B|179:71|184:66|184:66|187:46|170:34|170:34|160:37|155:45,1,66
132,155,4990,1,0,0:0:0:0:
164,160,5103,1,0,0:0:0:0:
196,165,5217,1,0,0:0:0:0:
228,170,5331,1,0,0:0:0:0:
260,175,5444,2,0,L|349:190,1,66
96,256,5899,6,0,L|96:350,1,66
96,322,6353,1,0,0:0:0:0:
196,256,6581,1,0,0:0:0:0:
196,256,6694,2,0,L|196:350,1,66
296,322,7035,2,0,L|296:256,2,66
396,322,7717,5,0,0:0:0:0:
396,256,7944,1,0,0:0:0:0:
396,62,8171,1,0,0:0:0:0:
396,128,8398,1,0,0:0:0:0:
396,62,8512,1,0,0:0:0:0:
208,144,8853,6,0,B|179:153|198:192|236:201|256:172|256:172|275:201|313:192|332:153|286:133,2,198.000007553101
116,62,9535,6,0,P|109:103|85:131,1,72.6000022155762
61,193,9990,1,0,0:0:0:0:
179,271,10217,1,0,0:0:0:0:
179,271,10331,2,0,P|154:245|121:232,1,72.6000022155762
67,316,10671,2,0,P|91:342|125:355,2,72.6000022155762
208,354,11353,5,0,0:0:0:0:
272,319,11581,1,0,0:0:0:0:
336,351,11808,1,0,0:0:0:0:
407,340,12035,1,0,0:0:0:0:
407,340,12149,1,0,0:0:0:0:
441,350,12262,6,0,P|449:323|446:303,1,36.3000011077881
405,217,12490,2,0,P|397:244|400:264,1,36.3000011077881
486,188,12717,1,0,0:0:0:0:
465,157,12831,1,0,0:0:0:0:
433,138,12944,1,0,0:0:0:0:
396,133,13058,1,0,0:0:0:0:
350,154,13171,6,0,L|270:140,1,79.1999975830079
193,125,13626,1,0,0:0:0:0:
291,223,13853,1,0,0:0:0:0:
291,223,13967,1,0,0:0:0:0:
134,194,14194,1,0,0:0:0:0:
134,194,14308,2,0,L|214:208,2,79.1999975830079
88,259,14990,5,0,0:0:0:0:
94,338,15217,1,0,0:0:0:0:
16,344,15445,1,0,0:0:0:0:
9,264,15672,1,0,0:0:0:0:
9,264,15785,1,0,0:0:0:0:
9,264,15899,6,0,B|67:264|136:85|-41:33|-103:209|67:264|137:138,1,297.000011329651
132,167,16353,1,0,0:0:0:0:
107,71,16467,2,0,P|102:86|102:103,1,33
132,167,16808,6,0,L|246:133,1,85.7999960723879
387,137,17262,2,0,L|273:171,1,85.7999960723879
387,137,17603,1,0,0:0:0:0:
376,224,17831,1,0,0:0:0:0:
294,249,17944,2,0,L|408:215,2,85.7999960723879
231,373,18626,5,0,0:0:0:0:
170,312,18853,1,0,0:0:0:0:
209,235,19081,1,0,0:0:0:0:
294,249,19308,1,0,0:0:0:0:
52,371,19421,5,0,0:0:0:0:
242,300,20444,5,0,0:0:0:0:
332,317,20671,1,0,0:0:0:0:
403,257,20899,1,0,0:0:0:0:
363,134,21126,1,0,0:0:0:0:
357,168,21240,2,0,B|338:169|338:169|257:229,1,92.3999971801759
279,212,21581,2,0,B|261:140|261:140|247:127,1,92.3999971801759
161,96,22035,1,0,0:0:0:0:
68,96,22262,5,0,0:0:0:0:
68,96,22490,1,0,0:0:0:0:
161,96,22717,1,0,0:0:0:0:
26,182,22944,1,0,0:0:0:0:
26,182,23058,2,0,B|61:239|61:239|87:198|87:198|117:238|117:238|148:198|148:198|172:237|172:237|208:167,1,323.399990130616
286,305,23967,1,0,0:0:0:0:
270,335,24081,6,0,P|338:321|379:354,1,99.0000037765504
502,232,24535,2,0,P|434:246|393:213,1,99.0000037765504
386,190,24876,2,0,B|423:118|423:118|396:130,1,99.0000037765504
320,135,25217,2,0,P|282:87|231:82,2,99.0000037765504
220,142,25899,5,0,0:0:0:0:
292,242,26353,1,0,0:0:0:0:
283,264,26808,5,0,0:0:0:0:
228,119,27035,1,0,0:0:0:0:
246,96,27262,1,0,0:0:0:0:
265,287,27490,1,0,0:0:0:0:
156,192,27717,5,0,0:0:0:0:
206,192,27830,1,0,0:0:0:0:
256,192,27944,1,0,0:0:0:0:
305,192,28058,1,0,0:0:0:0:
354,192,28171,1,0,0:0:0:0:
16,327,28626,6,0,P|43:280|113:256,1,99.0000037765504
179,275,29081,1,0,0:0:0:0:
248,344,29308,1,0,0:0:0:0:
248,344,29421,1,0,0:0:0:0:
248,344,29535,6,0,L|354:328,1,99.0000037765504
512,281,29990,2,0,L|406:265,1,99.0000037765504
318,177,30444,2,0,P|346:115|329:59,1,99.0000037765504
233,215,30899,2,0,P|226:147|183:107,1,99.0000037765504,0|0,2:0|0:0,0:0:0:0:
165,99,31240,1,0,0:0:0:0:
212,310,31581,6,0,B|289:287|289:287|348:294,2,99.0000037765504
114,296,32262,2,0,P|61:273|44:224,1,99.0000037765504
63,140,32717,1,0,0:0:0:0:
160,157,32944,1,0,0:0:0:0:
33,136,33171,6,0,B|64:141|64:141|125:102,1,99.0000037765504
284,92,33626,2,0,P|228:66|168:78,1,99.0000037765504
298,173,34081,1,0,0:0:0:0:
396,179,34308,1,0,0:0:0:0:
456,100,34535,1,0,0:0:0:0:
298,173,34762,1,0,0:0:0:0:
298,173,35217,6,0,B|274:163|274:163|198:175,2,99.0000037765504
264,287,35899,2,0,B|191:298|191:298|167:288,1,99.0000037765504
86,232,36353,1,0,0:0:0:0:
54,137,36581,1,0,0:0:0:0:
100,49,36808,6,0,P|150:71|226:68,1,99.0000037765504
381,64,37262,2,0,P|331:42|255:45,1,99.0000037765504
219,148,37717,1,0,0:0:0:0:
334,225,37944,1,0,0:0:0:0:
379,245,38058,1,0,0:0:0:0:
427,235,38171,1,0,0:0:0:0:
392,141,38399,1,0,0:0:0:0:
269,336,38626,6,0,L|391:310,1,99.0000037765504
153,236,39081,2,0,L|264:259,1,99.0000037765504
84,306,39535,1,0,0:0:0:0:
33,168,39762,1,0,0:0:0:0:
33,168,39876,1,0,0:0:0:0:
33,168,39990,2,0,P|76:106|61:68,1,99.0000037765504
4,16,40444,5,0,0:0:0:0:
220,47,40671,1,0,0:0:0:0:
220,47,40785,1,0,0:0:0:0:
220,46,40899,2,0,P|183:77|180:125,1,99.0000037765504
512,384,41353,2,0,B|481:292|390:231|390:231|299:292|268:384,1,396.000015106202
