osu file format v14

[General]
AudioFilename: audio.mp3
AudioLeadIn: 0
PreviewTime: 45003
Countdown: 0
SampleSet: Soft
StackLeniency: 0.7
Mode: 0
LetterboxInBreaks: 0
WidescreenStoryboard: 1

[Editor]
Bookmarks: 7753,8253,9253,9586,10420,10920,11753,13086,18419,21086,22419,23753,33086,34419,39086,39753,43753,45086,63586,66419,71753,77086,82419,85086,86419,87753,93086,97086,98419,103753,107419,109086,118419,119753,124419,125086,127753,130419,151753
DistanceSpacing: 1
BeatDivisor: 2
GridSize: 4
TimelineZoom: 1.1

[Metadata]
Title:Stasis
TitleUnicode:Stasis
Artist:Maozon
ArtistUnicode:Maozon
Creator:VoiceCore
Version:Normal
Source:Lanota
Tags:Noxy Games Chapter IV Towards the Endless Sky Boss Ciel Aircraft Crystar AuroraE electronic instrumental video game
BeatmapID:3575887
BeatmapSetID:1731654

[Difficulty]
HPDrainRate:3
CircleSize:3
OverallDifficulty:4
ApproachRate:5
SliderMultiplier:0.999999999999999
SliderTickRate:1

[Events]
//Background and Video events
0,0,"bg.jpg",0,0
//Break Periods
2,66619,70553
//Storyboard Layer 0 (Background)
//Storyboard Layer 1 (Fail)
//Storyboard Layer 2 (Pass)
//Storyboard Layer 3 (Foreground)
//Storyboard Layer 4 (Overlay)
//Storyboard Sound Samples

[TimingPoints]
2420,333.333333333333,4,2,1,40,1,0
7753,-111.111111111111,4,2,1,60,0,0
8086,-111.111111111111,4,2,2,60,0,0
8253,-111.111111111111,4,2,1,60,0,0
8753,-111.111111111111,4,2,2,60,0,0
9253,-111.111111111111,4,2,1,60,0,0
10753,-111.111111111111,4,2,2,60,0,0
10919,-111.111111111111,4,2,1,60,0,0
11419,-111.111111111111,4,2,2,60,0,0
11586,-111.111111111111,4,2,1,60,0,0
21753,-111.111111111111,4,2,2,50,0,0
22086,-111.111111111111,4,2,1,40,0,0
23753,-100,4,2,1,70,0,0
33086,-100,4,2,1,60,0,0
34419,-100,4,2,1,70,0,0
43753,-100,4,2,1,60,0,0
45086,-100,4,2,1,70,0,0
63586,-111.111111111111,4,2,1,60,0,0
66419,-111.111111111111,4,2,1,40,0,0
71753,-111.111111111111,4,2,1,60,0,0
77003,-111.111111111111,4,2,1,5,0,0
77086,-111.111111111111,4,2,1,60,0,0
85753,-111.111111111111,4,2,2,50,0,0
86086,-111.111111111111,4,2,1,40,0,0
87753,-99.9999999999999,4,2,1,70,0,0
88086,-99.9999999999999,4,2,2,70,0,0
92919,-99.9999999999999,4,2,1,70,0,0
93419,-99.9999999999999,4,2,2,70,0,0
98419,-99.9999999999999,4,2,1,70,0,0
98753,-99.9999999999999,4,2,2,70,0,0
103419,-99.9999999999999,4,2,1,70,0,0
104086,-99.9999999999999,4,2,2,70,0,0
107419,-99.9999999999999,4,2,1,70,0,0
109086,-90.9090909090909,4,2,1,75,0,1
128253,-90.9090909090909,4,2,1,60,0,1
130419,-100,4,2,1,50,0,0
130586,-100,4,2,2,50,0,0
135419,-100,4,2,1,50,0,0
135753,-100,4,2,2,50,0,0
140753,-100,4,2,1,50,0,0
141086,-100,4,2,1,40,0,0

[Colours]
Combo1 : 192,192,192
Combo2 : 114,222,254
Combo3 : 1,147,254

[HitObjects]
4,323,7753,5,4,1:2:0:0:
80,276,8086,1,0,0:0:0:0:
80,276,8253,2,0,P|143:239|208:259,1,134.999995880127,4|0,1:2|0:0,0:0:0:0:
263,369,9253,1,4,1:2:0:0:
350,349,9586,1,4,1:2:0:0:
309,268,9919,2,0,P|321:232|338:182,1,89.999997253418,4|0,1:2|1:0,0:0:0:0:
381,173,10419,5,4,1:2:0:0:
462,135,10753,1,0,0:0:0:0:
462,135,10919,2,0,B|481:67|481:67|417:22,1,134.999995880127,4|0,1:2|0:0,0:0:0:0:
350,76,11753,2,0,B|265:45|265:45|207:113|207:113|104:71,1,269.999991760254,4|0,1:2|3:0,0:0:0:0:
40,44,13086,5,4,1:2:0:0:
123,78,13419,2,0,P|107:128|95:184,2,89.999997253418,0|0|0,1:0|1:0|1:0,0:0:0:0:
212,64,14419,2,0,P|238:122|273:145,1,89.999997253418,0|0,1:0|1:0,0:0:0:0:
346,154,15086,2,0,P|404:128|427:92,1,89.999997253418,0|0,1:0|1:0,0:0:0:0:
436,19,15753,5,0,1:0:0:0:
419,108,16086,2,0,L|438:201,2,89.999997253418,0|0|0,1:0|1:0|1:0,0:0:0:0:
336,145,17086,2,0,L|317:249,1,89.999997253418,0|0,1:0|1:0,0:0:0:0:
305,322,17753,1,0,1:0:0:0:
376,376,18086,2,0,P|393:375|433:360,1,44.999998626709,6|2,1:0|0:1,0:0:0:0:
452,335,18419,1,4,1:2:0:0:
256,192,18753,12,0,22419,1:0:0:0:
9,197,23753,6,0,P|57:165|111:168,1,99.9999999999999,4|0,1:2|0:0,0:0:0:0:
173,229,24419,1,8,0:0:0:0:
124,316,24753,2,0,B|77:296|77:296|18:308,2,99.9999999999999,0|0|0,0:0|1:0|0:0,0:0:0:0:
148,359,25586,1,0,0:0:0:0:
148,359,25753,2,0,L|256:346,1,99.9999999999999,8|0,0:0|0:0,0:0:0:0:
315,274,26419,6,0,P|284:237|301:178,1,99.9999999999999,0|0,1:0|0:0,0:0:0:0:
358,113,27086,1,8,0:0:0:0:
401,203,27419,2,0,L|500:187,2,99.9999999999999,0|0|0,0:0|1:0|0:0,0:0:0:0:
391,252,28253,1,0,0:0:0:0:
391,252,28419,2,0,P|398:280|347:335,1,99.9999999999999,8|0,0:0|0:0,0:0:0:0:
268,286,29086,6,0,P|244:244|205:192,1,99.9999999999999,4|0,1:2|0:0,0:0:0:0:
116,227,29753,1,8,0:0:0:0:
49,152,30086,2,0,P|49:103|83:61,2,99.9999999999999,0|0|0,0:0|1:0|0:0,0:0:0:0:
91,179,30919,1,0,0:0:0:0:
91,179,31086,2,0,P|137:172|176:116,1,99.9999999999999,8|0,0:0|0:0,0:0:0:0:
217,43,31753,6,0,P|206:76|230:135,1,99.9999999999999,0|0,1:0|0:0,0:0:0:0:
311,77,32419,1,8,0:0:0:0:
400,121,32753,1,0,0:0:0:0:
481,63,33086,2,0,B|399:6|399:6|470:192|470:192|425:244,1,350,0|0,1:0|3:0,0:0:0:0:
400,264,34419,6,0,L|300:244,1,99.9999999999999,4|0,1:2|0:0,0:0:0:0:
216,296,35086,1,8,0:0:0:0:
129,246,35419,2,0,B|66:254|105:280|32:291,2,99.9999999999999,0|0|0,0:0|1:0|0:0,0:0:0:0:
153,202,36253,1,0,0:0:0:0:
153,202,36419,2,0,P|144:162|81:129,1,99.9999999999999,8|0,0:0|0:0,0:0:0:0:
25,197,37086,6,0,P|10:268|6:310,1,99.9999999999999,0|0,1:0|0:0,0:0:0:0:
64,377,37753,1,8,0:0:0:0:
151,328,38086,1,0,0:0:0:0:
242,368,38419,2,0,B|277:331|332:334|332:334|305:318|291:289,1,150,0|8,1:0|0:0,0:0:0:0:
317,253,39086,2,0,L|404:237,2,74.9999999999999,0|0|0,1:0|1:0|1:0,0:0:0:0:
281,218,39753,6,0,B|214:207|214:207|203:172,1,99.9999999999999,4|0,1:2|0:0,0:0:0:0:
185,78,40419,1,8,0:0:0:0:
284,99,40753,2,0,B|261:35|308:60|288:-2,2,99.9999999999999,0|0|0,0:0|1:0|0:0,0:0:0:0:
269,147,41586,1,0,0:0:0:0:
269,147,41753,2,0,B|251:195|251:195|201:215,1,99.9999999999999,8|0,0:0|0:0,0:0:0:0:
118,170,42419,6,0,P|70:147|15:150,1,99.9999999999999,0|0,1:0|0:0,0:0:0:0:
0,244,43086,1,8,0:0:0:0:
70,315,43419,2,0,P|125:301|175:296,1,99.9999999999999,0|0,0:0|1:0,0:0:0:0:
508,223,45086,6,0,P|466:274|478:314,1,99.9999999999999,4|0,1:2|0:0,0:0:0:0:
494,353,45586,1,0,0:0:0:0:
494,353,45753,2,0,P|444:319|392:296,1,99.9999999999999,8|0,0:0|0:0,0:0:0:0:
312,329,46419,2,0,L|320:379,2,50,0|0|0,1:0|0:0|0:0,0:0:0:0:
237,261,47086,1,10,0:0:0:0:
290,176,47419,1,0,0:0:0:0:
202,127,47753,6,0,P|152:126|101:111,1,99.9999999999999,2|0,1:2|0:0,0:0:0:0:
81,67,48253,1,0,0:0:0:0:
81,67,48419,2,0,P|125:29|184:35,1,99.9999999999999,8|0,0:0|0:0,0:0:0:0:
261,52,49086,2,0,L|271:-2,2,50,0|0|0,1:0|0:0|0:0,0:0:0:0:
312,139,49753,1,10,0:0:0:0:
405,103,50086,1,0,0:0:0:0:
405,103,50253,6,0,B|415:51|415:51|373:9,2,99.9999999999999,4|0|2,1:2|0:0|0:0,0:0:0:0:
398,152,51086,2,0,B|389:204|389:204|423:240,1,99.9999999999999,8|0,0:0|0:0,0:0:0:0:
509,286,51753,2,0,P|515:264|509:238,2,50,0|2|0,1:0|0:0|0:0,0:0:0:0:
423,338,52419,1,10,0:0:0:0:
338,297,52753,1,0,0:0:0:0:
338,297,52919,6,0,P|314:338|246:337,2,99.9999999999999,4|0|2,1:2|0:0|0:0,0:0:0:0:
334,246,53753,2,0,P|267:217|231:234,1,99.9999999999999,8|0,0:0|0:0,0:0:0:0:
175,296,54419,2,0,L|183:349,2,50,0|2|0,1:0|0:0|0:0,0:0:0:0:
93,237,55086,1,8,0:0:0:0:
118,140,55419,1,0,0:0:0:0:
34,84,55753,6,0,B|21:35|21:35|73:-5,1,99.9999999999999,4|0,1:2|0:0,0:0:0:0:
165,25,56419,1,8,0:0:0:0:
165,25,56586,2,0,P|215:58|258:48,1,99.9999999999999,0|2,0:0|0:0,0:0:0:0:
299,35,57086,2,0,P|284:58|281:90,2,50,0|2|0,1:0|0:0|0:0,0:0:0:0:
389,77,57753,1,10,0:0:0:0:
469,18,58086,1,2,0:0:0:0:
487,116,58419,6,0,P|469:168|456:232,1,99.9999999999999,0|0,1:0|0:0,0:0:0:0:
440,313,59086,1,8,0:0:0:0:
440,313,59253,2,0,B|410:352|410:352|360:338,1,99.9999999999999,0|2,0:0|0:0,0:0:0:0:
315,317,59753,2,0,L|265:319,2,50,0|2|0,1:0|0:0|0:0,0:0:0:0:
361,229,60419,1,8,0:0:0:0:
281,167,60753,1,2,0:0:0:0:
281,167,60919,6,0,B|226:182|254:200|191:215,2,99.9999999999999,6|0|2,1:2|0:0|0:0,0:0:0:0:
312,127,61753,2,0,P|311:92|255:49,1,99.9999999999999,8|0,0:0|0:0,0:0:0:0:
165,48,62419,2,0,L|153:-8,2,50,0|2|0,1:0|0:0|0:0,0:0:0:0:
110,131,63086,2,0,P|81:205|76:235,1,99.9999999999999,8|2,0:0|0:0,0:0:0:0:
86,269,63586,5,2,1:2:0:0:
256,192,63753,12,4,66419,1:2:0:0:
256,192,71753,12,0,76419,0:0:0:0:
13,371,77086,5,4,1:2:0:0:
93,330,77419,2,0,P|142:335|183:353,2,89.999997253418,0|0|0,1:0|1:0|1:0,0:0:0:0:
38,258,78419,2,0,P|50:215|87:174,1,89.999997253418,0|0,1:0|1:0,0:0:0:0:
164,153,79086,2,0,P|207:165|248:201,1,89.999997253418,0|0,1:0|1:0,0:0:0:0:
275,276,79753,5,0,1:0:0:0:
241,193,80086,2,0,L|251:94,2,89.999997253418,0|0|0,1:0|1:0|1:0,0:0:0:0:
151,207,81086,2,0,L|140:109,1,89.999997253418,0|0,1:0|1:0,0:0:0:0:
128,28,81753,1,0,1:0:0:0:
59,85,82086,2,0,P|19:77|10:64,1,44.999998626709,6|2,1:0|0:1,0:0:0:0:
0,32,82419,1,4,1:2:0:0:
256,192,82753,12,0,86419,1:0:0:0:
355,124,87753,6,0,P|342:60|326:10,1,99.9999999999999,4|0,1:2|1:0,0:0:0:0:
243,73,88419,1,0,1:0:0:0:
243,73,88753,1,0,1:0:0:0:
145,53,89086,1,0,1:0:0:0:
145,53,89419,1,0,1:0:0:0:
47,33,89752,1,0,1:0:0:0:
47,33,90086,1,0,1:0:0:0:
71,129,90419,5,0,1:0:0:0:
71,129,90753,1,0,1:0:0:0:
33,221,91086,1,0,1:0:0:0:
33,221,91419,1,0,1:0:0:0:
109,286,91752,1,0,1:0:0:0:
109,286,92086,1,0,1:0:0:0:
194,234,92419,1,0,1:0:0:0:
194,234,92753,2,0,L|183:167,1,50,0|8,1:0|0:0,0:0:0:0:
179,135,93086,6,0,P|230:145|294:150,1,99.9999999999999,4|0,1:2|1:0,0:0:0:0:
362,95,93753,2,0,P|383:65|386:37,2,50,0|2|0,1:0|0:0|1:0,0:0:0:0:
440,160,94419,2,0,P|474:170|502:165,2,50,0|2|0,1:0|0:0|1:0,0:0:0:0:
402,254,95086,2,0,P|402:290|415:315,2,50,0|2|0,1:0|0:0|1:0,0:0:0:0:
300,247,95753,2,0,P|265:258|246:278,2,50,0|2|0,1:0|0:0|1:0,0:0:0:0:
277,149,96419,2,0,P|255:119|230:107,2,50,0|2|0,1:0|0:0|1:0,0:0:0:0:
362,95,97086,2,0,B|411:60|403:10|403:10|406:62|460:87|460:87|539:130|499:231,1,350,0|0,1:0|0:0,0:0:0:0:
476,255,98419,6,0,B|432:230|432:230|365:249,1,99.9999999999999,4|0,1:2|1:0,0:0:0:0:
336,331,99086,2,0,L|276:340,1,50,0|2,1:0|0:0,0:0:0:0:
238,346,99419,1,0,1:0:0:0:
206,251,99753,2,0,L|146:260,1,50,0|2,1:0|0:0,0:0:0:0:
108,266,100086,1,0,1:0:0:0:
97,365,100419,2,0,L|37:374,1,50,0|2,1:0|0:0,0:0:0:0:
0,380,100752,1,0,1:0:0:0:
15,281,101086,6,0,P|22:235|14:214,1,50,0|2,1:0|0:0,0:0:0:0:
1,186,101419,1,0,1:0:0:0:
91,143,101753,2,0,P|137:150|158:142,1,50,0|2,1:0|0:0,0:0:0:0:
186,129,102086,1,0,1:0:0:0:
280,96,102419,2,0,P|287:142|279:163,1,50,0|2,1:0|0:0,0:0:0:0:
266,191,102752,1,0,1:0:0:0:
356,234,103086,2,0,P|402:227|423:235,1,50,0|2,1:0|0:0,0:0:0:0:
451,248,103419,2,0,P|437:200|437:177,1,50,0|8,1:0|0:0,0:0:0:0:
460,155,103753,6,0,L|476:36,1,99.9999999999999,4|0,1:2|1:0,0:0:0:0:
256,192,104419,12,0,107086,1:0:0:0:
366,58,107753,6,0,B|319:40|319:40|286:81,1,99.9999999999999,0|0,1:0|3:0,0:0:0:0:
258,119,108253,2,0,P|314:149|410:66,1,200,0|0,1:0|0:0,0:0:0:0:
371,35,109086,5,4,1:2:0:0:
264,9,109419,1,8,0:0:0:0:
264,9,109586,2,0,B|193:18|234:47|162:61,1,110.000003356934,0|8,1:0|0:0,0:0:0:0:
116,46,110086,1,0,1:0:0:0:
66,144,110419,2,0,L|9:132,2,55.0000016784668,0|0|8,1:0|1:0|0:0,0:0:0:0:
75,198,110919,2,0,B|73:275|43:231|41:325,1,110.000003356934,0|8,1:0|0:0,0:0:0:0:
73,346,111419,1,0,1:0:0:0:
152,269,111753,6,0,P|190:306|259:283,1,110.000003356934,0|8,1:0|0:0,0:0:0:0:
282,260,112253,1,0,1:0:0:0:
318,363,112586,1,8,0:0:0:0:
318,363,112753,2,0,L|382:350,1,55.0000016784668,0|8,1:0|0:0,0:0:0:0:
395,302,113086,1,0,1:0:0:0:
495,256,113419,1,8,0:0:0:0:
495,256,113586,2,0,B|493:179|463:223|461:129,1,110.000003356934,0|8,1:0|0:0,0:0:0:0:
479,100,114086,1,0,0:0:0:0:
376,139,114419,5,4,1:2:0:0:
301,57,114753,1,8,0:0:0:0:
301,57,114919,2,0,B|264:55|264:55|223:82|214:125,1,110.000003356934,0|8,1:0|0:0,0:0:0:0:
251,154,115419,1,0,1:0:0:0:
324,235,115753,2,0,P|358:216|387:221,2,55.0000016784668,0|0|8,1:0|1:0|0:0,0:0:0:0:
291,279,116253,2,0,B|244:308|244:308|175:290,1,110.000003356934,0|8,1:0|0:0,0:0:0:0:
142,272,116753,1,0,1:0:0:0:
41,317,117086,6,0,P|20:245|13:202,1,110.000003356934,0|8,1:0|0:0,0:0:0:0:
63,185,117586,1,0,1:0:0:0:
142,108,117919,1,8,0:0:0:0:
142,108,118086,2,0,P|160:68|161:47,1,55.0000016784668,0|8,1:0|0:0,0:0:0:0:
127,14,118419,2,0,B|21:5|6:129|61:170|61:170|111:207|115:272|60:311,1,385.000011749268,0|0,1:0|3:0,0:0:0:0:
23,338,119753,5,4,1:2:0:0:
127,371,120086,1,8,0:0:0:0:
127,371,120253,2,0,B|171:356|171:356|179:343|179:343|244:322,1,110.000003356934,0|8,1:0|0:0,0:0:0:0:
277,310,120753,1,0,1:0:0:0:
384,331,121086,2,0,P|368:362|363:390,2,55.0000016784668,0|0|8,1:0|1:0|0:0,0:0:0:0:
438,335,121586,2,0,B|430:289|430:289|419:278|419:278|410:211,1,110.000003356934,0|8,1:0|0:0,0:0:0:0:
440,183,122086,1,0,1:0:0:0:
496,89,122419,6,0,B|476:36|476:36|416:41,1,110.000003356934,0|8,1:0|0:0,0:0:0:0:
378,72,122919,1,0,1:0:0:0:
268,87,123253,2,0,P|284:65|291:39,2,55.0000016784668,8|0|8,0:0|1:0|0:0,0:0:0:0:
269,142,123753,2,0,P|244:156|206:156,1,55.0000016784668,0|0,1:0|1:0,0:0:0:0:
179,197,124086,1,8,0:0:0:0:
106,116,124419,2,0,L|118:16,2,82.5000025177002,0|0|0,3:0|3:0|3:0,0:0:0:0:
60,147,125086,5,4,1:2:0:0:
17,248,125419,1,8,0:0:0:0:
17,248,125586,2,0,B|32:260|32:260|103:254|103:254|127:230,1,110.000003356934,0|8,1:0|0:0,0:0:0:0:
149,195,126086,1,0,1:0:0:0:
241,136,126419,2,0,P|253:113|256:80,1,55.0000016784668,0|0,1:0|1:0,0:0:0:0:
222,40,126753,1,8,0:0:0:0:
222,40,126919,2,0,B|207:28|207:28|136:34|136:34|112:58,1,110.000003356934,0|8,1:0|0:0,0:0:0:0:
87,90,127419,1,0,1:0:0:0:
1,20,127753,1,0,1:0:0:0:
256,192,127919,12,4,130419,1:2:0:0:
