osu file format v14

[General]
AudioFilename: audio.mp3
AudioLeadIn: 0
PreviewTime: 45003
Countdown: 0
SampleSet: Soft
StackLeniency: 0.3
Mode: 0
LetterboxInBreaks: 0
WidescreenStoryboard: 1

[Editor]
Bookmarks: 7753,8253,9253,9586,10420,10920,11753,13086,18419,21086,22419,23753,33086,34419,39086,39753,43753,45086,63586,66419,71753,77086,82419,85086,86419,87753,93086,97086,98419,103753,107419,109086,118419,119753,124419,125086,127753,130419,151753
DistanceSpacing: 0.5
BeatDivisor: 4
GridSize: 4
TimelineZoom: 1

[Metadata]
Title:Stasis
TitleUnicode:Stasis
Artist:Maozon
ArtistUnicode:Maozon
Creator:VoiceCore
Version:Hyper
Source:Lanota
Tags:Noxy Games Chapter IV Towards the Endless Sky Boss Ciel Aircraft Crystar AuroraE electronic instrumental video game
BeatmapID:3786943
BeatmapSetID:1731654

[Difficulty]
HPDrainRate:5
CircleSize:3.6
OverallDifficulty:7
ApproachRate:8.3
SliderMultiplier:1.8
SliderTickRate:1

[Events]
//Background and Video events
0,0,"bg.jpg",0,0
//Break Periods
2,66619,70715
//Storyboard Layer 0 (Background)
//Storyboard Layer 1 (Fail)
//Storyboard Layer 2 (Pass)
//Storyboard Layer 3 (Foreground)
//Storyboard Layer 4 (Overlay)
//Storyboard Sound Samples

[TimingPoints]
2420,333.333333333333,4,2,1,40,1,0
7419,-125,4,2,1,40,0,0
7753,-100,4,2,1,60,0,0
8086,-100,4,2,2,60,0,0
8253,-166.666666666667,4,2,1,60,0,0
8753,-166.666666666667,4,2,2,60,0,0
9253,-100,4,2,1,60,0,0
10753,-100,4,2,2,60,0,0
10919,-166.666666666667,4,2,1,60,0,0
11419,-166.666666666667,4,2,2,60,0,0
11586,-166.666666666667,4,2,1,60,0,0
11753,-100,4,2,1,60,0,0
13086,-166.666666666667,4,2,1,60,0,0
14419,-142.857142857143,4,2,1,60,0,0
15753,-125,4,2,1,60,0,0
17086,-111.111111111111,4,2,1,60,0,0
18086,-66.6666666666666,4,2,1,60,0,0
18419,-100,4,2,1,60,0,0
21753,-100,4,2,2,50,0,0
22086,-100,4,2,1,40,0,0
23753,-83.3333333333333,4,2,1,70,0,0
24086,-100,4,2,1,70,0,0
26419,-66.6666666666667,4,2,1,70,0,0
26753,-100,4,2,1,70,0,0
29086,-83.3333333333333,4,2,1,70,0,0
29419,-100,4,2,1,70,0,0
31753,-66.6666666666667,4,2,1,70,0,0
32086,-100,4,2,1,70,0,0
33086,-100,4,2,1,60,0,0
34419,-83.3333333333333,4,2,1,70,0,0
34753,-100,4,2,1,70,0,0
37086,-66.6666666666667,4,2,1,70,0,0
37419,-100,4,2,1,70,0,0
39753,-83.3333333333333,4,2,1,70,0,0
40086,-100,4,2,1,70,0,0
42419,-66.6666666666667,4,2,1,70,0,0
42753,-100,4,2,1,70,0,0
43753,-100,4,2,1,60,0,0
45086,-100,4,2,1,70,0,0
50253,-83.3333333333333,4,2,1,70,0,0
50586,-100,4,2,1,70,0,0
52919,-83.3333333333333,4,2,1,70,0,0
53253,-100,4,2,1,70,0,0
60919,-83.3333333333333,4,2,1,70,0,0
61253,-100,4,2,1,70,0,0
63586,-166.666666666667,4,2,1,60,0,0
66419,-166.666666666667,4,2,1,40,0,0
71753,-166.666666666667,4,2,1,60,0,0
77003,-166.666666666667,4,2,1,5,0,0
77086,-166.666666666667,4,2,1,60,0,0
78419,-142.857142857143,4,2,1,60,0,0
79753,-125,4,2,1,60,0,0
81098,-111.111111111111,4,2,1,60,0,0
82086,-66.6666666666667,4,2,1,60,0,0
82419,-100,4,2,1,60,0,0
85753,-100,4,2,2,50,0,0
86086,-100,4,2,1,40,0,0
87753,-83.3333333333333,4,2,1,70,0,0
88086,-100,4,2,2,70,0,0
92919,-100,4,2,1,70,0,0
93086,-83.3333333333333,4,2,1,70,0,0
93419,-100,4,2,2,70,0,0
97086,-125,4,2,2,70,0,0
98419,-83.3333333333333,4,2,1,70,0,0
98753,-100,4,2,2,70,0,0
103419,-100,4,2,1,70,0,0
103753,-83.3333333333333,4,2,1,70,0,0
104086,-100,4,2,2,70,0,0
107419,-100,4,2,1,70,0,0
109086,-83.3333333333333,4,2,1,75,0,1
111753,-66.6666666666667,4,2,1,75,0,1
112086,-83.3333333333333,4,2,1,75,0,1
117086,-66.6666666666667,4,2,1,75,0,1
117419,-83.3333333333333,4,2,1,75,0,1
122419,-66.6666666666667,4,2,1,75,0,1
122753,-83.3333333333333,4,2,1,75,0,1
127753,-66.6666666666667,4,2,1,75,0,0
128253,-125,4,2,1,60,0,0
130419,-125,4,2,1,50,0,0
130586,-125,4,2,2,50,0,0
135419,-125,4,2,1,50,0,0
135753,-125,4,2,2,50,0,0
140753,-125,4,2,1,50,0,0
141086,-125,4,2,1,40,0,0

[Colours]
Combo1 : 192,192,192
Combo2 : 114,222,254
Combo3 : 1,147,254

[HitObjects]
243,354,7419,6,0,P|241:281|279:251,1,108,2|0,0:0|0:0,0:0:0:0:
274,255,7753,6,0,B|333:263|333:263|266:279,1,90,4|0,1:2|0:0,0:0:0:0:
133,328,8086,1,0,0:0:0:0:
133,328,8253,2,0,B|88:325|88:325|70:332|70:332|17:329,1,107.999996704102,4|0,1:2|0:0,0:0:0:0:
55,254,8753,2,0,P|33:229|39:191,2,53.9999983520508,0|0|0,0:0|0:0|0:0,0:0:0:0:
126,100,9253,6,0,L|112:203,1,90,4|0,1:2|0:0,0:0:0:0:
205,84,9586,2,0,B|197:13|197:13|225:-2,1,90,4|0,1:2|0:0,0:0:0:0:
276,124,9919,2,0,P|300:175|424:156,1,180,4|0,1:2|1:0,0:0:0:0:
365,89,10419,6,0,B|344:63|344:63|357:125,1,90,4|0,1:2|0:0,0:0:0:0:
392,280,10753,1,0,0:0:0:0:
392,280,10919,2,0,P|404:201|414:165,1,107.999996704102,4|0,1:2|0:0,0:0:0:0:
476,124,11419,2,0,P|470:86|454:62,1,53.9999983520508,0|2,0:0|0:0,0:0:0:0:
391,42,11753,5,4,1:2:0:0:
484,206,11919,2,0,L|511:249,2,45,0|0|0,3:0|3:0|3:0,0:0:0:0:
417,250,12253,1,0,3:0:0:0:
407,260,12336,1,0,3:0:0:0:
396,273,12419,2,0,P|386:289|374:326,3,45,0|0|0|0,3:0|3:0|3:0|3:0,0:0:0:0:
450,347,12753,2,0,P|459:367|477:386,3,45,0|0|0|0,3:0|3:0|3:0|3:0,0:0:0:0:
493,274,13086,6,0,B|506:248|506:248|484:210,3,53.9999983520508,4|0|0|0,1:2|0:0|1:0|0:0,0:0:0:0:
429,181,13753,2,0,B|442:155|442:155|420:117,3,53.9999983520508,0|0|0|0,1:0|0:0|1:0|0:0,0:0:0:0:
300,101,14419,6,0,L|365:88,3,62.9999980773926,0|0|0|0,1:0|0:0|1:0|0:0,0:0:0:0:
226,60,15086,2,0,L|161:47,3,62.9999980773926,0|0|0|0,1:0|0:0|1:0|0:0,0:0:0:0:
260,172,15753,6,0,P|193:188|180:211,3,72,0|0|0|0,1:0|0:0|1:0|0:0,0:0:0:0:
318,235,16419,2,0,P|354:293|346:319,3,72,0|0|0|0,1:0|0:0|1:0|0:0,0:0:0:0:
164,279,17086,6,0,P|181:200|193:180,3,80.9999975280763,0|0|0|0,1:0|0:0|1:0|0:0,0:0:0:0:
43,146,17753,2,0,P|26:67|14:47,1,80.9999975280763,0|0,1:0|0:0,0:0:0:0:
176,191,18086,2,0,B|154:185|154:185|118:146|66:158|66:158|22:146,1,135.000005149842,6|2,1:0|0:1,0:0:0:0:
91,237,18419,6,0,P|40:273|37:323,1,90,4|0,1:2|1:0,0:0:0:0:
109,339,18752,1,0,1:0:0:0:
13,381,18919,1,0,1:0:0:0:
118,347,19086,6,0,P|170:352|214:361,1,90,0|0,1:0|1:0,0:0:0:0:
299,308,19419,1,0,1:0:0:0:
233,237,19586,1,0,1:0:0:0:
308,321,19753,6,0,P|315:271|353:236,1,90,0|0,1:0|1:0,0:0:0:0:
465,290,20086,2,0,P|480:341|492:380,1,90,0|0,1:0|1:0,0:0:0:0:
387,308,20419,1,0,1:0:0:0:
417,222,20586,1,0,1:0:0:0:
323,148,20753,1,0,1:0:0:0:
311,63,20919,1,0,1:0:0:0:
360,2,21086,5,0,1:0:0:0:
256,192,21169,12,0,22419,1:0:0:0:
492,21,23753,6,0,P|461:85|376:62,1,161.999995056153,4|0,1:2|0:0,0:0:0:0:
374,57,24086,2,0,P|346:24|291:39,1,90,0|0,0:0|0:0,0:0:0:0:
382,179,24419,1,8,0:0:0:0:
287,37,24753,6,0,B|306:80|306:80|261:140,1,90,0|0,0:0|0:0,0:0:0:0:
182,13,25086,2,0,P|242:14|275:122,1,180,0|0,1:0|0:0,0:0:0:0:
237,179,25586,1,0,0:0:0:0:
119,106,25753,2,0,L|222:81,1,90,8|0,0:0|0:0,0:0:0:0:
52,169,26086,2,0,B|97:159|97:159|117:113,1,90,0|0,0:0|0:0,0:0:0:0:
63,23,26419,6,0,L|13:14,6,33.7500012874604,0|0|0|0|0|0|0,1:0|0:0|0:0|0:0|0:0|0:0|0:0,0:0:0:0:
114,83,26753,2,0,B|178:77|143:124|237:113,1,90,0|0,0:0|0:0,0:0:0:0:
352,47,27086,1,8,0:0:0:0:
211,112,27419,6,0,P|163:162|163:181,1,90,0|0,0:0|0:0,0:0:0:0:
295,124,27753,2,0,B|284:180|336:221|323:179|379:226|357:293,1,180,0|0,1:0|0:0,0:0:0:0:
333,355,28253,1,0,0:0:0:0:
212,269,28419,2,0,P|153:257|104:258,1,90,8|0,0:0|0:0,0:0:0:0:
201,350,28753,2,0,P|142:338|93:339,1,90,0|0,0:0|0:0,0:0:0:0:
29,360,29086,6,0,P|101:332|105:217,1,161.999995056153,4|0,1:2|0:0,0:0:0:0:
109,242,29419,2,0,L|15:254,1,90,0|0,0:0|0:0,0:0:0:0:
176,166,29753,1,8,0:0:0:0:
5,248,30086,6,0,L|26:153,1,90,0|0,0:0|0:0,0:0:0:0:
147,72,30419,2,0,B|148:58|148:58|92:7|92:7|64:77|64:77|80:103,1,180,0|0,1:0|0:0,0:0:0:0:
124,148,30919,1,0,0:0:0:0:
236,49,31086,2,0,P|269:56|340:76,1,90,8|0,0:0|0:0,0:0:0:0:
396,18,31419,2,0,P|331:39|318:94,1,90,0|0,0:0|0:0,0:0:0:0:
271,177,31753,6,0,L|279:237,6,33.7500012874604,0|0|0|0|0|0|0,1:0|0:0|0:0|0:0|0:0|0:0|0:0,0:0:0:0:
339,134,32086,2,0,P|372:141|443:161,1,90,0|0,0:0|0:0,0:0:0:0:
457,3,32419,1,8,0:0:0:0:
431,165,32753,6,0,P|446:106|523:95,1,135,0|0,0:0|0:0,0:0:0:0:
504,100,33086,6,0,L|511:145,3,45,0|0|0|0,1:0|3:0|3:0|3:0,0:0:0:0:
487,221,33419,1,0,3:0:0:0:
470,236,33503,1,0,3:0:0:0:
454,251,33586,2,0,L|445:305,1,45,0|0,3:0|3:0,0:0:0:0:
387,195,33753,2,0,L|380:150,3,45,0|0|0|0,3:0|3:0|3:0|3:0,0:0:0:0:
330,87,34086,2,0,L|339:33,3,45,0|0|0|0,3:0|3:0|3:0|3:0,0:0:0:0:
261,131,34419,6,0,P|245:199|150:197,1,161.999995056153,4|0,1:2|0:0,0:0:0:0:
158,195,34753,2,0,P|183:263|187:300,1,90,0|0,0:0|0:0,0:0:0:0:
46,362,35086,1,8,0:0:0:0:
187,294,35419,6,0,P|125:267|91:276,1,90,0|0,0:0|0:0,0:0:0:0:
130,347,35753,2,0,B|156:378|156:378|266:354|266:354|290:373,1,180,0|0,1:0|0:0,0:0:0:0:
363,348,36253,1,0,0:0:0:0:
269,235,36419,2,0,L|285:140,1,90,8|0,0:0|0:0,0:0:0:0:
167,261,36753,2,0,L|255:236,1,90,0|0,0:0|0:0,0:0:0:0:
359,266,37086,6,0,L|417:272,6,33.7500012874604,0|0|0|0|0|0|0,1:0|0:0|0:0|0:0|0:0|0:0|0:0,0:0:0:0:
323,195,37419,2,0,P|385:159|425:176,1,90,0|0,0:0|0:0,0:0:0:0:
486,312,37753,1,8,0:0:0:0:
412,166,38086,6,0,B|367:178|367:178|330:145,1,90,0|0,0:0|0:0,0:0:0:0:
407,39,38419,2,0,B|338:26|310:86|347:68|304:132|228:106,1,180,0|0,1:0|0:0,0:0:0:0:
189,68,38919,1,8,0:0:0:0:
262,32,39086,6,0,B|201:42|201:42|187:70,1,90,0|0,1:0|0:0,0:0:0:0:
148,143,39336,2,0,B|87:133|87:133|73:105,1,90,0|0,1:0|0:0,0:0:0:0:
40,33,39586,1,0,1:0:0:0:
40,33,39753,6,0,B|55:136|-11:91|16:213,1,161.999995056153,4|0,1:2|0:0,0:0:0:0:
24,191,40086,2,0,L|78:291,1,90,0|0,0:0|0:0,0:0:0:0:
231,235,40419,1,8,0:0:0:0:
67,284,40753,6,0,P|124:255|166:274,1,90,0|0,0:0|0:0,0:0:0:0:
328,315,41086,2,0,B|305:184|305:184|239:150,1,180,0|0,1:0|0:0,0:0:0:0:
231,235,41586,1,0,0:0:0:0:
212,366,41753,2,0,L|332:351,1,90,8|0,0:0|0:0,0:0:0:0:
126,334,42086,2,0,B|134:358|134:358|218:374,1,90,0|0,0:0|0:0,0:0:0:0:
335,259,42419,6,0,L|344:306,6,33.7500012874604,0|0|0|0|0|0|0,1:0|0:0|0:0|0:0|0:0|0:0|0:0,0:0:0:0:
415,320,42753,2,0,P|432:362|476:371,1,90,0|0,0:0|0:0,0:0:0:0:
509,194,43086,1,8,0:0:0:0:
473,362,43419,6,0,P|454:280|426:213,1,135,0|0,0:0|0:0,0:0:0:0:
422,215,43753,6,0,L|359:202,3,45,0|0|0|0,1:0|0:0|0:0|3:0,0:0:0:0:
315,255,44086,1,0,3:0:0:0:
271,125,44253,1,0,3:0:0:0:
265,146,44336,1,0,0:0:0:0:
260,167,44419,2,0,L|196:184,3,45,0|0|0|0,3:0|3:0|3:0|0:0,0:0:0:0:
152,131,44753,1,0,3:0:0:0:
152,131,45086,6,0,P|106:123|50:121,1,90,4|0,1:2|0:0,0:0:0:0:
73,29,45419,2,0,P|119:37|175:39,1,90,0|0,0:0|0:0,0:0:0:0:
253,5,45753,1,8,0:0:0:0:
152,131,45919,2,0,P|130:202|212:271,1,180,2|2,0:0|0:0,0:0:0:0:
339,245,46419,5,0,1:0:0:0:
212,187,46586,2,0,B|258:195|258:195|316:142,2,90,0|0|0,0:0|0:0|0:0,0:0:0:0:
303,60,47086,2,0,P|297:108|293:165,1,90,10|0,0:0|0:0,0:0:0:0:
391,44,47419,2,0,P|381:122|377:192,1,135,0|0,0:0|0:0,0:0:0:0:
376,189,47753,6,0,L|475:173,1,90,2|0,1:2|0:0,0:0:0:0:
383,272,48086,2,0,L|284:288,1,90,0|0,0:0|0:0,0:0:0:0:
441,334,48419,1,8,0:0:0:0:
376,189,48586,2,0,B|361:129|423:81|397:133|467:86|444:10,1,180,2|2,0:0|0:0,0:0:0:0:
458,175,49086,5,0,1:0:0:0:
365,38,49253,2,0,B|323:43|323:43|313:53|313:53|257:60,2,90,0|0|0,0:0|0:0|0:0,0:0:0:0:
362,118,49753,1,10,0:0:0:0:
281,202,49919,1,0,0:0:0:0:
301,289,50086,1,0,0:0:0:0:
374,259,50253,2,0,P|441:293|428:367,1,161.999995056153,4|0,1:2|0:0,0:0:0:0:
415,375,50586,5,0,0:0:0:0:
256,328,50753,2,0,P|215:353|153:352,1,90,0|2,0:0|0:0,0:0:0:0:
76,260,51086,2,0,P|91:329|99:383,1,90,8|0,0:0|0:0,0:0:0:0:
21,373,51419,5,0,0:0:0:0:
81,183,51586,2,0,P|126:199|154:244,1,90,2|0,0:0|1:0,0:0:0:0:
76,260,51919,2,0,B|50:138|50:138|59:174|89:187,1,180,2|0,0:0|0:0,0:0:0:0:
224,183,52419,1,10,0:0:0:0:
127,118,52586,1,0,0:0:0:0:
149,9,52753,1,0,0:0:0:0:
345,97,52919,2,0,P|343:167|313:195,1,107.999996704102,4|2,1:2|0:0,0:0:0:0:
250,52,53253,6,0,P|262:121|303:128,2,90,0|0|2,0:0|0:0|0:0,0:0:0:0:
347,12,53753,1,8,0:0:0:0:
457,129,53919,2,0,B|495:102|495:102|477:49,1,90,0|0,0:0|0:0,0:0:0:0:
404,72,54253,2,0,B|366:99|366:99|384:152,1,90,2|0,0:0|1:0,0:0:0:0:
481,269,54586,6,0,B|433:197|353:234|353:234|367:286,1,180,2|0,0:0|0:0,0:0:0:0:
418,319,55086,2,0,P|464:350|512:344,1,90,8|0,0:0|0:0,0:0:0:0:
361,265,55419,2,0,B|308:272|308:272|282:256|282:256|211:265,1,135,0|0,0:0|0:0,0:0:0:0:
220,276,55753,6,0,P|210:328|204:381,1,90,4|2,1:2|0:0,0:0:0:0:
133,264,56086,2,0,P|127:308|118:352,1,90,0|2,0:0|0:0,0:0:0:0:
41,378,56419,1,8,0:0:0:0:
4,298,56586,1,0,0:0:0:0:
76,206,56753,1,0,0:0:0:0:
133,264,56919,2,0,P|158:212|143:162,1,90,2|0,0:0|1:0,0:0:0:0:
56,85,57253,5,2,0:0:0:0:
17,159,57419,1,0,0:0:0:0:
73,86,57586,2,0,L|185:100,1,90,0|10,0:0|0:0,0:0:0:0:
271,126,57919,5,0,0:0:0:0:
205,19,58086,1,2,0:0:0:0:
279,114,58253,2,0,L|386:91,1,90,0|0,0:0|1:0,0:0:0:0:
481,160,58586,6,0,P|449:111|481:52,2,90,2|0|2,0:0|0:0|0:0,0:0:0:0:
509,233,59086,1,8,0:0:0:0:
451,304,59253,1,0,0:0:0:0:
338,272,59419,1,0,0:0:0:0:
366,199,59586,2,0,L|341:308,1,90,2|0,0:0|1:0,0:0:0:0:
347,374,59919,6,0,B|386:351|386:351|433:364,2,90,2|0|0,0:0|0:0|0:0,0:0:0:0:
253,288,60419,1,8,0:0:0:0:
188,369,60586,1,0,0:0:0:0:
110,327,60753,1,2,0:0:0:0:
47,375,60919,2,0,P|92:336|45:236,1,161.999995056153,6|0,1:2|0:0,0:0:0:0:
58,237,61253,6,0,B|36:199|36:199|69:162,2,90,0|0|2,0:0|0:0|0:0,0:0:0:0:
140,211,61753,1,8,0:0:0:0:
223,271,61919,1,0,0:0:0:0:
312,201,62086,1,0,0:0:0:0:
237,159,62253,2,0,P|211:113|242:52,1,90,2|0,0:0|1:0,0:0:0:0:
306,34,62586,5,2,0:0:0:0:
379,76,62753,1,0,0:0:0:0:
302,49,62919,2,0,L|202:66,1,90,0|8,0:0|0:0,0:0:0:0:
130,143,63253,5,0,0:0:0:0:
21,119,63419,1,2,0:0:0:0:
134,165,63586,2,0,P|168:224|177:283,2,107.999996704102,2|0|0,1:2|0:0|0:0,0:0:0:0:
58,190,64419,1,0,0:0:0:0:
58,190,64586,2,0,P|38:214|34:249,1,53.9999983520508,0|0,0:0|0:0,0:0:0:0:
169,273,64919,6,0,B|243:253|226:312|292:302,1,107.999996704102,0|0,0:0|0:0,0:0:0:0:
290,229,65419,2,0,P|284:208|250:173,1,53.9999983520508,0|0,0:0|0:0,0:0:0:0:
185,350,65753,2,0,L|122:361,1,53.9999983520508,0|0,0:0|0:0,0:0:0:0:
58,328,66086,1,0,0:0:0:0:
261,380,66419,1,4,1:2:0:0:
104,51,71419,5,2,0:0:0:0:
256,192,71753,12,0,76753,0:0:0:0:
270,46,77086,6,0,B|243:41|243:41|212:63,3,53.9999983520508,4|0|0|0,1:2|0:0|1:0|0:0,0:0:0:0:
190,126,77753,2,0,B|168:141|168:141|141:136,3,53.9999983520508,0|0|0|0,1:0|0:0|1:0|0:0,0:0:0:0:
72,230,78419,6,0,P|53:171|42:161,3,62.9999980773926,0|0|0|0,1:0|0:0|1:0|0:0,0:0:0:0:
136,283,79086,2,0,P|114:308|106:352,3,62.9999980773926,0|0|0|0,1:0|0:0|1:0|0:0,0:0:0:0:
311,262,79753,6,0,L|402:278,3,72,0|0|0|0,1:0|0:0|1:0|0:0,0:0:0:0:
184,215,80419,2,0,L|261:200,3,72,0|0|0|0,1:0|0:0|1:0|0:0,0:0:0:0:
437,217,81086,6,0,P|455:248|460:298,3,72,0|0|0|0,1:0|0:0|1:0|0:0,0:0:0:0:
301,368,81753,2,0,P|300:332|320:285,1,80.9999975280763,0|0,1:0|0:0,0:0:0:0:
449,292,82086,2,0,B|384:317|384:317|327:287,1,135.000005149842,6|2,1:0|0:1,0:0:0:0:
276,186,82419,6,0,L|263:96,1,90,4|0,1:2|1:0,0:0:0:0:
370,17,82753,1,0,1:0:0:0:
349,104,82919,1,0,1:0:0:0:
254,87,83086,6,0,P|197:113|162:115,1,90,0|0,1:0|1:0,0:0:0:0:
103,37,83419,1,0,1:0:0:0:
10,94,83586,1,0,1:0:0:0:
162,128,83753,6,0,B|190:165|190:165|176:212,1,90,0|0,1:0|1:0,0:0:0:0:
11,202,84086,2,0,L|98:181,1,90,0|0,1:0|1:0,0:0:0:0:
250,248,84419,1,0,1:0:0:0:
209,340,84586,1,0,1:0:0:0:
376,384,84753,1,0,1:0:0:0:
353,283,84919,1,0,1:0:0:0:
387,206,85086,5,0,1:0:0:0:
256,192,85169,12,0,86419,1:0:0:0:
368,56,87753,6,0,B|490:40|490:40|468:43|449:61,1,161.999995056153,4|0,1:2|0:0,0:0:0:0:
505,119,88086,1,0,1:0:0:0:
503,127,88419,1,0,1:0:0:0:
501,136,88753,1,0,1:0:0:0:
499,145,89085,1,0,1:0:0:0:
497,154,89420,1,0,1:0:0:0:
495,162,89753,1,0,1:0:0:0:
493,170,90086,1,0,1:0:0:0:
491,178,90419,6,0,B|453:173|453:173|437:178|437:178|365:167,1,90,0|0,1:0|0:0,0:0:0:0:
395,183,90753,2,0,B|433:188|433:188|449:183|449:183|521:194,1,90,0|0,1:0|0:0,0:0:0:0:
475,198,91086,6,0,B|437:193|437:193|421:198|421:198|349:187,1,90,0|0,1:0|0:0,0:0:0:0:
379,203,91420,2,0,B|417:208|417:208|433:203|433:203|505:214,1,90,0|0,1:0|0:0,0:0:0:0:
459,218,91752,6,0,B|421:213|421:213|405:218|405:218|333:207,1,90,0|0,1:0|0:0,0:0:0:0:
363,223,92086,2,0,B|401:228|401:228|417:223|417:223|489:234,1,90,0|0,1:0|0:0,0:0:0:0:
443,238,92419,6,0,B|405:233|405:233|389:238|389:238|317:227,1,90,0|0,1:0|0:0,0:0:0:0:
296,287,92753,1,0,1:0:0:0:
384,384,92919,1,8,0:0:0:0:
354,232,93086,6,2,B|363:186|314:142|331:183|260:142|289:45,1,161.999995056153,4|0,1:2|0:0,0:0:0:0:
363,89,93419,1,0,1:0:0:0:
395,11,93586,1,2,0:0:0:0:
278,77,93753,6,0,P|229:69|164:64,1,90,0|2,1:0|0:0,0:0:0:0:
119,121,94086,1,0,1:0:0:0:
41,78,94253,1,2,0:0:0:0:
126,133,94419,6,0,P|128:187|99:232,1,90,0|2,1:0|0:0,0:0:0:0:
65,316,94753,1,0,1:0:0:0:
32,215,94919,1,2,0:0:0:0:
144,294,95086,6,0,L|238:280,1,90,0|2,1:0|0:0,0:0:0:0:
295,228,95419,1,0,1:0:0:0:
257,357,95586,1,2,0:0:0:0:
348,288,95753,6,0,P|376:329|356:368,1,90,0|2,1:0|0:0,0:0:0:0:
295,228,96086,2,0,P|267:187|287:148,1,90,0|2,1:0|0:0,0:0:0:0:
367,103,96419,1,0,1:0:0:0:
412,191,96586,1,2,0:0:0:0:
296,153,96753,1,0,1:0:0:0:
304,35,96919,1,2,0:0:0:0:
367,103,97086,6,0,L|408:98,3,36,0|0|0|0,1:0|0:0|0:0|0:0,0:0:0:0:
464,46,97419,2,0,L|520:60,3,36,0|0|0|0,0:0|0:0|0:0|0:0,0:0:0:0:
474,129,97753,1,0,0:0:0:0:
488,140,97836,1,0,0:0:0:0:
493,157,97919,2,0,P|491:188|465:208,1,36,0|0,0:0|0:0,0:0:0:0:
371,173,98086,2,0,P|357:131|363:87,1,72,0|0,0:0|0:0,0:0:0:0:
421,239,98419,6,0,B|443:275|494:268|494:268|442:275|418:336,1,161.999995056153,4|0,1:2|0:0,0:0:0:0:
356,286,98753,2,0,P|349:318|355:349,3,45,0|0|2|0,1:0|0:0|0:0|0:0,0:0:0:0:
324,213,99086,2,0,P|296:230|278:256,3,45,0|0|2|0,1:0|0:0|0:0|0:0,0:0:0:0:
352,138,99419,2,0,P|320:131|289:137,3,45,0|0|2|0,1:0|0:0|0:0|0:0,0:0:0:0:
235,100,99753,5,0,1:0:0:0:
227,94,99836,1,0,0:0:0:0:
220,87,99919,2,0,L|229:26,1,45,2|0,0:0|0:0,0:0:0:0:
138,101,100086,2,0,L|147:40,3,45,0|0|2|0,1:0|0:0|0:0|0:0,0:0:0:0:
67,45,100419,2,0,L|54:-7,3,45,0|0|2|0,1:0|0:0|0:0|0:0,0:0:0:0:
12,134,100753,2,0,L|-1:82,3,45,0|0|0|0,1:0|0:0|0:0|0:0,0:0:0:0:
74,190,101086,5,0,1:0:0:0:
82,188,101169,1,0,0:0:0:0:
91,188,101253,2,0,P|121:198|135:216,1,45,2|0,0:0|0:0,0:0:0:0:
76,266,101419,2,0,P|55:298|47:326,3,45,0|0|2|0,1:0|0:0|0:0|0:0,0:0:0:0:
130,325,101753,2,0,P|137:362|151:387,3,45,0|0|2|0,1:0|0:0|0:0|0:0,0:0:0:0:
211,330,102086,2,0,P|243:351|271:359,3,45,0|0|2|0,1:0|0:0|0:0|0:0,0:0:0:0:
227,252,102419,6,0,B|219:229|219:229|231:197,3,45,0|0|2|0,1:0|0:0|0:0|0:0,0:0:0:0:
310,185,102753,2,0,B|318:162|318:162|306:130,3,45,0|0|2|0,1:0|0:0|0:0|0:0,0:0:0:0:
175,122,103086,2,0,B|167:99|167:99|179:67,3,45,0|0|2|0,1:0|0:0|0:0|0:0,0:0:0:0:
362,49,103419,2,0,B|370:26|370:26|358:-6,1,45,0|0,1:0|0:0,0:0:0:0:
286,25,103586,2,0,L|222:20,1,45,8|0,0:0|0:0,0:0:0:0:
286,25,103753,6,0,P|330:78|408:50,1,161.999995056153,4|0,1:2|0:0,0:0:0:0:
509,13,104086,2,0,P|493:37|484:69,3,45,0|0|2|0,1:0|0:0|0:0|0:0,0:0:0:0:
483,131,104419,1,0,1:0:0:0:
499,146,104502,1,0,0:0:0:0:
509,166,104585,1,2,0:0:0:0:
511,188,104668,1,0,0:0:0:0:
505,210,104753,2,0,L|431:199,3,45,0|0|2|0,1:0|0:0|0:0|0:0,0:0:0:0:
358,278,105086,6,0,L|420:265,3,45,0|0|2|0,1:0|0:0|0:0|0:0,0:0:0:0:
321,153,105419,2,0,L|261:142,3,45,0|0|2|0,1:0|0:0|0:0|0:0,0:0:0:0:
238,249,105753,1,0,1:0:0:0:
230,270,105836,1,0,0:0:0:0:
222,291,105919,1,2,0:0:0:0:
214,312,106002,1,0,0:0:0:0:
206,333,106086,2,0,P|202:301|183:272,3,45,0|0|2|0,1:0|0:0|0:0|0:0,0:0:0:0:
43,342,106419,6,0,P|26:378|23:402,3,45,0|0|2|0,1:0|0:0|0:0|0:0,0:0:0:0:
124,329,106753,1,0,1:0:0:0:
114,308,106836,1,0,0:0:0:0:
111,286,106919,1,2,0:0:0:0:
114,264,107002,1,0,0:0:0:0:
124,243,107086,2,0,P|150:255|191:253,1,45,0|0,1:0|0:0,0:0:0:0:
73,176,107253,2,0,P|47:164|6:166,1,45,2|0,0:0|0:0,0:0:0:0:
132,116,107419,1,8,0:0:0:0:
172,9,107753,6,0,L|185:72,3,45,0|0|0|0,1:0|0:0|0:0|3:0,0:0:0:0:
132,116,108086,1,0,3:0:0:0:
262,160,108253,1,0,1:0:0:0:
241,166,108336,1,0,0:0:0:0:
220,171,108419,2,0,L|203:235,3,45,0|0|0|0,3:0|3:0|3:0|0:0,0:0:0:0:
256,279,108753,2,0,P|275:340|355:330,1,135,0|0,0:0|0:0,0:0:0:0:
346,330,109086,6,0,B|362:296|362:296|336:191,1,107.999996704102,4|0,1:2|0:0,0:0:0:0:
308,81,109419,1,8,0:0:0:0:
266,200,109586,1,0,1:0:0:0:
257,193,109669,1,0,3:0:0:0:
248,186,109753,2,0,P|205:186|189:194,1,53.9999983520508,0|0,3:0|3:0,0:0:0:0:
139,254,109919,1,8,0:0:0:0:
25,125,110086,2,0,P|13:67|3:-1,1,107.999996704102,0|0,1:0|3:0,0:0:0:0:
119,118,110419,5,0,1:0:0:0:
119,118,110586,1,0,1:0:0:0:
18,215,110753,1,8,0:0:0:0:
103,308,110919,1,0,1:0:0:0:
112,303,111003,1,0,3:0:0:0:
122,303,111086,2,0,P|157:310|175:329,2,53.9999983520508,0|0|8,3:0|3:0|0:0,0:0:0:0:
35,374,111419,2,0,B|87:359|87:359|113:271,1,107.999996704102,0|0,1:0|0:0,0:0:0:0:
133,134,111753,6,0,L|93:143,6,33.7500012874604,0|0|0|0|0|0|0,1:0|0:0|0:0|0:0|0:0|0:0|0:0,0:0:0:0:
194,189,112086,1,8,0:0:0:0:
290,85,112253,1,0,1:0:0:0:
292,74,112336,1,0,3:0:0:0:
295,63,112419,2,0,P|283:27|276:-5,1,53.9999983520508,0|0,3:0|3:0,0:0:0:0:
373,119,112586,2,0,P|408:147|485:124,2,107.999996704102,8|0|8,0:0|1:0|0:0,0:0:0:0:
495,13,113086,5,0,1:0:0:0:
495,13,113253,1,0,1:0:0:0:
465,153,113419,1,8,0:0:0:0:
366,90,113586,1,0,1:0:0:0:
355,91,113669,1,0,3:0:0:0:
348,99,113753,2,0,P|306:116|264:106,2,53.9999983520508,0|0|8,3:0|3:0|0:0,0:0:0:0:
237,171,114086,2,0,P|221:251|247:275,1,107.999996704102,0|0,0:0|1:0,0:0:0:0:
367,359,114419,6,0,B|360:303|360:303|303:270,1,107.999996704102,4|0,1:2|0:0,0:0:0:0:
226,365,114753,1,8,0:0:0:0:
395,282,114919,1,0,1:0:0:0:
405,286,115003,1,0,3:0:0:0:
415,289,115086,2,0,L|486:282,1,53.9999983520508,0|0,3:0|3:0,0:0:0:0:
512,221,115253,1,8,0:0:0:0:
462,43,115419,2,0,P|394:106|373:147,1,107.999996704102,0|0,1:0|3:0,0:0:0:0:
422,200,115753,5,0,1:0:0:0:
422,200,115919,1,0,1:0:0:0:
302,121,116086,1,8,0:0:0:0:
212,214,116253,1,0,1:0:0:0:
204,221,116336,1,0,3:0:0:0:
199,230,116419,2,0,L|205:304,2,53.9999983520508,0|0|8,3:0|3:0|0:0,0:0:0:0:
126,179,116753,2,0,P|117:123|182:92,1,107.999996704102,0|0,1:0|0:0,0:0:0:0:
280,316,117086,6,0,L|275:363,6,33.7500012874604,0|0|0|0|0|0|0,1:0|0:0|0:0|0:0|0:0|0:0|0:0,0:0:0:0:
352,201,117419,1,8,0:0:0:0:
203,283,117586,2,0,P|141:269|126:269,1,53.9999983520508,0|0,1:0|3:0,0:0:0:0:
89,320,117753,2,0,P|62:315|36:306,1,53.9999983520508,0|0,3:0|3:0,0:0:0:0:
58,155,117919,2,0,P|42:219|5:237,2,107.999996704102,8|0|8,0:0|1:0|0:0,0:0:0:0:
90,11,118419,6,0,P|70:27|60:61,3,53.9999983520508,0|0|0|0,1:0|3:0|3:0|3:0,0:0:0:0:
139,79,118753,1,0,3:0:0:0:
158,97,118836,1,0,3:0:0:0:
165,122,118919,2,0,P|153:167|126:186,1,53.9999983520508,0|0,3:0|3:0,0:0:0:0:
202,198,119086,6,0,P|162:190|139:193,1,53.9999983520508,0|0,3:0|3:0,0:0:0:0:
162,271,119253,2,0,P|128:293|113:312,1,53.9999983520508,0|0,3:0|3:0,0:0:0:0:
184,321,119419,2,0,P|176:361|179:384,1,53.9999983520508,0|0,3:0|3:0,0:0:0:0:
214,333,119586,2,0,P|236:366|255:381,1,53.9999983520508,0|0,3:0|3:0,0:0:0:0:
224,326,119753,6,0,B|292:290|292:290|342:304,1,107.999996704102,4|0,1:2|0:0,0:0:0:0:
464,347,120086,1,8,0:0:0:0:
383,238,120253,1,0,1:0:0:0:
376,229,120336,1,0,3:0:0:0:
369,220,120420,2,0,P|369:177|377:161,1,53.9999983520508,0|0,3:0|3:0,0:0:0:0:
429,107,120586,1,8,0:0:0:0:
498,223,120753,2,0,P|403:242|378:247,1,107.999996704102,0|0,1:0|3:0,0:0:0:0:
283,164,121086,5,0,1:0:0:0:
283,164,121253,1,0,1:0:0:0:
345,29,121420,1,8,0:0:0:0:
197,109,121586,1,0,1:0:0:0:
202,118,121670,1,0,3:0:0:0:
202,128,121753,2,0,L|144:123,2,53.9999983520508,0|0|8,3:0|3:0|0:0,0:0:0:0:
382,141,122086,2,0,B|419:74|419:74|465:87,1,107.999996704102,0|0,1:0|0:0,0:0:0:0:
351,214,122420,6,0,L|360:254,6,33.7500012874604,0|0|0|0|0|0|0,1:0|0:0|0:0|0:0|0:0|0:0|0:0,0:0:0:0:
382,141,122753,1,8,0:0:0:0:
258,268,122920,1,0,1:0:0:0:
247,266,123003,1,0,3:0:0:0:
236,263,123086,2,0,P|200:275|168:282,1,53.9999983520508,0|0,3:0|3:0,0:0:0:0:
33,209,123253,2,0,B|86:190|86:190|143:249,2,107.999996704102,8|0|8,0:0|1:0|0:0,0:0:0:0:
17,371,123753,5,0,1:0:0:0:
17,371,123920,1,0,1:0:0:0:
173,290,124086,1,8,0:0:0:0:
33,209,124253,1,0,3:0:0:0:
32,198,124336,1,0,3:0:0:0:
24,191,124420,6,0,P|7:149|17:107,2,53.9999983520508,0|0|0,3:0|3:0|0:0,0:0:0:0:
86,104,124669,2,0,P|103:62|93:20,2,53.9999983520508,0|0|0,3:0|3:0|0:0,0:0:0:0:
14,19,124919,1,0,3:0:0:0:
87,126,125086,6,0,B|203:111,1,107.999996704102,4|0,1:2|0:0,0:0:0:0:
311,50,125420,1,8,0:0:0:0:
239,185,125586,1,0,1:0:0:0:
235,195,125670,1,0,3:0:0:0:
230,205,125753,2,0,L|301:198,1,53.9999983520508,0|0,3:0|3:0,0:0:0:0:
343,250,125920,1,8,0:0:0:0:
499,337,126086,2,0,P|429:312|397:343,1,107.999996704102,0|0,1:0|3:0,0:0:0:0:
303,382,126420,5,0,1:0:0:0:
303,382,126586,1,0,1:0:0:0:
343,250,126753,1,8,0:0:0:0:
499,337,126920,1,0,1:0:0:0:
507,330,127003,1,0,3:0:0:0:
512,321,127086,2,0,L|506:247,2,53.9999983520508,0|0|8,3:0|3:0|0:0,0:0:0:0:
435,217,127420,6,0,B|400:164|453:123|449:155|486:114|468:62,1,161.999995056153,0|0,1:0|0:0,0:0:0:0:
394,79,127753,2,0,P|371:77|347:102,8,33.7500012874604,0|0|0|0|0|0|0|0|0,1:0|0:0|0:0|0:0|0:0|0:0|0:0|0:0|0:0,0:0:0:0:
319,19,128253,2,0,P|317:80|247:101,1,144,0|0,0:0|0:0,0:0:0:0:
188,49,128753,2,0,B|197:1|197:1|207:23,1,72,0|0,0:0|0:0,0:0:0:0:
246,100,129086,6,0,P|259:146|261:183,2,72,0|0|0,0:0|0:0|0:0,0:0:0:0:
172,128,129586,2,0,P|122:114|47:171,1,144,0|0,0:0|0:0,0:0:0:0:
125,197,130086,2,0,P|120:239|113:289,1,72
159,364,130419,1,8,1:2:0:0:
