osu file format v14

[General]
AudioFilename: audio.mp3
AudioLeadIn: 0
PreviewTime: 45003
Countdown: 0
SampleSet: Soft
StackLeniency: 0.4
Mode: 0
LetterboxInBreaks: 0
WidescreenStoryboard: 1

[Editor]
Bookmarks: 7753,8253,9253,9586,10420,10920,11753,13086,18419,21086,22419,23753,33086,34419,39086,39753,43753,45086,63586,66419,71753,77086,82419,85086,86419,87753,93086,97086,98419,103753,107419,109086,118419,119753,124419,125086,127753,130419,151753
DistanceSpacing: 0.5
BeatDivisor: 4
GridSize: 4
TimelineZoom: 1.1

[Metadata]
Title:Stasis
TitleUnicode:Stasis
Artist:Maozon
ArtistUnicode:Maozon
Creator:VoiceCore
Version:Hard
Source:Lanota
Tags:Noxy Games Chapter IV Towards the Endless Sky Boss Ciel Aircraft Crystar AuroraE electronic instrumental video game
BeatmapID:3579816
BeatmapSetID:1731654

[Difficulty]
HPDrainRate:4
CircleSize:3.4
OverallDifficulty:5.5
ApproachRate:7.5
SliderMultiplier:1.4
SliderTickRate:1

[Events]
//Background and Video events
0,0,"bg.jpg",0,0
//Break Periods
2,66619,70594
//Storyboard Layer 0 (Background)
//Storyboard Layer 1 (Fail)
//Storyboard Layer 2 (Pass)
//Storyboard Layer 3 (Foreground)
//Storyboard Layer 4 (Overlay)
//Storyboard Sound Samples

[TimingPoints]
2420,333.333333333333,4,2,1,40,1,0
7753,-100,4,2,1,60,0,0
8086,-100,4,2,2,60,0,0
8253,-100,4,2,1,60,0,0
8753,-100,4,2,2,60,0,0
9253,-100,4,2,1,60,0,0
10753,-100,4,2,2,60,0,0
10919,-100,4,2,1,60,0,0
11419,-100,4,2,2,60,0,0
11586,-100,4,2,1,60,0,0
11753,-125,4,2,1,60,0,0
18086,-200,4,2,1,60,0,0
18419,-125,4,2,1,60,0,0
21753,-125,4,2,2,50,0,0
22086,-125,4,2,1,40,0,0
23753,-83.3333333333333,4,2,1,70,0,0
33086,-100,4,2,1,60,0,0
34419,-83.3333333333333,4,2,1,70,0,0
43753,-100,4,2,1,60,0,0
45086,-83.3333333333333,4,2,1,70,0,0
63586,-125,4,2,1,60,0,0
64919,-250,4,2,1,60,0,0
66419,-250,4,2,1,40,0,0
71753,-250,4,2,1,60,0,0
77003,-250,4,2,1,5,0,0
77086,-125,4,2,1,60,0,0
82086,-200,4,2,1,60,0,0
82419,-125,4,2,1,60,0,0
85753,-125,4,2,2,50,0,0
86086,-125,4,2,1,40,0,0
87753,-83.3333333333333,4,2,1,70,0,0
88086,-83.3333333333333,4,2,2,70,0,0
92919,-83.3333333333333,4,2,1,70,0,0
93419,-83.3333333333333,4,2,2,70,0,0
97086,-100,4,2,2,70,0,0
98419,-83.3333333333333,4,2,1,70,0,0
98753,-83.3333333333333,4,2,2,70,0,0
103419,-83.3333333333333,4,2,1,70,0,0
104086,-83.3333333333333,4,2,2,70,0,0
107419,-83.3333333333333,4,2,1,70,0,0
107753,-100,4,2,1,70,0,0
109086,-76.9230769230769,4,2,1,75,0,1
128253,-100,4,2,1,60,0,1
130419,-100,4,2,1,50,0,0
130586,-100,4,2,2,50,0,0
135419,-100,4,2,1,50,0,0
135753,-100,4,2,2,50,0,0
140753,-100,4,2,1,50,0,0
141086,-100,4,2,1,40,0,0

[Colours]
Combo1 : 192,192,192
Combo2 : 114,222,254
Combo3 : 1,147,254

[HitObjects]
256,192,5253,12,2,7419,0:0:0:0:
84,116,7753,6,0,P|149:100|221:88,1,140,4|0,1:2|0:0,0:0:0:0:
216,8,8253,2,0,B|302:3|302:72|303:140|404:125,1,210,4|0,1:2|0:0,0:0:0:0:
446,92,8919,1,0,0:0:0:0:
446,92,9253,6,0,P|440:55|431:10,1,70,4|0,1:2|0:0,0:0:0:0:
371,126,9586,2,0,P|357:196|340:278,2,140,4|4|0,1:2|1:2|1:0,0:0:0:0:
301,83,10419,6,0,P|265:120|169:112,1,140,4|0,1:2|0:0,0:0:0:0:
102,107,10919,2,0,B|149:63|149:63|176:207,1,210,4|0,1:2|0:0,0:0:0:0:
194,288,11586,1,2,0:0:0:0:
194,288,11753,2,0,B|33:396|-79:282|43:148|144:208|99:307|156:328|176:315,1,392,4|0,1:2|3:0,0:0:0:0:
238,363,13086,5,4,1:2:0:0:
251,354,13253,1,0,0:0:0:0:
264,345,13419,2,0,L|375:364,2,112,0|0|0,1:0|1:0|1:0,0:0:0:0:
381,192,14419,5,0,1:0:0:0:
371,208,14586,1,0,0:0:0:0:
371,227,14753,2,0,P|377:263|448:296,2,112,0|0|0,1:0|1:0|1:0,0:0:0:0:
462,94,15753,5,0,1:0:0:0:
479,86,15919,1,0,0:0:0:0:
496,78,16086,2,0,L|469:190,2,112,0|0|0,1:0|1:0|1:0,0:0:0:0:
243,217,17086,5,0,1:0:0:0:
226,203,17253,1,0,0:0:0:0:
202,207,17419,2,0,P|167:227|154:262,1,56,0|0,1:0|0:0,0:0:0:0:
105,300,17753,2,0,P|139:320|176:314,1,56,0|0,1:0|0:0,0:0:0:0:
80,221,18086,2,0,L|24:215,1,52.5,6|0,1:0|0:0,0:0:0:0:
15,213,18419,6,0,P|2:179|16:152,3,56,4|0|0|0,1:2|1:0|1:0|1:0,0:0:0:0:
81,128,19086,2,0,P|103:99|134:98,3,56,0|0|0|0,1:0|1:0|1:0|1:0,0:0:0:0:
141,18,19753,2,0,P|128:52|142:79,3,56,0|0|0|0,1:0|1:0|1:0|1:0,0:0:0:0:
207,103,20420,2,0,P|229:132|260:133,3,56,0|0|0|0,1:0|0:0|1:0|1:0,0:0:0:0:
321,108,21086,1,0,1:0:0:0:
256,192,21253,12,0,22419,1:0:0:0:
422,54,23753,6,0,P|374:88|386:184,1,125.999996154785,4|0,1:2|0:0,0:0:0:0:
373,161,24086,2,0,B|415:164|415:164|447:135,1,83.9999974365235,0|0,0:0|0:0,0:0:0:0:
512,237,24419,1,8,0:0:0:0:
512,237,24753,6,0,L|425:250,1,83.9999974365235,0|0,0:0|0:0,0:0:0:0:
397,323,25086,2,0,P|355:374|257:357,1,167.999994873047,0|0,1:0|0:0,0:0:0:0:
205,303,25586,1,0,0:0:0:0:
205,303,25753,2,0,B|155:313|155:313|206:323,1,83.9999974365235,8|0,0:0|0:0,0:0:0:0:
317,295,26086,2,0,L|328:207,1,83.9999974365235,0|0,0:0|0:0,0:0:0:0:
229,192,26419,6,0,B|223:124|177:155|176:45,1,125.999996154785,0|0,1:0|0:0,0:0:0:0:
179,66,26753,2,0,B|208:32|208:32|270:47,1,83.9999974365235,0|0,0:0|0:0,0:0:0:0:
148,152,27086,1,8,0:0:0:0:
148,152,27419,6,0,P|81:143|67:120,1,83.9999974365235,0|0,0:0|0:0,0:0:0:0:
36,63,27753,2,0,P|58:114|-11:212,1,167.999994873047,0|0,1:0|0:0,0:0:0:0:
101,243,28253,1,0,0:0:0:0:
101,243,28419,2,0,P|77:279|82:339,1,83.9999974365235,8|0,0:0|0:0,0:0:0:0:
203,376,28753,2,0,P|191:326|171:275,1,83.9999974365235,0|0,0:0|0:0,0:0:0:0:
248,207,29086,6,0,P|315:201|381:180,1,125.999996154785,4|0,1:2|0:0,0:0:0:0:
388,176,29419,2,0,P|366:162|308:155,1,83.9999974365235,0|0,0:0|0:0,0:0:0:0:
265,289,29753,1,8,0:0:0:0:
265,289,30086,6,0,P|219:318|186:310,1,83.9999974365235,0|0,0:0|0:0,0:0:0:0:
120,277,30419,2,0,P|36:281|21:370,1,167.999994873047,0|0,1:0|0:0,0:0:0:0:
128,360,30919,1,0,0:0:0:0:
128,360,31086,2,0,L|118:264,1,83.9999974365235,8|0,0:0|0:0,0:0:0:0:
21,189,31419,2,0,B|6:146|6:146|34:102,1,83.9999974365235,0|0,0:0|0:0,0:0:0:0:
111,47,31753,6,0,B|197:29|151:93|257:72,1,125.999996154785,0|0,1:0|0:0,0:0:0:0:
233,83,32086,2,0,L|224:-1,1,83.9999974365235,0|0,0:0|0:0,0:0:0:0:
332,39,32419,1,8,0:0:0:0:
332,39,32753,6,0,P|348:94|326:139,1,83.9999974365235,0|0,0:0|0:0,0:0:0:0:
264,166,33086,5,0,1:0:0:0:
234,247,33253,1,0,3:0:0:0:
234,247,33419,2,0,B|218:283|218:283|247:338,1,70,0|0,3:0|3:0,0:0:0:0:
351,356,33753,5,0,3:0:0:0:
425,315,33919,1,0,3:0:0:0:
425,315,34086,2,0,L|390:240,1,70,0|0,3:0|3:0,0:0:0:0:
495,363,34419,6,0,P|466:304|503:242,1,125.999996154785,4|0,1:2|0:0,0:0:0:0:
501,241,34753,2,0,B|511:202|511:202|475:170,1,83.9999974365235,0|0,0:0|0:0,0:0:0:0:
374,113,35086,1,8,0:0:0:0:
374,113,35419,6,0,P|425:102|459:95,1,83.9999974365235,0|0,0:0|0:0,0:0:0:0:
481,11,35753,2,0,P|400:27|296:52,1,167.999994873047,0|0,1:0|0:0,0:0:0:0:
283,140,36253,1,0,0:0:0:0:
283,140,36419,2,0,B|300:174|300:174|290:124,1,83.9999974365235,8|0,0:0|0:0,0:0:0:0:
201,93,36753,2,0,P|178:47|142:9,1,83.9999974365235,0|0,0:0|0:0,0:0:0:0:
61,74,37086,6,0,B|71:154|14:121|30:217,1,125.999996154785,0|0,1:0|0:0,0:0:0:0:
24,202,37419,2,0,L|115:186,1,83.9999974365235,0|0,0:0|0:0,0:0:0:0:
238,164,37753,1,8,0:0:0:0:
238,164,38086,6,0,P|253:214|231:256,1,83.9999974365235,0|0,0:0|0:0,0:0:0:0:
177,289,38419,2,0,B|131:276|131:276|89:303|89:303|12:283,1,167.999994873047,0|0,1:0|0:0,0:0:0:0:
73,203,38919,1,8,0:0:0:0:
106,100,39086,6,0,P|74:47|4:43,2,125.999996154785,0|0|0,1:0|1:0|1:0,0:0:0:0:
73,203,39753,6,0,P|143:183|209:172,1,125.999996154785,4|0,1:2|0:0,0:0:0:0:
206,183,40086,2,0,P|249:185|299:199,1,83.9999974365235,0|0,0:0|0:0,0:0:0:0:
349,297,40419,1,8,0:0:0:0:
349,297,40753,6,0,B|346:250|346:250|366:216,1,83.9999974365235,0|0,0:0|0:0,0:0:0:0:
444,201,41086,2,0,P|466:277|406:348,1,167.999994873047,0|0,1:0|0:0,0:0:0:0:
349,297,41586,1,0,0:0:0:0:
349,297,41753,2,0,L|264:285,1,83.9999974365235,8|0,0:0|0:0,0:0:0:0:
187,344,42086,2,0,P|137:345|106:372,1,83.9999974365235,0|0,0:0|0:0,0:0:0:0:
146,258,42419,6,0,B|172:180|110:201|157:109,1,125.999996154785,0|0,1:0|0:0,0:0:0:0:
151,124,42753,2,0,P|110:153|67:147,1,83.9999974365235,0|0,0:0|0:0,0:0:0:0:
6,58,43086,1,8,0:0:0:0:
6,58,43419,6,0,L|97:71,1,83.9999974365235,0|0,0:0|0:0,0:0:0:0:
177,35,43753,6,0,L|184:-12,2,35,0|0|0,1:0|0:0|0:0,0:0:0:0:
218,118,44086,1,0,3:0:0:0:
276,42,44253,6,0,L|283:-5,2,35,0|0|0,3:0|0:0|3:0,0:0:0:0:
317,125,44586,1,0,3:0:0:0:
317,125,44753,2,0,L|391:130,1,70,0|0,3:0|0:0,0:0:0:0:
510,90,45086,6,0,P|440:31|361:61,1,167.999994873047,4|0,1:2|0:0,0:0:0:0:
402,130,45586,2,0,P|426:177|405:218,1,83.9999974365235,0|8,0:0|0:0,0:0:0:0:
462,284,45919,2,0,B|384:322|328:260|357:262|329:227|286:225,1,167.999994873047,2|2,0:0|0:0,0:0:0:0:
274,302,46419,5,0,1:0:0:0:
274,302,46586,2,0,L|259:384,2,83.9999974365235,0|0|0,0:0|0:0|0:0,0:0:0:0:
243,196,47086,2,0,P|195:220|146:220,1,83.9999974365235,10|0,0:0|0:0,0:0:0:0:
144,145,47419,2,0,L|20:127,1,125.999996154785,0|0,0:0|0:0,0:0:0:0:
11,121,47753,6,0,B|67:93|60:26|60:26|77:61|131:68,1,167.999994873047,2|0,1:2|0:0,0:0:0:0:
183,70,48253,2,0,P|226:37|277:37,1,83.9999974365235,0|8,0:0|0:0,0:0:0:0:
250,117,48586,2,0,P|215:174|184:279,1,167.999994873047,2|2,0:0|0:0,0:0:0:0:
114,348,49086,5,0,1:0:0:0:
114,348,49253,2,0,P|67:319|6:327,2,83.9999974365235,0|0|0,0:0|0:0|0:0,0:0:0:0:
185,270,49753,1,10,0:0:0:0:
226,369,49919,2,0,P|279:355|319:352,1,83.9999974365235,0|0,0:0|0:0,0:0:0:0:
438,384,50253,5,4,1:2:0:0:
438,384,50586,2,0,P|411:349|418:301,2,83.9999974365235,0|0|2,0:0|0:0|0:0,0:0:0:0:
496,324,51086,2,0,P|511:263|440:204,1,125.999996154785,8|0,0:0|0:0,0:0:0:0:
469,223,51419,2,0,L|379:214,1,83.9999974365235,0|2,0:0|0:0,0:0:0:0:
297,137,51753,5,0,1:0:0:0:
297,137,51919,2,0,B|342:128|342:128|386:55|386:55|443:46,1,167.999994873047,2|0,0:0|0:0,0:0:0:0:
490,113,52419,1,10,0:0:0:0:
422,49,52586,2,0,L|327:66,1,83.9999974365235,0|0,0:0|0:0,0:0:0:0:
193,12,52919,5,4,1:2:0:0:
193,12,53253,2,0,P|148:65|56:32,1,167.999994873047,0|2,0:0|0:0,0:0:0:0:
112,114,53753,2,0,P|125:163|108:213,1,83.9999974365235,8|0,0:0|0:0,0:0:0:0:
60,250,54086,1,0,0:0:0:0:
60,250,54253,1,2,0:0:0:0:
119,340,54419,5,0,1:0:0:0:
119,340,54586,2,0,B|176:302|231:313|201:340|252:353|290:319,1,167.999994873047,2|0,0:0|0:0,0:0:0:0:
331,241,55086,2,0,P|327:217|307:152,1,83.9999974365235,8|0,0:0|0:0,0:0:0:0:
425,247,55419,2,0,P|416:269|401:336,1,83.9999974365235,0|0,0:0|0:0,0:0:0:0:
277,328,55753,6,0,P|214:288|184:291,2,83.9999974365235,4|2|0,1:2|0:0|0:0,0:0:0:0:
204,376,56253,1,2,0:0:0:0:
204,376,56419,2,0,L|106:370,1,83.9999974365235,8|0,0:0|0:0,0:0:0:0:
3,310,56753,2,0,P|40:301|92:296,1,83.9999974365235,0|2,0:0|0:0,0:0:0:0:
146,224,57086,5,0,1:0:0:0:
146,224,57253,2,0,B|176:189|176:189|161:136,2,83.9999974365235,2|0|0,0:0|0:0|0:0,0:0:0:0:
72,164,57753,1,10,0:0:0:0:
72,164,57920,2,0,B|42:129|42:129|57:76,2,83.9999974365235,0|2|0,0:0|0:0|0:0,0:0:0:0:
113,23,58419,5,0,1:0:0:0:
113,23,58586,2,0,L|211:7,1,83.9999974365235,2|0,0:0|0:0,0:0:0:0:
238,87,58919,1,2,0:0:0:0:
238,87,59086,2,0,P|217:131|229:168,1,83.9999974365235,8|0,0:0|0:0,0:0:0:0:
333,88,59419,2,0,L|317:1,1,83.9999974365235,0|2,0:0|0:0,0:0:0:0:
420,115,59753,5,0,1:0:0:0:
420,115,59919,2,0,B|434:159|434:159|401:199,2,83.9999974365235,2|0|0,0:0|0:0|0:0,0:0:0:0:
323,190,60419,1,8,0:0:0:0:
390,278,60586,2,0,P|432:269|480:260,1,83.9999974365235,0|2,0:0|0:0,0:0:0:0:
409,360,60919,6,0,B|332:375|307:298|307:298|309:323|289:357,1,167.999994873047,6|0,1:2|0:0,0:0:0:0:
225,371,61419,1,0,0:0:0:0:
225,371,61586,1,2,0:0:0:0:
241,251,61753,2,0,L|142:268,1,83.9999974365235,8|0,0:0|0:0,0:0:0:0:
106,197,62086,2,0,P|97:153|140:118,1,83.9999974365235,0|2,0:0|0:0,0:0:0:0:
204,62,62419,5,0,1:0:0:0:
204,62,62586,2,0,L|219:175,2,83.9999974365235,2|0|0,0:0|0:0|0:0,0:0:0:0:
119,124,63086,1,8,0:0:0:0:
9,89,63253,2,0,P|13:53|24:7,1,83.9999974365235,0|2,0:0|0:0,0:0:0:0:
119,124,63586,6,0,B|171:194|105:249|105:249|41:297|82:380,1,280,2|0,1:2|0:0,0:0:0:0:
150,322,64586,2,0,P|190:301|209:297,1,56,0|0,0:0|0:0,0:0:0:0:
150,322,64919,2,0,B|203:325|203:325|206:330|206:330|409:342,1,252,0|4,0:0|1:2,0:0:0:0:
256,192,71419,5,2,0:0:0:0:
256,192,71753,12,0,76753,0:0:0:0:
343,269,77086,6,0,L|398:259,1,56,4|0,1:2|0:0,0:0:0:0:
285,211,77419,2,0,P|312:161|378:172,2,112,0|0|0,1:0|1:0|1:0,0:0:0:0:
446,181,78419,6,0,L|436:102,1,56,0|0,1:0|0:0,0:0:0:0:
369,25,78753,2,0,P|357:76|345:152,2,112,0|0|0,1:0|1:0|1:0,0:0:0:0:
210,146,79753,6,0,P|176:129|156:127,1,56,0|0,1:0|0:0,0:0:0:0:
52,223,80086,2,0,B|108:241|108:241|157:211,2,112,0|0|0,1:0|1:0|1:0,0:0:0:0:
55,61,81086,6,0,L|121:53,1,56,0|0,1:0|0:0,0:0:0:0:
229,10,81419,2,0,L|168:0,1,56,0|0,1:0|0:0,0:0:0:0:
158,127,81753,2,0,L|92:135,1,56,0|0,1:0|0:0,0:0:0:0:
237,97,82086,2,0,P|249:124|279:141,1,52.5,6|0,1:0|0:0,0:0:0:0:
280,140,82419,6,0,P|311:123|354:130,3,56,4|0|0|0,1:2|1:0|1:0|1:0,0:0:0:0:
330,203,83086,2,0,P|363:212|389:248,3,56,0|0|0|0,1:0|1:0|1:0|1:0,0:0:0:0:
453,195,83753,2,0,P|483:176|498:135,3,56,0|0|0|0,1:0|1:0|1:0|1:0,0:0:0:0:
423,120,84420,2,0,P|431:85|413:45,3,56,0|0|0|0,1:0|0:0|1:0|1:0,0:0:0:0:
362,19,85086,1,0,1:0:0:0:
256,192,85253,12,0,86419,1:0:0:0:
67,292,87753,6,0,P|96:263|184:273,1,125.999996154785,4|0,1:2|0:0,0:0:0:0:
189,277,88086,2,0,B|179:321|179:321|207:357,1,83.9999974365235,0|0,1:0|0:0,0:0:0:0:
273,298,88419,2,0,L|321:302,2,41.9999987182618,0|0|0,1:0|0:0|0:0,0:0:0:0:
249,211,88753,2,0,L|342:221,1,83.9999974365235,0|0,1:0|0:0,0:0:0:0:
397,172,89086,6,0,P|392:145|371:123,2,41.9999987182618,0|0|0,1:0|0:0|0:0,0:0:0:0:
478,165,89419,2,0,P|471:125|431:67,1,83.9999974365235,0|0,1:0|0:0,0:0:0:0:
365,108,89753,2,0,L|317:112,2,41.9999987182618,0|0|0,1:0|0:0|0:0,0:0:0:0:
389,21,90087,2,0,L|296:31,1,83.9999974365235,0|0,1:0|0:0,0:0:0:0:
240,92,90419,6,0,L|246:165,2,41.9999987182618,0|0|0,1:0|0:0|0:0,0:0:0:0:
180,37,90753,2,0,P|149:68|96:73,1,83.9999974365235,0|0,1:0|0:0,0:0:0:0:
34,48,91086,2,0,L|28:-25,2,41.9999987182618,0|0|0,1:0|0:0|0:0,0:0:0:0:
0,123,91420,2,0,P|31:154|36:207,1,83.9999974365235,0|0,1:0|0:0,0:0:0:0:
128,211,91753,6,0,L|134:153,2,41.9999987182618,0|0|0,1:0|0:0|0:0,0:0:0:0:
155,290,92086,2,0,P|114:296|69:276,1,83.9999974365235,0|0,1:0|0:0,0:0:0:0:
11,334,92419,2,0,L|14:390,2,41.9999987182618,0|0|0,1:0|0:0|0:0,0:0:0:0:
75,281,92753,1,0,1:0:0:0:
161,373,92919,1,8,0:0:0:0:
245,297,93086,6,0,B|272:267|272:267|258:175,1,125.999996154785,4|0,1:2|0:0,0:0:0:0:
251,173,93419,2,0,P|237:128|281:83,1,83.9999974365235,0|2,1:0|0:0,0:0:0:0:
334,57,93753,2,0,L|378:47,2,41.9999987182618,0|0|2,1:0|0:0|0:0,0:0:0:0:
329,140,94086,1,0,1:0:0:0:
424,170,94253,1,2,0:0:0:0:
424,170,94419,6,0,P|444:140|454:127,2,41.9999987182618,0|0|2,1:0|0:0|0:0,0:0:0:0:
443,257,94753,2,0,P|486:284|503:318,1,83.9999974365235,0|2,1:0|0:0,0:0:0:0:
420,338,95086,2,0,P|415:367|403:385,2,41.9999987182618,0|0|2,1:0|0:0|0:0,0:0:0:0:
361,278,95419,1,0,1:0:0:0:
279,323,95586,1,2,0:0:0:0:
279,323,95753,6,0,L|223:314,2,41.9999987182618,0|0|2,1:0|0:0|0:0,0:0:0:0:
256,237,96086,2,0,L|168:221,1,83.9999974365235,0|2,1:0|0:0,0:0:0:0:
208,141,96419,2,0,L|253:130,2,41.9999987182618,0|0|2,1:0|0:0|0:0,0:0:0:0:
225,51,96753,1,0,1:0:0:0:
149,5,96919,1,2,0:0:0:0:
76,82,97086,5,0,1:0:0:0:
76,82,97253,2,0,P|44:70|-8:73,2,70,0|0|0,0:0|0:0|0:0,0:0:0:0:
140,153,97753,5,0,0:0:0:0:
140,153,97920,2,0,P|172:141|224:144,2,70,0|0|0,0:0|0:0|0:0,0:0:0:0:
71,217,98419,6,0,P|36:257|71:342,1,125.999996154785,4|0,1:2|0:0,0:0:0:0:
60,333,98753,2,0,B|102:344|102:344|144:302,1,83.9999974365235,0|2,1:0|0:0,0:0:0:0:
206,262,99086,1,0,1:0:0:0:
206,262,99169,1,0,0:0:0:0:
206,262,99253,1,2,0:0:0:0:
240,349,99419,2,0,P|299:330|354:325,1,83.9999974365235,0|2,1:0|0:0,0:0:0:0:
424,343,99753,6,0,L|415:397,2,41.9999987182618,0|0|2,1:0|0:0|0:0,0:0:0:0:
391,261,100086,2,0,P|382:216|371:170,1,83.9999974365235,0|2,1:0|0:0,0:0:0:0:
442,108,100419,1,0,1:0:0:0:
442,108,100503,1,0,0:0:0:0:
442,108,100586,1,2,0:0:0:0:
502,42,100753,2,0,P|436:12|407:21,1,83.9999974365235,0|0,1:0|0:0,0:0:0:0:
350,59,101086,6,0,L|336:15,2,41.9999987182618,0|0|2,1:0|0:0|0:0,0:0:0:0:
291,141,101419,2,0,P|265:183|196:185,1,83.9999974365235,0|2,1:0|0:0,0:0:0:0:
184,110,101753,1,0,1:0:0:0:
184,110,101836,1,0,0:0:0:0:
184,110,101919,1,2,0:0:0:0:
289,51,102086,2,0,L|276:141,1,83.9999974365235,0|2,1:0|0:0,0:0:0:0:
289,226,102419,6,0,P|302:244|327:273,2,41.9999987182618,0|0|2,1:0|0:0|0:0,0:0:0:0:
196,248,102753,2,0,P|141:228|108:228,1,83.9999974365235,0|2,1:0|0:0,0:0:0:0:
37,298,103086,1,0,1:0:0:0:
37,298,103169,1,0,0:0:0:0:
37,298,103253,1,2,0:0:0:0:
116,337,103419,1,0,1:0:0:0:
70,203,103586,1,8,0:0:0:0:
176,140,103753,6,0,P|201:95|184:57,1,83.9999974365235,4|0,1:2|0:0,0:0:0:0:
256,192,104086,12,8,107419,0:0:0:0:
42,261,107753,6,0,L|1:271,2,35,0|0|0,1:0|0:0|0:0,0:0:0:0:
111,314,108086,1,0,3:0:0:0:
55,175,108253,6,0,L|14:185,2,35,0|0|0,1:0|0:0|3:0,0:0:0:0:
124,228,108586,1,0,3:0:0:0:
124,228,108753,2,0,P|150:182|139:152,1,70,0|0,0:0|0:0,0:0:0:0:
61,86,109086,6,0,B|80:18|80:18|161:54,1,136.499993751526,4|0,1:2|0:0,0:0:0:0:
160,56,109419,1,8,0:0:0:0:
256,98,109586,1,0,1:0:0:0:
253,110,109669,1,0,3:0:0:0:
251,122,109753,2,0,L|346:97,1,90.9999958343508,0|8,3:0|0:0,0:0:0:0:
483,54,110086,2,0,P|452:4|376:31,1,136.499993751526,0|0,1:0|3:0,0:0:0:0:
394,32,110419,5,0,1:0:0:0:
471,137,110586,1,0,1:0:0:0:
471,137,110753,2,0,L|482:235,1,90.9999958343508,8|0,0:0|1:0,0:0:0:0:
409,269,111086,2,0,L|394:328,2,45.4999979171754,0|0|8,3:0|3:0|0:0,0:0:0:0:
324,206,111419,2,0,P|286:195|241:226,1,90.9999958343508,0|0,1:0|0:0,0:0:0:0:
310,352,111753,6,0,L|449:369,1,136.499993751526,0|0,1:0|0:0,0:0:0:0:
465,357,112086,1,8,0:0:0:0:
409,269,112253,1,0,1:0:0:0:
401,257,112336,1,0,3:0:0:0:
394,245,112419,2,0,P|351:241|299:264,1,90.9999958343508,0|8,3:0|0:0,0:0:0:0:
226,342,112753,2,0,P|172:353|134:327,1,90.9999958343508,0|8,1:0|0:0,0:0:0:0:
14,293,113086,5,0,1:0:0:0:
56,383,113253,1,0,1:0:0:0:
150,335,113419,2,0,L|141:243,1,90.9999958343508,8|0,0:0|1:0,0:0:0:0:
102,160,113753,2,0,L|119:97,2,45.4999979171754,0|0|8,3:0|3:0|0:0,0:0:0:0:
188,148,114086,2,0,P|195:102|167:58,1,90.9999958343508,0|0,0:0|1:0,0:0:0:0:
50,30,114419,6,0,B|-3:62|-3:62|93:76,1,136.499993751526,4|0,1:2|0:0,0:0:0:0:
93,76,114753,1,8,0:0:0:0:
188,148,114919,1,0,1:0:0:0:
198,157,115003,1,0,3:0:0:0:
211,164,115086,2,0,P|270:140|303:131,1,90.9999958343508,0|8,3:0|0:0,0:0:0:0:
431,176,115419,2,0,P|479:210|487:300,1,136.499993751526,0|0,1:0|3:0,0:0:0:0:
482,293,115753,5,0,1:0:0:0:
317,283,115919,1,0,1:0:0:0:
317,283,116086,2,0,P|375:260|409:264,1,90.9999958343508,8|0,0:0|1:0,0:0:0:0:
492,282,116419,2,0,P|504:314|508:342,2,45.4999979171754,0|0|8,3:0|3:0|0:0,0:0:0:0:
431,176,116753,2,0,P|425:129|415:81,1,90.9999958343508,0|0,1:0|0:0,0:0:0:0:
237,87,117086,6,0,P|242:158|264:241,1,136.499993751526,0|0,1:0|0:0,0:0:0:0:
274,235,117419,1,8,0:0:0:0:
185,353,117586,1,0,1:0:0:0:
178,364,117669,1,0,3:0:0:0:
165,371,117753,2,0,P|194:308|213:296,1,90.9999958343508,0|8,3:0|0:0,0:0:0:0:
357,265,118086,2,0,P|406:271|463:292,1,90.9999958343508,0|8,1:0|0:0,0:0:0:0:
256,192,118419,12,0,119419,3:0:0:0:
54,359,119753,6,0,P|131:345|149:280,1,136.499993751526,4|0,1:2|0:0,0:0:0:0:
142,276,120086,1,8,0:0:0:0:
27,211,120253,1,0,1:0:0:0:
18,202,120336,1,0,3:0:0:0:
12,190,120419,2,0,L|30:91,1,90.9999958343508,0|8,3:0|0:0,0:0:0:0:
181,40,120753,2,0,L|28:18,1,136.499993751526,0|0,1:0|3:0,0:0:0:0:
23,18,121086,5,0,1:0:0:0:
118,126,121253,1,0,1:0:0:0:
118,126,121419,2,0,P|144:165|133:210,1,90.9999958343508,8|0,0:0|1:0,0:0:0:0:
110,288,121753,2,0,P|77:275|73:253,2,45.4999979171754,0|0|8,3:0|3:0|0:0,0:0:0:0:
203,264,122086,2,0,P|243:241|301:242,1,90.9999958343508,0|0,1:0|0:0,0:0:0:0:
297,345,122419,6,0,P|247:366|287:331,1,136.499993751526,0|0,1:0|0:0,0:0:0:0:
294,323,122753,1,8,0:0:0:0:
425,369,122919,1,0,1:0:0:0:
438,363,123003,1,0,3:0:0:0:
442,349,123086,2,0,P|442:290|415:252,1,90.9999958343508,0|8,3:0|0:0,0:0:0:0:
317,186,123419,2,0,B|274:166|274:166|314:121,1,90.9999958343508,0|8,1:0|0:0,0:0:0:0:
381,65,123753,5,0,1:0:0:0:
466,112,123919,1,0,1:0:0:0:
407,195,124086,2,0,L|313:185,1,90.9999958343508,8|0,0:0|3:0,0:0:0:0:
198,257,124419,6,0,B|133:229|133:229|79:286,2,136.499993751526,0|0|0,3:0|3:0|3:0,0:0:0:0:
285,327,125086,6,0,L|305:176,1,136.499993751526,4|0,1:2|0:0,0:0:0:0:
287,174,125419,1,8,0:0:0:0:
167,120,125586,1,0,1:0:0:0:
161,132,125669,1,0,3:0:0:0:
156,146,125753,2,0,L|50:129,1,90.9999958343508,0|8,3:0|0:0,0:0:0:0:
132,46,126086,2,0,P|183:38|245:96,1,136.499993751526,0|0,1:0|3:0,0:0:0:0:
247,112,126419,5,0,1:0:0:0:
329,12,126586,1,0,1:0:0:0:
329,12,126753,2,0,P|370:33|418:28,1,90.9999958343508,8|0,0:0|1:0,0:0:0:0:
471,91,127086,2,0,P|513:69|525:71,2,45.4999979171754,0|0|8,3:0|3:0|0:0,0:0:0:0:
384,164,127419,5,0,1:0:0:0:
397,182,127503,1,0,0:0:0:0:
418,188,127586,1,0,0:0:0:0:
440,187,127669,1,0,0:0:0:0:
457,172,127753,6,0,P|374:140|304:219,1,181.999991668702,0|0,1:0|0:0,0:0:0:0:
368,276,128253,2,0,B|423:285|423:285|440:305|440:305|517:318,2,140,0|0|0,0:0|0:0|0:0,0:0:0:0:
297,333,129086,1,0,0:0:0:0:
297,333,129253,2,0,P|221:341|138:365,1,140,0|0,0:0|0:0,0:0:0:0:
99,295,129753,1,0,0:0:0:0:
99,295,129919,2,0,P|133:307|152:342,2,70,0|0|0,0:0|0:0|0:0,0:0:0:0:
15,358,130419,1,4,1:2:0:0:
