osu file format v14

[General]
AudioFilename: audio.mp3
AudioLeadIn: 0
PreviewTime: 45003
Countdown: 0
SampleSet: Soft
StackLeniency: 0.3
Mode: 0
LetterboxInBreaks: 0
WidescreenStoryboard: 0

[Editor]
Bookmarks: 7753,8253,9253,9586,10420,10920,11753,13086,18419,21086,22419,23753,33086,34419,39086,39753,43753,45086,63586,66419,71753,77086,82419,85086,86419,87753,93086,97086,98419,103753,107419,109086,118419,119753,124419,125086,127753,130419,151753
DistanceSpacing: 1.4
BeatDivisor: 4
GridSize: 4
TimelineZoom: 1.1

[Metadata]
Title:Stasis
TitleUnicode:Stasis
Artist:Maozon
ArtistUnicode:Maozon
Creator:VoiceCore
Version:Expert
Source:Lanota
Tags:Noxy Games Chapter IV Towards the Endless Sky Boss Ciel Aircraft Crystar AuroraE electronic instrumental video game
BeatmapID:3539583
BeatmapSetID:1731654

[Difficulty]
HPDrainRate:4.5
CircleSize:4.5
OverallDifficulty:8.5
ApproachRate:9.5
SliderMultiplier:2
SliderTickRate:1

[Events]
//Background and Video events
0,0,"bg.jpg",0,0
//Break Periods
2,66619,70894
//Storyboard Layer 0 (Background)
//Storyboard Layer 1 (Fail)
//Storyboard Layer 2 (Pass)
//Storyboard Layer 3 (Foreground)
//Storyboard Layer 4 (Overlay)
//Storyboard Sound Samples

[TimingPoints]
2420,333.333333333333,4,2,1,40,1,0
2586,-200,4,2,1,40,0,0
7753,-66.6666666666667,4,2,1,60,0,0
8086,-66.6666666666667,4,2,2,60,0,0
8253,-83.3333333333333,4,2,1,60,0,0
8753,-100,4,2,2,60,0,0
9253,-66.6666666666667,4,2,1,60,0,0
9586,-83.3333333333333,4,2,1,60,0,0
10419,-66.6666666666667,4,2,1,60,0,0
10753,-66.6666666666667,4,2,2,60,0,0
10919,-83.3333333333333,4,2,1,60,0,0
11419,-100,4,2,2,60,0,0
11586,-100,4,2,1,60,0,0
11753,-76.9230769230769,4,2,1,60,0,0
13086,-166.666666666667,4,2,1,60,0,0
14419,-142.857142857143,4,2,1,60,0,0
15753,-125,4,2,1,60,0,0
17086,-111.111111111111,4,2,1,60,0,0
18086,-33.3333333333333,4,2,1,60,0,0
18419,-100,4,2,1,60,0,0
19753,-66.6666666666667,4,2,1,60,0,0
21086,-100,4,2,1,60,0,0
21753,-100,4,2,2,50,0,0
22086,-200,4,2,1,40,0,0
23753,-33.3333333333333,4,2,1,70,0,0
24086,-133.333333333333,4,2,1,70,0,0
24419,-100,4,2,1,70,0,0
24753,-133.333333333333,4,2,1,70,0,0
25753,-100,4,2,1,70,0,0
25919,-133.333333333333,4,2,1,70,0,0
26419,-25,4,2,1,70,0,0
26753,-133.333333333333,4,2,1,70,0,0
27086,-100,4,2,1,70,0,0
27419,-133.333333333333,4,2,1,70,0,0
28419,-100,4,2,1,70,0,0
28586,-133.333333333333,4,2,1,70,0,0
29086,-33.3333333333333,4,2,1,70,0,0
29419,-133.333333333333,4,2,1,70,0,0
29753,-100,4,2,1,70,0,0
30086,-133.333333333333,4,2,1,70,0,0
31086,-100,4,2,1,70,0,0
31253,-133.333333333333,4,2,1,70,0,0
31753,-25,4,2,1,70,0,0
32086,-133.333333333333,4,2,1,70,0,0
32419,-100,4,2,1,70,0,0
32753,-133.333333333333,4,2,1,70,0,0
33086,-100,4,2,1,60,0,0
33419,-66.6666666666667,4,2,1,60,0,0
33753,-133.333333333333,4,2,1,60,0,0
34086,-100,4,2,1,60,0,0
34419,-33.3333333333333,4,2,1,70,0,0
34753,-133.333333333333,4,2,1,70,0,0
35086,-100,4,2,1,70,0,0
35419,-133.333333333333,4,2,1,70,0,0
36419,-100,4,2,1,70,0,0
36586,-133.333333333333,4,2,1,70,0,0
37086,-25,4,2,1,70,0,0
37419,-133.333333333333,4,2,1,70,0,0
37753,-100,4,2,1,70,0,0
38086,-133.333333333333,4,2,1,70,0,0
38919,-100,4,2,1,70,0,0
39086,-66.6666666666667,4,2,1,70,0,0
39753,-33.3333333333333,4,2,1,70,0,0
40086,-133.333333333333,4,2,1,70,0,0
40419,-100,4,2,1,70,0,0
40753,-133.333333333333,4,2,1,70,0,0
41753,-100,4,2,1,70,0,0
41919,-133.333333333333,4,2,1,70,0,0
42419,-25,4,2,1,70,0,0
42753,-133.333333333333,4,2,1,70,0,0
43086,-100,4,2,1,70,0,0
43419,-133.333333333333,4,2,1,70,0,0
43753,-200,4,2,1,60,0,0
45086,-66.6666666666667,4,2,1,70,0,0
45919,-100,4,2,1,70,0,0
47086,-66.6666666666667,4,2,1,70,0,0
47419,-100,4,2,1,70,0,0
47753,-66.6666666666667,4,2,1,70,0,0
48586,-100,4,2,1,70,0,0
50253,-133.333333333333,4,2,1,70,0,0
50753,-100,4,2,1,70,0,0
51086,-66.6666666666667,4,2,1,70,0,0
51586,-100,4,2,1,70,0,0
52919,-133.333333333333,4,2,1,70,0,0
53919,-100,4,2,1,70,0,0
55086,-66.6666666666667,4,2,1,70,0,0
55419,-100,4,2,1,70,0,0
63586,-200,4,2,1,60,0,0
66419,-200,4,2,1,40,0,0
71753,-200,4,2,1,60,0,0
77003,-200,4,2,1,5,0,0
77086,-166.666666666667,4,2,1,60,0,0
78419,-142.857142857143,4,2,1,60,0,0
79753,-125,4,2,1,60,0,0
81086,-111.111111111111,4,2,1,60,0,0
82086,-33.3333333333333,4,2,1,60,0,0
82419,-100,4,2,1,60,0,0
83753,-66.6666666666667,4,2,1,60,0,0
85086,-100,4,2,1,60,0,0
85753,-100,4,2,2,50,0,0
86086,-200,4,2,1,40,0,0
87753,-33.3333333333333,4,2,1,70,0,0
88086,-100,4,2,2,70,0,0
92919,-66.6666666666667,4,2,1,70,0,0
93086,-33.3333333333333,4,2,1,70,0,0
93419,-100,4,2,2,70,0,0
97419,-66.6666666666667,4,2,2,70,0,0
97753,-133.333333333333,4,2,2,70,0,0
98086,-100,4,2,2,70,0,0
98419,-33.3333333333333,4,2,1,70,0,0
98753,-66.6666666666667,4,2,2,70,0,0
103419,-66.6666666666667,4,2,1,70,0,0
103753,-33.3333333333333,4,2,1,70,0,0
104086,-333.333333333333,4,2,2,70,0,0
104419,-250,4,2,2,70,0,0
104753,-200,4,2,2,70,0,0
105086,-166.666666666667,4,2,2,70,0,0
105419,-142.857142857143,4,2,2,70,0,0
105753,-125,4,2,2,70,0,0
106086,-111.111111111111,4,2,2,70,0,0
106419,-100,4,2,2,70,0,0
107419,-100,4,2,1,70,0,0
109086,-33.3333333333333,4,2,1,75,0,1
109419,-50,4,2,1,75,0,1
109586,-66.6666666666667,4,2,1,75,0,1
109919,-50,4,2,1,75,0,1
110086,-66.6666666666667,4,2,1,75,0,1
111253,-50,4,2,1,75,0,1
111419,-66.6666666666667,4,2,1,75,0,1
111753,-25,4,2,1,75,0,1
112086,-50,4,2,1,75,0,1
112253,-66.6666666666667,4,2,1,75,0,1
112586,-50,4,2,1,75,0,1
112753,-66.6666666666667,4,2,1,75,0,1
112919,-50,4,2,1,75,0,1
113086,-66.6666666666667,4,2,1,75,0,1
113919,-50,4,2,1,75,0,1
114086,-66.6666666666667,4,2,1,75,0,1
114419,-33.3333333333333,4,2,1,75,0,1
114753,-50,4,2,1,75,0,1
114919,-66.6666666666667,4,2,1,75,0,1
115253,-50,4,2,1,75,0,1
115419,-66.6666666666667,4,2,1,75,0,1
116586,-50,4,2,1,75,0,1
116753,-66.6666666666667,4,2,1,75,0,1
117086,-25,4,2,1,75,0,1
117419,-50,4,2,1,75,0,1
117586,-66.6666666666667,4,2,1,75,0,1
117919,-50,4,2,1,75,0,1
118086,-66.6666666666667,4,2,1,75,0,1
118253,-50,4,2,1,75,0,1
118419,-66.6666666666667,4,2,1,75,0,1
119753,-33.3333333333333,4,2,1,75,0,1
120086,-50,4,2,1,75,0,1
120253,-66.6666666666667,4,2,1,75,0,1
120586,-50,4,2,1,75,0,1
120753,-66.6666666666667,4,2,1,75,0,1
121919,-50,4,2,1,75,0,1
122086,-66.6666666666667,4,2,1,75,0,1
122419,-25,4,2,1,75,0,1
122753,-50,4,2,1,75,0,1
122919,-66.6666666666667,4,2,1,75,0,1
123253,-50,4,2,1,75,0,1
123419,-66.6666666666667,4,2,1,75,0,1
123586,-50,4,2,1,75,0,1
123753,-66.6666666666667,4,2,1,75,0,1
124086,-50,4,2,1,75,0,1
124253,-100,4,2,1,75,0,1
124419,-66.6666666666667,4,2,1,75,0,1
125086,-33.3333333333333,4,2,1,75,0,1
125419,-50,4,2,1,75,0,1
125586,-66.6666666666667,4,2,1,75,0,1
125919,-50,4,2,1,75,0,1
126086,-66.6666666666667,4,2,1,75,0,1
127253,-50,4,2,1,75,0,1
127419,-66.6666666666667,4,2,1,75,0,1
127753,-25,4,2,1,75,0,1
128253,-200,4,2,1,60,0,1
130086,-100,4,2,1,60,0,1
130419,-200,4,2,1,50,0,0
130586,-200,4,2,2,50,0,0
135419,-200,4,2,1,50,0,0
135753,-200,4,2,2,50,0,0
140753,-200,4,2,1,50,0,0
141086,-200,4,2,1,40,0,0

[Colours]
Combo1 : 192,192,192
Combo2 : 114,222,254
Combo3 : 1,147,254

[HitObjects]
69,360,2419,5,0,0:0:0:0:
71,369,2586,1,0,0:0:0:0:
106,293,2753,5,0,0:0:0:0:
104,284,2920,1,0,0:0:0:0:
225,362,3086,5,2,0:0:0:0:
31,296,3253,1,0,0:0:0:0:
21,298,3419,1,0,0:0:0:0:
11,300,3586,1,0,0:0:0:0:
139,216,3753,5,0,0:0:0:0:
148,217,3919,1,0,0:0:0:0:
228,198,4086,5,0,0:0:0:0:
219,197,4252,1,0,0:0:0:0:
165,144,4419,5,2,0:0:0:0:
131,291,4586,1,0,0:0:0:0:
46,141,4753,5,2,0:0:0:0:
136,299,4919,1,0,0:0:0:0:
298,242,5086,5,0,0:0:0:0:
307,240,5253,1,0,0:0:0:0:
364,290,5419,5,0,0:0:0:0:
373,292,5586,1,0,0:0:0:0:
238,362,5753,5,2,0:0:0:0:
369,199,5919,1,0,0:0:0:0:
374,207,6086,1,0,0:0:0:0:
375,216,6253,1,0,0:0:0:0:
357,370,6419,5,0,0:0:0:0:
186,306,6586,1,2,0:0:0:0:
468,320,6753,5,0,0:0:0:0:
241,365,6919,1,2,0:0:0:0:
291,180,7086,5,2,0:0:0:0:
330,291,7253,1,0,0:0:0:0:
467,178,7419,5,2,0:0:0:0:
400,236,7586,1,0,0:0:0:0:
456,28,7753,6,0,B|476:50|476:50|506:92|493:156|430:164|430:164|401:152|401:152|339:163,1,225.000008583069,4|0,1:2|0:0,0:0:0:0:
387,154,8086,1,0,0:0:0:0:
120,68,8253,2,0,B|84:59|84:59|90:51|90:51|125:53|150:36|150:36|184:81|184:81|193:79|193:79|355:93,1,299.999990844727,4|0,1:2|0:0,0:0:0:0:
316,89,8753,1,0,0:0:0:0:
203,138,8919,5,0,0:0:0:0:
199,150,9003,1,0,0:0:0:0:
195,162,9086,1,0,0:0:0:0:
120,68,9253,6,0,B|32:93|32:93|20:172,1,150.000005722046,4|0,1:2|0:0,0:0:0:0:
151,367,9586,2,0,B|143:312|143:312|154:298|154:298|147:251|147:251|114:237|114:237|95:123,2,239.999992675781,4|4|0,1:2|1:2|1:0,0:0:0:0:
100,154,10419,6,0,B|41:148|11:88|41:31|41:31|29:76|-40:81,1,225.000008583069,4|0,1:2|0:0,0:0:0:0:
0,73,10753,1,0,0:0:0:0:
297,195,10919,2,0,B|258:173|219:203|219:203|193:269|91:286|60:252|60:252|110:256,1,299.999990844727,4|0,1:2|0:0,0:0:0:0:
86,254,11419,1,0,0:0:0:0:
353,135,11585,5,2,0:0:0:0:
351,148,11669,1,2,0:0:0:0:
297,195,11753,5,4,1:2:0:0:
315,247,11836,1,0,3:0:0:0:
321,230,11920,5,0,3:0:0:0:
346,265,12003,1,0,3:0:0:0:
346,252,12086,5,0,3:0:0:0:
372,273,12169,1,0,3:0:0:0:
369,264,12253,5,0,3:0:0:0:
392,273,12336,1,0,3:0:0:0:
393,267,12420,5,0,3:0:0:0:
413,269,12503,1,0,3:0:0:0:
412,263,12586,5,0,3:0:0:0:
435,263,12669,1,0,3:0:0:0:
430,259,12753,5,0,3:0:0:0:
450,256,12836,1,0,3:0:0:0:
449,250,12919,5,0,3:0:0:0:
464,247,13003,1,0,3:0:0:0:
474,238,13086,6,0,B|453:215|453:215|422:230,1,59.9999981689454,4|0,1:2|0:0,0:0:0:0:
427,227,13419,2,0,B|448:250|448:250|479:235,1,59.9999981689454,0|0,1:0|0:0,0:0:0:0:
391,155,13753,5,0,1:0:0:0:
367,279,13919,1,0,0:0:0:0:
463,362,14086,1,0,1:0:0:0:
487,238,14253,1,0,0:0:0:0:
391,155,14419,6,0,B|354:146|354:146|310:155,1,69.9999978637696,0|0,1:0|0:0,0:0:0:0:
324,68,14753,2,0,B|360:76|360:76|404:67,1,69.9999978637696,0|0,1:0|0:0,0:0:0:0:
354,221,15086,5,0,1:0:0:0:
255,107,15252,1,0,0:0:0:0:
361,3,15419,1,0,1:0:0:0:
455,111,15586,1,0,0:0:0:0:
354,221,15753,6,0,B|293:215|293:215|263:241,1,80,0|0,1:0|0:0,0:0:0:0:
176,300,16086,2,0,B|237:306|237:306|267:280,1,80,0|0,1:0|0:0,0:0:0:0:
112,264,16419,5,0,1:0:0:0:
263,368,16586,1,0,0:0:0:0:
418,257,16753,1,0,1:0:0:0:
259,155,16919,1,0,0:0:0:0:
112,264,17086,6,0,B|88:231|88:231|98:162,1,89.9999972534181,0|0,1:0|0:0,0:0:0:0:
211,7,17419,2,0,B|235:40|235:40|225:109,1,89.9999972534181,0|0,1:0|0:0,0:0:0:0:
24,180,17753,5,0,1:0:0:0:
299,91,17919,1,0,0:0:0:0:
88,122,18086,6,0,B|62:84|101:44|101:44|91:96|139:142,1,150.000005722046,6|0,1:0|0:0,0:0:0:0:
174,62,18253,5,2,0:1:0:0:
174,62,18419,6,0,P|211:88|232:88,1,50,4|0,1:2|0:0,0:0:0:0:
233,16,18586,2,0,P|277:8|292:-6,1,50,0|0,1:0|0:0,0:0:0:0:
299,91,18753,6,0,P|273:128|273:149,1,50,0|0,1:0|0:0,0:0:0:0:
345,150,18920,2,0,P|352:194|367:209,1,50,0|0,1:0|0:0,0:0:0:0:
475,123,19086,6,0,P|501:86|501:65,1,50,0|0,1:0|0:0,0:0:0:0:
429,64,19253,2,0,P|421:19|406:4,1,50,0|0,1:0|0:0,0:0:0:0:
475,217,19419,6,0,P|438:191|417:191,1,50,0|0,1:0|0:0,0:0:0:0:
416,263,19586,2,0,P|371:270|356:285,1,50,0|0,1:0|0:0,0:0:0:0:
496,366,19753,6,0,L|485:275,1,75.0000028610231,0|0,1:0|0:0,0:0:0:0:
406,188,19919,2,0,L|417:279,1,75.0000028610231,0|0,1:0|0:0,0:0:0:0:
255,203,20086,6,0,L|346:192,1,75.0000028610231,0|0,1:0|0:0,0:0:0:0:
433,113,20252,2,0,L|342:124,1,75.0000028610231,0|0,1:0|0:0,0:0:0:0:
284,276,20419,6,0,L|193:265,1,75.0000028610231,0|0,1:0|0:0,0:0:0:0:
106,186,20585,2,0,L|197:197,1,75.0000028610231,0|0,1:0|0:0,0:0:0:0:
122,33,20753,6,0,L|111:124,1,75.0000028610231,0|0,1:0|0:0,0:0:0:0:
32,211,20919,2,0,L|43:120,1,75.0000028610231,0|0,1:0|0:0,0:0:0:0:
16,344,21086,5,0,1:0:0:0:
52,377,21169,1,0,1:0:0:0:
93,377,21253,1,0,1:0:0:0:
121,356,21336,1,0,1:0:0:0:
129,327,21419,5,0,1:0:0:0:
120,304,21503,1,0,1:0:0:0:
104,293,21586,1,0,1:0:0:0:
89,292,21669,1,0,1:0:0:0:
81,297,21753,5,0,1:0:0:0:
77,301,21836,1,0,0:0:0:0:
76,307,21919,1,0,0:0:0:0:
78,312,22003,1,0,0:0:0:0:
82,315,22086,6,0,L|126:309,3,25,0|0|0|0,0:0|0:0|0:0|0:0,0:0:0:0:
206,295,22419,1,0,1:0:0:0:
206,295,23753,6,0,B|271:256|250:168|167:150|119:193|119:193|162:222|135:271|135:271|131:263|131:263|42:250|42:250|20:232|31:198,1,450.000017166138,4|0,1:2|0:0,0:0:0:0:
56,156,24086,6,0,B|51:112|51:112|60:99|60:99|53:34,1,112.500004291535,0|0,0:0|0:0,0:0:0:0:
66,340,24419,2,0,B|32:321|32:321|95:331,1,100,8|0,0:0|0:0,0:0:0:0:
313,221,24753,6,0,B|346:216|346:216|359:222|359:222|404:216,1,75.0000028610231,0|0,0:0|0:0,0:0:0:0:
498,45,25086,2,0,B|486:25|486:25|426:15|426:15|410:25|410:25|345:14,1,150.000005722046,0|0,1:0|0:0,0:0:0:0:
443,95,25586,5,0,0:0:0:0:
174,40,25753,2,0,B|140:34|140:34|165:32,1,50,8|0,0:0|0:0,0:0:0:0:
363,17,25919,6,0,L|373:73,1,37.5000014305115,0|0,0:0|0:0,0:0:0:0:
412,292,26086,2,0,B|425:217|425:217|484:201,1,112.500004291535,0|0,0:0|0:0,0:0:0:0:
488,277,26419,6,0,B|500:286|500:286|486:294|486:294|496:305|496:305|482:312|482:312|491:324|491:324|478:329|478:329|483:342|483:342|469:343|469:343|472:356|472:356|460:353|460:353|459:366|459:366|447:362|447:362|443:374|443:374|431:368|431:368|426:380|426:380|417:370|417:370|409:382|409:382|402:370|402:370|392:380|392:380|387:367|387:367|375:373|375:373|372:360|372:360|359:365|359:365|360:350|360:350|343:352|343:352|347:335|347:335|332:331|332:331|340:319|340:319|328:310|328:310|337:298|337:298|329:284|329:284|341:275|341:275|331:262|331:262|344:254|344:254|334:241|334:241|348:233|348:233|339:218|339:218|353:211|353:211|344:197|344:197|359:188|359:188|347:174|347:174|363:162|363:162|366:150,1,600,0|0,1:0|0:0,0:0:0:0:
401,120,26753,6,0,B|445:115|445:115|458:124|458:124|523:117,1,112.500004291535,0|0,0:0|0:0,0:0:0:0:
236,298,27086,2,0,B|242:336|242:336|254:273,1,100,8|0,0:0|0:0,0:0:0:0:
89,94,27419,6,0,B|84:61|84:61|90:48|90:48|84:3,1,75.0000028610231,0|0,0:0|0:0,0:0:0:0:
20,228,27753,2,0,B|72:274|72:274|125:258|125:258|131:225,1,150.000005722046,0|0,1:0|0:0,0:0:0:0:
76,177,28253,5,0,0:0:0:0:
241,28,28419,2,0,B|269:34|269:34|235:42,1,50,8|0,0:0|0:0,0:0:0:0:
35,12,28586,6,0,L|91:26,1,37.5000014305115,0|0,0:0|0:0,0:0:0:0:
370,90,28753,2,0,L|239:114,1,112.500004291535,0|0,0:0|0:0,0:0:0:0:
188,88,29086,6,0,B|141:83|111:141|155:174|155:174|354:207|354:207|405:238|380:314|298:292,1,450.000017166138,4|0,1:2|0:0,0:0:0:0:
254,356,29419,6,0,B|233:299|233:299|281:257,1,112.500004291535,0|0,0:0|0:0,0:0:0:0:
254,42,29753,2,0,B|263:4|263:4|269:68,1,100,8|0,0:0|0:0,0:0:0:0:
159,284,30086,6,0,B|128:291|128:291|112:283|112:283|65:293,1,75.0000028610231,0|0,0:0|0:0,0:0:0:0:
276,183,30419,2,0,B|238:173|238:173|217:96|217:96|160:80,1,150.000005722046,0|0,1:0|0:0,0:0:0:0:
109,66,30919,5,0,0:0:0:0:
355,200,31086,2,0,B|387:195|387:195|365:188,1,50,8|0,0:0|0:0,0:0:0:0:
118,251,31253,6,0,L|71:282,1,37.5000014305115,0|0,0:0|0:0,0:0:0:0:
328,126,31419,2,0,B|354:49|354:49|342:7,1,112.500004291535,0|0,0:0|0:0,0:0:0:0:
270,41,31753,6,0,B|242:36|242:36|250:53|250:53|223:52|223:52|235:70|235:70|211:75|211:75|223:93|223:93|200:103|200:103|217:117|217:117|197:132|197:132|217:145|217:145|207:166|207:166|227:172|227:172|225:191|225:191|244:194|244:194|249:212|249:212|266:209|266:209|275:225|275:225|290:220|290:220|304:232|304:232|321:226|321:226|336:232|336:232|348:224|348:224|365:226|365:226|375:216|375:216|390:217|390:217|398:206|398:206|412:204|412:204|419:194|419:194|428:188|428:188|433:180|433:180|441:173|441:173|444:164|444:164|451:149|471:151,1,600,0|0,1:0|0:0,0:0:0:0:
415,92,32086,6,0,B|469:72|469:72|524:117,1,112.500004291535,0|0,0:0|0:0,0:0:0:0:
286,346,32419,2,0,B|249:333|249:333|357:326,1,100,8|0,0:0|0:0,0:0:0:0:
454,153,32753,6,0,B|428:192|428:192|344:180,1,112.500004291535,0|0,0:0|0:0,0:0:0:0:
308,234,33086,5,0,1:0:0:0:
259,249,33169,1,0,3:0:0:0:
212,229,33253,1,0,3:0:0:0:
192,182,33336,1,0,3:0:0:0:
260,140,33419,5,0,3:0:0:0:
274,65,33503,1,0,3:0:0:0:
220,12,33586,1,0,3:0:0:0:
145,18,33669,1,0,3:0:0:0:
100,79,33753,5,0,3:0:0:0:
64,91,33836,1,0,3:0:0:0:
53,126,33919,1,0,3:0:0:0:
65,161,34003,1,0,3:0:0:0:
140,183,34086,5,0,3:0:0:0:
154,178,34169,1,0,3:0:0:0:
167,186,34253,1,0,3:0:0:0:
182,183,34336,1,0,3:0:0:0:
257,200,34419,6,0,B|339:181|339:181|348:169|348:169|418:153|418:153|419:115|419:115|396:55|331:32|331:32|296:40|296:40|265:163,1,450.000017166138,4|0,1:2|0:0,0:0:0:0:
393,236,34753,6,0,P|411:278|354:333,1,112.500004291535,0|0,0:0|0:0,0:0:0:0:
215,71,35086,2,0,B|231:8|231:8|210:42,1,100,8|0,0:0|0:0,0:0:0:0:
128,291,35419,6,0,B|104:293|104:293|79:278|79:278|39:281,1,75.0000028610231,0|0,0:0|0:0,0:0:0:0:
238,366,35753,2,0,B|266:350|266:350|354:329|354:329|400:336,1,150.000005722046,0|0,1:0|0:0,0:0:0:0:
300,311,36253,5,0,0:0:0:0:
68,192,36419,2,0,B|38:200|38:200|67:200,1,50,8|0,0:0|0:0,0:0:0:0:
238,366,36586,6,0,P|226:342|237:298,1,37.5000014305115,0|0,0:0|0:0,0:0:0:0:
282,121,36753,2,0,P|268:41|211:24,1,112.500004291535,0|0,0:0|0:0,0:0:0:0:
218,91,37086,6,0,B|201:110|201:110|204:129|204:129|185:129|185:129|185:148|185:148|165:146|165:146|158:166|158:166|138:159|138:159|126:178|126:178|110:165|110:165|97:181|97:181|79:164|79:164|64:173|64:173|56:155|56:155|31:150|31:150|48:127|48:127|44:106|44:106|63:106|63:106|61:84|61:84|83:88|83:88|86:65|86:65|108:75|108:75|119:54|119:54|137:69|137:69|152:54|152:54|162:71|162:71|179:62|179:62|189:77|189:77|211:91,1,600,0|0,1:0|0:0,0:0:0:0:
347,153,37419,6,0,P|358:203|422:215,1,112.500004291535,0|0,0:0|0:0,0:0:0:0:
126,127,37753,2,0,B|84:120|84:120|150:109,1,100,8|0,0:0|0:0,0:0:0:0:
419,72,38086,6,0,B|424:108|424:108|417:126|417:126|424:180,1,75.0000028610231,0|0,0:0|0:0,0:0:0:0:
502,361,38419,2,0,B|504:306|504:306|480:285|480:285|482:216,1,150.000005722046,0|0,1:0|0:0,0:0:0:0:
430,341,38919,6,0,L|368:326,1,50,8|0,0:0|0:0,0:0:0:0:
136,266,39086,6,0,P|146:320|154:369,1,75.0000028610231,0|0,1:0|0:0,0:0:0:0:
398,145,39336,6,0,P|408:199|416:248,1,75.0000028610231,0|0,1:0|0:0,0:0:0:0:
203,55,39586,6,0,P|213:109|221:158,1,75.0000028610231,0|0,1:0|0:0,0:0:0:0:
269,196,39753,6,0,B|283:145|283:145|225:122|181:176|181:176|137:230|67:213|67:213|129:216|163:264|163:264|181:289|209:281|209:281|232:280,1,450.000017166138,4|0,1:2|0:0,0:0:0:0:
272,272,40086,6,0,B|347:257|308:311|403:291,1,112.500004291535,0|0,0:0|0:0,0:0:0:0:
472,16,40419,2,0,B|510:29|510:29|433:23,1,100,8|0,0:0|0:0,0:0:0:0:
216,128,40753,6,0,B|180:123|180:123|168:129|168:129|112:121,1,75.0000028610231,0|0,0:0|0:0,0:0:0:0:
369,219,41086,2,0,B|389:150|389:150|351:112|351:112|312:125,1,150.000005722046,0|0,1:0|0:0,0:0:0:0:
298,190,41586,5,0,0:0:0:0:
481,367,41753,2,0,B|504:360|504:360|476:355,1,50,8|0,0:0|0:0,0:0:0:0:
209,346,41919,6,0,L|160:357,1,37.5000014305115,0|0,0:0|0:0,0:0:0:0:
254,129,42086,2,0,P|201:140|144:156,1,112.500004291535,0|0,0:0|0:0,0:0:0:0:
111,228,42419,6,0,B|126:229|126:229|139:226|139:226|150:235|150:235|163:228|163:228|174:237|174:237|187:230|187:230|198:239|198:239|211:228|211:228|221:245|221:245|235:230|235:230|245:247|245:247|259:232|259:232|269:249|269:249|283:231|283:231|293:255|293:255|307:233|307:233|317:258|317:258|331:235|331:235|341:260|341:260|354:241|354:241|365:258|365:258|378:243|378:243|389:260|389:260|402:245|402:245|413:262|413:262|426:251|426:251|437:260|437:260|450:253|450:253|461:262|461:262|473:255|473:255|485:264|485:264|497:261|497:261|525:264,1,600,0|0,1:0|0:0,0:0:0:0:
498,261,42753,6,0,B|419:264|464:295|381:299,1,112.500004291535,0|0,0:0|0:0,0:0:0:0:
190,32,43086,2,0,B|152:18|152:18|217:24,1,100,8|0,0:0|0:0,0:0:0:0:
498,261,43419,6,0,P|511:207|467:172,1,112.500004291535,0|0,0:0|0:0,0:0:0:0:
456,146,43753,5,0,1:0:0:0:
458,127,43836,1,0,0:0:0:0:
461,108,43919,1,0,0:0:0:0:
464,90,44003,1,0,3:0:0:0:
467,71,44086,1,0,3:0:0:0:
425,2,44253,5,0,3:0:0:0:
443,54,44336,1,0,0:0:0:0:
461,107,44419,1,0,3:0:0:0:
479,160,44503,1,0,3:0:0:0:
497,213,44586,1,0,3:0:0:0:
461,108,44753,6,0,L|398:103,1,50,0|0,3:0|0:0,0:0:0:0:
248,205,45086,6,0,P|326:217|373:143,2,150.000005722046,4|0|0,1:2|0:0|0:0,0:0:0:0:
176,235,45586,1,0,0:0:0:0:
260,52,45753,1,8,0:0:0:0:
260,52,45919,2,0,P|285:110|299:155,1,100,2|0,0:0|0:0,0:0:0:0:
240,283,46253,6,0,B|203:318|203:318|226:380,1,100,2|0,0:0|1:0,0:0:0:0:
316,301,46586,2,0,B|333:347|333:347|296:382,2,100,0|0|0,0:0|0:0|0:0,0:0:0:0:
99,250,47086,2,0,B|183:240|148:298|245:282,1,150.000005722046,10|0,0:0|0:0,0:0:0:0:
113,324,47419,2,0,P|73:364|25:371,1,100,0|0,0:0|0:0,0:0:0:0:
159,173,47753,6,0,P|172:108|200:10,2,150.000005722046,2|0|0,1:2|0:0|0:0,0:0:0:0:
211,233,48253,1,0,0:0:0:0:
34,32,48419,1,8,0:0:0:0:
34,32,48586,2,0,P|78:36|87:111,1,100,2|0,0:0|0:0,0:0:0:0:
55,222,48919,6,0,B|23:176|23:176|55:101,1,100,2|0,0:0|1:0,0:0:0:0:
183,105,49253,2,0,B|159:155|159:155|78:165,2,100,0|0|0,0:0|0:0|0:0,0:0:0:0:
294,36,49753,5,10,0:0:0:0:
398,172,49919,1,0,0:0:0:0:
371,258,50086,1,0,0:0:0:0:
13,377,50253,2,0,B|30:342|30:342|35:388,2,75.0000028610231,4|2|0,1:2|0:0|0:0,0:0:0:0:
45,270,50753,5,0,0:0:0:0:
45,270,50919,1,2,0:0:0:0:
304,352,51086,2,0,B|390:336|390:336|423:363|423:363|416:388,1,150.000005722046,8|0,0:0|0:0,0:0:0:0:
231,328,51419,5,0,0:0:0:0:
290,277,51586,2,0,B|310:230|310:230|272:170,1,100,2|0,0:0|1:0,0:0:0:0:
345,48,51919,2,0,B|325:95|325:95|363:155,2,100,2|0|0,0:0|0:0|0:0,0:0:0:0:
502,315,52419,5,10,0:0:0:0:
320,382,52586,1,0,0:0:0:0:
231,328,52753,1,0,0:0:0:0:
483,36,52919,2,0,P|472:60|474:33,2,75.0000028610231,4|2|0,1:2|0:0|0:0,0:0:0:0:
400,6,53419,5,0,0:0:0:0:
400,6,53586,1,2,0:0:0:0:
484,237,53753,1,8,0:0:0:0:
484,237,53919,2,0,P|433:219|385:212,1,100,0|0,0:0|0:0,0:0:0:0:
322,261,54253,6,0,B|330:311|330:311|291:350,1,100,2|0,0:0|1:0,0:0:0:0:
135,208,54586,2,0,B|127:158|127:158|166:119,2,100,2|0|0,0:0|0:0|0:0,0:0:0:0:
295,345,55086,6,0,B|331:347|331:347|343:357|343:357|456:363,1,150.000005722046,8|0,0:0|0:0,0:0:0:0:
227,195,55419,2,0,P|180:186|125:217,1,100,0|0,0:0|0:0,0:0:0:0:
74,336,55753,5,4,1:2:0:0:
189,267,55919,1,2,0:0:0:0:
146,371,56086,5,0,0:0:0:0:
295,345,56253,1,2,0:0:0:0:
104,261,56419,5,8,0:0:0:0:
295,345,56586,1,0,0:0:0:0:
392,227,56753,1,0,0:0:0:0:
392,227,56919,2,0,L|284:239,1,100,2|0,0:0|1:0,0:0:0:0:
351,137,57253,5,2,0:0:0:0:
439,73,57419,1,0,0:0:0:0:
392,227,57586,2,0,P|404:287|446:308,1,100,0|10,0:0|0:0,0:0:0:0:
469,235,57919,5,0,0:0:0:0:
351,137,58086,1,2,0:0:0:0:
249,302,58253,2,0,P|189:292|150:290,1,100,0|0,0:0|1:0,0:0:0:0:
312,351,58586,5,2,0:0:0:0:
282,179,58753,1,0,0:0:0:0:
162,141,58919,1,2,0:0:0:0:
356,68,59086,5,8,0:0:0:0:
205,207,59253,1,0,0:0:0:0:
84,23,59419,1,0,0:0:0:0:
84,23,59586,2,0,P|146:31|168:75,1,100,2|0,0:0|1:0,0:0:0:0:
9,212,59919,5,2,0:0:0:0:
35,80,60086,1,0,0:0:0:0:
162,141,60253,1,0,0:0:0:0:
9,212,60419,5,8,0:0:0:0:
231,108,60586,1,0,0:0:0:0:
413,269,60753,1,2,0:0:0:0:
191,373,60919,2,0,B|167:350|183:323|183:323|206:345|191:367,1,100,6|0,1:2|0:0,0:0:0:0:
191,373,61253,5,0,0:0:0:0:
90,314,61419,1,0,0:0:0:0:
141,188,61586,1,2,0:0:0:0:
300,320,61753,5,8,0:0:0:0:
58,381,61919,1,0,0:0:0:0:
80,234,62086,1,0,0:0:0:0:
80,234,62253,2,0,B|115:272|115:272|89:314,1,100,2|0,0:0|1:0,0:0:0:0:
15,190,62586,5,2,0:0:0:0:
118,117,62753,1,0,0:0:0:0:
210,287,62919,2,0,B|218:301|218:301|326:326,1,100,0|8,0:0|0:0,0:0:0:0:
436,175,63253,5,0,0:0:0:0:
367,358,63419,1,2,0:0:0:0:
309,105,63586,2,0,B|296:50|335:62|324:7,2,100,2|0|0,1:2|0:0|0:0,0:0:0:0:
380,88,64419,5,0,0:0:0:0:
380,88,64586,2,0,L|437:80,1,50,0|0,0:0|0:0,0:0:0:0:
251,21,64919,2,0,L|199:15,1,50,0|0,0:0|0:0,0:0:0:0:
137,67,65253,5,0,0:0:0:0:
35,21,65419,1,0,0:0:0:0:
2,129,65586,1,0,0:0:0:0:
137,67,65753,5,0,0:0:0:0:
175,132,65919,1,0,0:0:0:0:
248,116,66086,1,0,0:0:0:0:
210,51,66419,5,4,1:2:0:0:
256,373,71419,5,2,0:0:0:0:
256,373,71753,6,0,B|267:352|267:352|281:375|281:375|290:352|290:352|306:371|306:371|310:348|310:348|328:367|328:367|331:343|331:343|352:357|352:357|352:331|352:331|374:344|374:344|369:318|369:318|393:325|393:325|385:300|385:300|409:305|409:305|397:283|397:283|420:283|420:283|405:262|405:262|429:260|429:260|409:245|409:245|432:237|432:237|410:224|410:224|432:212|432:212|409:201|409:201|428:186|428:186|404:179|404:179|422:164|422:164|396:161|396:161|410:141|410:141|384:142|384:142|397:120|397:120|371:121|371:121|381:100|381:100|357:107|357:107|363:83|363:83|340:93|340:93|343:68|343:68|321:80|321:80|318:55|318:55|300:70|300:70|298:45|298:45|278:61|278:61|273:37|273:37|257:56|257:56|250:32|250:32|234:52|234:52|225:29|225:29|212:50|212:50|199:28|199:28|189:50|189:50|174:30|174:30|166:54|166:54|149:34|149:34|143:58|143:58|125:40|125:40|122:64|122:64|103:48|103:48|101:72|101:72|79:57|79:57|79:81|79:81|57:69|57:69|56:96|56:96|36:83|36:83|47:128,1,1575,2|0,0:0|0:0,0:0:0:0:
41,107,77086,6,0,L|9:103,3,29.9999990844727,4|0|0|0,1:2|0:0|0:0|0:0,0:0:0:0:
47,118,77419,2,0,L|14:113,3,29.9999990844727,0|0|0|0,1:0|0:0|0:0|0:0,0:0:0:0:
52,128,77753,2,0,L|19:123,3,29.9999990844727,0|0|0|0,1:0|0:0|0:0|0:0,0:0:0:0:
57,138,78086,2,0,L|24:133,3,29.9999990844727,0|0|0|0,1:0|0:0|0:0|0:0,0:0:0:0:
91,219,78419,6,0,L|46:213,3,34.9999989318848,0|0|0|0,1:0|0:0|0:0|0:0,0:0:0:0:
112,213,78753,2,0,L|67:207,3,34.9999989318848,0|0|0|0,1:0|0:0|0:0|0:0,0:0:0:0:
133,207,79086,2,0,L|88:201,3,34.9999989318848,0|0|0|0,1:0|0:0|0:0|0:0,0:0:0:0:
154,201,79419,2,0,L|109:195,3,34.9999989318848,0|0|0|0,1:0|0:0|0:0|0:0,0:0:0:0:
258,169,79753,6,0,L|190:160,3,40,0|0|0|0,1:0|0:0|0:0|0:0,0:0:0:0:
261,239,80086,2,0,L|193:230,3,40,0|0|0|0,1:0|0:0|0:0|0:0,0:0:0:0:
364,134,80419,2,0,L|296:125,3,40,0|0|0|0,1:0|0:0|0:0|0:0,0:0:0:0:
367,204,80753,2,0,L|299:195,3,40,0|0|0|0,1:0|0:0|0:0|0:0,0:0:0:0:
359,62,81086,6,0,L|296:54,3,44.999998626709,0|0|0|0,1:0|0:0|0:0|0:0,0:0:0:0:
484,239,81419,2,0,L|421:231,3,44.999998626709,0|0|0|0,1:0|0:0|0:0|0:0,0:0:0:0:
265,312,81753,2,0,L|202:304,3,44.999998626709,0|0|0|0,1:0|0:0|0:0|0:0,0:0:0:0:
130,105,82086,6,0,B|73:98|73:98|58:96|55:118|70:120|70:120|135:128,1,150.000005722046,6|0,1:0|0:0,0:0:0:0:
203,126,82253,5,2,0:1:0:0:
203,126,82419,6,0,B|212:101|212:101|262:79,1,50,4|0,1:2|0:0,0:0:0:0:
210,25,82586,2,0,B|234:13|234:13|284:33,1,50,0|0,1:0|0:0,0:0:0:0:
375,209,82753,6,0,B|350:200|350:200|328:150,1,50,0|0,1:0|0:0,0:0:0:0:
274,202,82920,2,0,B|262:177|262:177|282:127,1,50,0|0,1:0|0:0,0:0:0:0:
132,263,83086,6,0,B|157:272|157:272|179:322,1,50,0|0,1:0|0:0,0:0:0:0:
233,270,83253,2,0,B|244:294|244:294|224:344,1,50,0|0,1:0|0:0,0:0:0:0:
139,162,83419,6,0,B|130:187|130:187|80:209,1,50,0|0,1:0|0:0,0:0:0:0:
132,263,83586,2,0,B|107:274|107:274|57:254,1,50,0|0,1:0|0:0,0:0:0:0:
57,144,83753,6,0,P|38:168|35:214,1,75.0000028610231,0|0,1:0|0:0,0:0:0:0:
113,89,83919,2,0,P|132:65|135:19,1,75.0000028610231,0|0,1:0|0:0,0:0:0:0:
230,275,84086,6,0,P|254:294|300:297,1,75.0000028610231,0|0,1:0|0:0,0:0:0:0:
175,219,84252,2,0,P|151:200|105:197,1,75.0000028610231,0|0,1:0|0:0,0:0:0:0:
292,134,84419,6,0,P|268:153|222:156,1,75.0000028610231,0|0,1:0|0:0,0:0:0:0:
347,78,84585,2,0,P|371:59|417:56,1,75.0000028610231,0|0,1:0|0:0,0:0:0:0:
479,249,84753,6,0,P|498:273|501:319,1,75.0000028610231,0|0,1:0|0:0,0:0:0:0:
423,194,84919,2,0,P|404:170|401:124,1,75.0000028610231,0|0,1:0|0:0,0:0:0:0:
297,297,85086,5,0,1:0:0:0:
264,327,85169,1,0,1:0:0:0:
234,356,85253,1,0,1:0:0:0:
203,338,85336,1,0,1:0:0:0:
176,323,85419,5,0,1:0:0:0:
181,298,85503,1,0,1:0:0:0:
185,278,85586,1,0,1:0:0:0:
199,276,85669,1,0,1:0:0:0:
210,275,85753,5,0,1:0:0:0:
213,280,85836,1,0,0:0:0:0:
214,285,85919,1,0,0:0:0:0:
217,289,86003,1,0,0:0:0:0:
219,294,86086,6,0,L|182:303,3,25,0|0|0|0,0:0|0:0|0:0|0:0,0:0:0:0:
104,326,86419,1,0,1:0:0:0:
104,326,87753,6,0,B|110:342|110:342|52:342|13:306|13:252|13:252|19:241|19:241|262:185|262:185|288:209,1,450.000017166138,4|0,1:2|0:0,0:0:0:0:
241,263,88086,5,0,1:0:0:0:
238,273,88169,1,0,0:0:0:0:
235,283,88253,2,0,L|281:337,1,50,0|0,0:0|0:0,0:0:0:0:
287,183,88419,5,0,1:0:0:0:
284,193,88502,1,0,0:0:0:0:
281,203,88586,2,0,L|327:257,1,50,0|0,0:0|0:0,0:0:0:0:
333,103,88752,5,0,1:0:0:0:
330,113,88835,1,0,0:0:0:0:
327,123,88919,2,0,L|373:177,1,50,0|0,0:0|0:0,0:0:0:0:
273,52,89086,5,0,1:0:0:0:
276,42,89169,1,0,0:0:0:0:
279,32,89253,2,0,L|194:48,1,50,0|0,0:0|0:0,0:0:0:0:
193,111,89419,5,0,1:0:0:0:
190,121,89502,1,0,0:0:0:0:
187,131,89586,2,0,L|102:147,1,50,0|0,0:0|0:0,0:0:0:0:
153,24,89753,5,0,1:0:0:0:
156,14,89836,1,0,0:0:0:0:
159,4,89920,2,0,L|74:20,1,50,0|0,0:0|0:0,0:0:0:0:
73,83,90086,5,0,1:0:0:0:
70,93,90169,1,0,0:0:0:0:
67,103,90253,2,0,L|-18:119,1,50,0|0,0:0|0:0,0:0:0:0:
103,215,90419,5,0,1:0:0:0:
95,221,90503,1,0,0:0:0:0:
91,230,90586,2,0,P|96:272|127:299,1,50,0|0,0:0|0:0,0:0:0:0:
27,299,90753,5,0,1:0:0:0:
25,308,90837,1,0,0:0:0:0:
29,318,90920,2,0,P|62:344|103:341,1,50,0|0,0:0|0:0,0:0:0:0:
234,256,91086,5,0,1:0:0:0:
229,248,91170,1,0,0:0:0:0:
219,243,91253,2,0,P|177:247|150:279,1,50,0|0,0:0|0:0,0:0:0:0:
309,235,91419,5,0,1:0:0:0:
311,225,91503,1,0,0:0:0:0:
307,215,91586,2,0,P|273:188|232:191,1,50,0|0,0:0|0:0,0:0:0:0:
378,353,91753,5,0,1:0:0:0:
385,359,91836,1,0,0:0:0:0:
394,361,91919,2,0,P|351:368|325:387,1,50,0|0,0:0|0:0,0:0:0:0:
471,360,92086,5,0,1:0:0:0:
472,350,92169,1,0,0:0:0:0:
469,343,92252,2,0,P|496:376|526:389,1,50,0|0,0:0|0:0,0:0:0:0:
431,278,92419,5,0,1:0:0:0:
422,281,92502,1,0,0:0:0:0:
416,287,92585,2,0,P|431:246|427:214,1,50,0|0,0:0|0:0,0:0:0:0:
251,148,92753,5,0,1:0:0:0:
486,29,92919,2,0,B|457:4|457:4|406:13,1,75.0000028610231,8|0,0:0|0:0,0:0:0:0:
354,74,93086,6,0,B|501:114|501:114|506:122|506:122|446:106|406:150|406:150|358:209|257:206|224:92,1,450.000017166138,4|0,1:2|0:0,0:0:0:0:
284,30,93419,6,0,L|275:102,1,50,0|0,1:0|0:0,0:0:0:0:
268,69,93586,2,0,L|277:-3,1,50,2|0,0:0|0:0,0:0:0:0:
251,148,93753,5,0,1:0:0:0:
227,150,93836,1,0,0:0:0:0:
206,163,93919,1,2,0:0:0:0:
191,183,94002,1,0,0:0:0:0:
167,190,94086,6,0,L|109:172,1,50,0|0,1:0|0:0,0:0:0:0:
106,181,94253,2,0,L|164:199,1,50,2|0,0:0|0:0,0:0:0:0:
338,244,94419,5,0,1:0:0:0:
327,266,94502,1,0,0:0:0:0:
308,282,94585,1,2,0:0:0:0:
284,288,94668,1,0,0:0:0:0:
260,283,94753,6,0,L|257:215,1,50,0|0,1:0|0:0,0:0:0:0:
246,224,94919,2,0,L|249:292,1,50,2|0,0:0|0:0,0:0:0:0:
49,329,95086,5,0,1:0:0:0:
73,331,95169,1,0,0:0:0:0:
94,344,95252,1,2,0:0:0:0:
109,364,95335,1,0,0:0:0:0:
133,371,95419,6,0,L|191:353,1,50,0|0,1:0|0:0,0:0:0:0:
194,362,95586,2,0,L|136:380,1,50,2|0,0:0|0:0,0:0:0:0:
29,222,95753,5,0,1:0:0:0:
22,197,95836,1,0,0:0:0:0:
16,173,95919,1,2,0:0:0:0:
33,155,96003,1,0,0:0:0:0:
50,137,96086,6,0,P|78:157|109:153,1,50,0|0,1:0|0:0,0:0:0:0:
99,83,96253,2,0,P|130:68|142:39,1,50,2|0,0:0|0:0,0:0:0:0:
145,224,96419,5,0,1:0:0:0:
169,228,96502,1,0,0:0:0:0:
194,233,96585,1,2,0:0:0:0:
218,238,96668,1,0,0:0:0:0:
243,243,96753,6,0,B|215:213|231:172,1,50,0|0,1:0|0:0,0:0:0:0:
300,112,96919,2,0,B|308:152|274:180,1,50,2|0,0:0|0:0,0:0:0:0:
210,65,97086,5,0,1:0:0:0:
222,63,97169,1,0,0:0:0:0:
234,61,97252,1,0,0:0:0:0:
247,59,97335,1,0,0:0:0:0:
306,5,97419,5,0,0:0:0:0:
324,7,97502,1,0,0:0:0:0:
343,9,97585,1,0,0:0:0:0:
361,11,97668,1,0,0:0:0:0:
387,87,97753,5,0,0:0:0:0:
389,96,97836,1,0,0:0:0:0:
392,105,97919,1,0,0:0:0:0:
394,114,98002,1,0,0:0:0:0:
345,176,98086,5,0,0:0:0:0:
343,188,98169,1,0,0:0:0:0:
341,200,98252,1,0,0:0:0:0:
339,213,98335,1,0,0:0:0:0:
337,224,98419,6,0,B|280:211|272:161|272:161|287:77|287:77|273:41|236:19|196:29|196:29|100:56|100:56|148:61|170:102,1,450.000017166138,4|0,1:2|0:0,0:0:0:0:
96,130,98753,5,0,1:0:0:0:
87,146,98836,1,0,0:0:0:0:
74,159,98919,1,2,0:0:0:0:
56,165,99002,1,0,0:0:0:0:
38,165,99086,5,0,1:0:0:0:
71,148,99169,1,0,0:0:0:0:
108,144,99252,1,2,0:0:0:0:
144,154,99335,1,0,0:0:0:0:
173,177,99419,1,0,1:0:0:0:
191,209,99502,1,0,0:0:0:0:
195,246,99585,1,2,0:0:0:0:
208,281,99669,1,0,0:0:0:0:
238,303,99753,6,0,B|208:330|208:330|235:403,3,75.0000028610231,0|0|2|0,1:0|0:0|0:0|0:0,0:0:0:0:
387,347,100086,5,0,1:0:0:0:
405,351,100169,1,0,0:0:0:0:
423,356,100252,1,2,0:0:0:0:
441,360,100335,1,0,0:0:0:0:
459,365,100419,5,0,1:0:0:0:
423,374,100502,1,0,0:0:0:0:
388,361,100585,1,2,0:0:0:0:
367,331,100668,1,0,0:0:0:0:
367,294,100752,1,0,1:0:0:0:
389,264,100835,1,0,0:0:0:0:
423,252,100918,1,2,0:0:0:0:
459,262,101002,1,0,0:0:0:0:
482,290,101086,6,0,P|452:265|461:223,3,75.0000028610231,0|0|2|0,1:0|0:0|0:0|0:0,0:0:0:0:
465,74,101419,5,0,1:0:0:0:
480,64,101502,1,0,0:0:0:0:
492,49,101585,1,2,0:0:0:0:
499,32,101668,1,0,0:0:0:0:
500,13,101753,5,0,1:0:0:0:
462,16,101836,1,0,0:0:0:0:
425,19,101919,1,2,0:0:0:0:
406,52,102002,1,0,0:0:0:0:
388,84,102086,1,0,1:0:0:0:
369,117,102169,1,0,0:0:0:0:
350,150,102252,1,2,0:0:0:0:
313,153,102336,1,0,0:0:0:0:
276,157,102419,6,0,L|176:122,3,75.0000028610231,0|0|2|0,1:0|0:0|0:0|0:0,0:0:0:0:
389,317,102753,6,0,L|289:282,3,75.0000028610231,0|0|2|0,1:0|0:0|0:0|0:0,0:0:0:0:
76,354,103086,6,0,L|-24:319,3,75.0000028610231,0|0|2|0,1:0|0:0|0:0|0:0,0:0:0:0:
114,38,103419,5,0,1:0:0:0:
200,265,103586,2,0,L|234:357,1,75.0000028610231,8|0,0:0|0:0,0:0:0:0:
131,296,103753,6,0,B|109:251|144:217|144:217|202:157|202:157|248:108|188:17|96:71|111:132|111:132|138:207,1,450.000017166138,4|0,1:2|0:0,0:0:0:0:
200,265,104086,5,0,1:0:0:0:
211,255,104169,1,0,0:0:0:0:
225,249,104252,1,2,0:0:0:0:
239,246,104335,1,0,0:0:0:0:
255,246,104419,1,0,1:0:0:0:
274,245,104502,1,0,0:0:0:0:
294,249,104585,1,2,0:0:0:0:
312,258,104668,1,0,0:0:0:0:
328,271,104753,1,0,1:0:0:0:
346,287,104836,1,0,0:0:0:0:
360,308,104919,1,2,0:0:0:0:
367,332,105002,1,0,0:0:0:0:
306,374,105086,5,0,1:0:0:0:
288,348,105169,1,0,0:0:0:0:
280,319,105252,1,2,0:0:0:0:
282,289,105335,1,0,0:0:0:0:
294,263,105419,1,0,1:0:0:0:
311,232,105502,1,0,0:0:0:0:
338,210,105585,1,2,0:0:0:0:
371,197,105668,1,0,0:0:0:0:
431,145,105753,5,0,1:0:0:0:
391,150,105836,1,0,0:0:0:0:
355,134,105919,1,2,0:0:0:0:
332,102,106002,1,0,0:0:0:0:
332,59,106086,5,0,1:0:0:0:
295,31,106169,1,0,0:0:0:0:
251,26,106252,1,2,0:0:0:0:
210,43,106335,1,0,0:0:0:0:
181,114,106420,5,0,1:0:0:0:
187,163,106503,1,0,0:0:0:0:
167,207,106586,1,2,0:0:0:0:
135,246,106669,1,0,0:0:0:0:
117,292,106753,1,0,1:0:0:0:
123,343,106836,1,0,0:0:0:0:
218,326,106919,5,2,0:0:0:0:
206,276,107003,1,0,0:0:0:0:
173,238,107086,1,0,1:0:0:0:
129,214,107169,1,0,0:0:0:0:
95,177,107253,1,2,0:0:0:0:
86,129,107336,1,0,0:0:0:0:
115,32,107419,6,0,L|177:42,1,50,8|0,0:0|0:0,0:0:0:0:
507,162,107753,5,0,1:0:0:0:
482,166,107836,1,0,0:0:0:0:
457,171,107919,1,0,0:0:0:0:
433,175,108002,1,0,3:0:0:0:
408,180,108086,1,0,3:0:0:0:
4,255,108253,5,0,1:0:0:0:
41,260,108336,1,0,0:0:0:0:
78,266,108419,1,0,3:0:0:0:
115,272,108502,1,0,3:0:0:0:
152,278,108586,1,0,3:0:0:0:
496,329,108753,5,0,0:0:0:0:
483,330,108836,1,0,0:0:0:0:
471,332,108919,1,0,0:0:0:0:
458,334,109002,1,0,0:0:0:0:
446,336,109086,6,0,B|441:360|441:360|354:381|304:304|418:292|307:144|179:162|178:285|228:342|315:277,1,450.000017166138,4|0,1:2|0:0,0:0:0:0:
437,228,109419,2,0,B|470:214|470:214|485:143,1,100,8|0,0:0|0:0,0:0:0:0:
286,41,109586,5,0,1:0:0:0:
250,52,109669,1,0,3:0:0:0:
262,28,109753,1,0,3:0:0:0:
273,64,109836,1,0,3:0:0:0:
213,126,109919,2,0,B|180:112|180:112|165:41,1,100,8|0,0:0|0:0,0:0:0:0:
337,177,110086,6,0,P|387:174|424:139,1,75.0000028610231,0|0,1:0|0:0,0:0:0:0:
356,104,110253,1,0,3:0:0:0:
358,89,110336,1,0,3:0:0:0:
361,74,110419,6,0,B|401:51|401:51|450:74,1,75.0000028610231,0|0,1:0|0:0,0:0:0:0:
253,191,110586,2,0,B|213:214|213:214|164:191,1,75.0000028610231,0|0,1:0|0:0,0:0:0:0:
24,109,110753,1,8,0:0:0:0:
134,256,110919,5,0,1:0:0:0:
123,292,111002,1,0,3:0:0:0:
147,280,111086,1,0,3:0:0:0:
111,269,111169,1,0,3:0:0:0:
92,358,111253,2,0,B|124:371|124:371|201:336,1,100,8|0,0:0|0:0,0:0:0:0:
201,188,111419,6,0,P|145:159|105:166,1,75.0000028610231,0|0,1:0|0:0,0:0:0:0:
60,187,111586,1,0,0:0:0:0:
64,201,111669,1,0,0:0:0:0:
20,284,111753,6,0,B|41:283|41:283|47:304|47:304|57:285|57:285|80:291|80:291|90:271|90:271|111:279|111:279|122:257|122:257|145:266|145:266|140:240|140:240|159:231|159:231|149:210|149:210|168:196|168:196|156:177|156:177|174:163|174:163|164:143|164:143|182:130|182:130|171:110|171:110|189:98|189:98|180:78|180:78|201:86|201:86|213:67|213:67|233:75|233:75|244:56|244:56|263:65|263:65|273:46|273:46|279:65|279:65|298:61,1,600,0|0,1:0|0:0,0:0:0:0:
332,205,112086,2,0,P|391:209|435:253,1,100,8|0,0:0|0:0,0:0:0:0:
469,44,112253,5,0,1:0:0:0:
431,52,112336,1,0,3:0:0:0:
405,23,112419,1,0,3:0:0:0:
442,16,112503,1,0,3:0:0:0:
458,127,112586,2,0,P|399:123|355:79,1,100,8|0,0:0|0:0,0:0:0:0:
258,218,112753,6,0,L|344:202,1,75.0000028610231,0|0,1:0|0:0,0:0:0:0:
351,279,112919,2,0,B|313:312|313:312|253:290,1,100,8|0,0:0|0:0,0:0:0:0:
406,225,113086,6,0,P|429:282|412:319,1,75.0000028610231,0|0,1:0|0:0,0:0:0:0:
266,294,113253,2,0,P|257:354|224:378,1,75.0000028610231,0|0,1:0|0:0,0:0:0:0:
90,259,113419,1,8,0:0:0:0:
207,93,113587,5,0,1:0:0:0:
179,120,113670,1,0,3:0:0:0:
188,158,113753,1,0,3:0:0:0:
215,132,113836,1,0,3:0:0:0:
273,46,113919,2,0,P|220:15|165:26,1,100,8|0,0:0|0:0,0:0:0:0:
102,135,114086,5,0,0:0:0:0:
105,147,114169,1,0,0:0:0:0:
108,158,114252,1,0,1:0:0:0:
111,170,114335,1,0,0:0:0:0:
114,182,114419,6,0,B|171:199|218:156|197:150|246:113|312:131|312:131|421:160|421:160|454:169|467:198|458:196|475:231|509:240,1,450.000017166138,4|0,1:2|0:0,0:0:0:0:
390,230,114753,2,0,L|287:203,1,100,8|0,0:0|0:0,0:0:0:0:
414,58,114919,5,0,1:0:0:0:
450,48,115003,1,0,3:0:0:0:
440,84,115086,1,0,3:0:0:0:
435,65,115169,1,0,3:0:0:0:
492,141,115253,2,0,L|512:264,1,100,8|0,0:0|0:0,0:0:0:0:
390,230,115419,6,0,P|388:270|349:313,1,75.0000028610231,0|0,1:0|0:0,0:0:0:0:
321,242,115586,1,0,3:0:0:0:
306,247,115669,1,0,3:0:0:0:
291,252,115753,6,0,L|280:171,1,75.0000028610231,0|0,1:0|0:0,0:0:0:0:
454,302,115919,2,0,L|443:383,1,75.0000028610231,0|0,1:0|0:0,0:0:0:0:
492,141,116086,1,8,0:0:0:0:
269,106,116253,5,0,1:0:0:0:
279,70,116337,1,0,3:0:0:0:
243,80,116420,1,0,3:0:0:0:
262,85,116503,1,0,3:0:0:0:
182,31,116586,2,0,B|154:34|154:34|151:37|151:37|75:45,1,100,8|0,0:0|0:0,0:0:0:0:
199,137,116753,6,0,P|166:182|178:224,1,75.0000028610231,0|0,1:0|0:0,0:0:0:0:
217,261,116919,1,0,0:0:0:0:
232,260,117003,1,0,0:0:0:0:
265,185,117086,6,0,B|293:180|293:180|285:197|285:197|312:196|312:196|300:214|300:214|324:219|324:219|312:237|312:237|335:247|335:247|318:261|318:261|338:276|338:276|318:289|318:289|328:310|328:310|308:316|308:316|310:335|310:335|291:338|291:338|286:356|286:356|269:353|269:353|260:369|260:369|245:364|245:364|231:376|231:376|214:370|214:370|199:376|199:376|187:368|187:368|170:370|170:370|160:360|160:360|145:361|145:361|137:350|137:350|123:348|123:348|116:338|116:338|107:332|107:332|102:324|102:324|94:317|94:317|91:308|91:308|84:293|64:295,1,600,0|0,1:0|0:0,0:0:0:0:
131,105,117419,2,0,P|156:168|171:216,1,100,8|0,0:0|0:0,0:0:0:0:
59,84,117586,5,0,1:0:0:0:
65,46,117669,1,0,3:0:0:0:
95,23,117753,1,0,3:0:0:0:
131,31,117836,1,0,3:0:0:0:
202,81,117919,2,0,P|217:128|236:174,1,100,8|0,0:0|0:0,0:0:0:0:
80,297,118086,6,0,B|72:257|72:257|107:212,1,75.0000028610231,0|0,1:0|0:0,0:0:0:0:
149,330,118253,2,0,L|174:217,1,100,8|0,0:0|0:0,0:0:0:0:
202,81,118419,5,0,1:0:0:0:
277,58,118502,1,0,3:0:0:0:
231,88,118586,5,0,3:0:0:0:
298,81,118669,1,0,3:0:0:0:
255,104,118753,5,0,3:0:0:0:
305,109,118836,1,0,3:0:0:0:
275,125,118919,5,0,3:0:0:0:
299,138,119002,1,0,3:0:0:0:
275,155,119086,5,0,3:0:0:0:
288,166,119169,1,0,3:0:0:0:
284,183,119253,5,0,3:0:0:0:
307,188,119336,1,0,3:0:0:0:
300,208,119419,5,0,3:0:0:0:
333,201,119502,1,0,3:0:0:0:
326,222,119586,5,0,3:0:0:0:
362,205,119669,1,0,3:0:0:0:
372,131,119753,6,0,B|444:94|448:23|448:23|432:90|484:141|484:141|523:184|490:253|490:253|411:228,1,450.000017166138,4|0,1:2|0:0,0:0:0:0:
464,349,120086,2,0,B|496:333|496:333|416:306,1,100,8|0,0:0|0:0,0:0:0:0:
207,349,120253,5,0,1:0:0:0:
243,360,120336,1,0,3:0:0:0:
220,372,120420,1,0,3:0:0:0:
231,336,120503,1,0,3:0:0:0:
195,247,120586,2,0,B|175:276|175:276|258:260,1,100,8|0,0:0|0:0,0:0:0:0:
384,225,120753,6,0,P|354:198|301:202,1,75.0000028610231,0|0,1:0|0:0,0:0:0:0:
327,266,120919,1,0,3:0:0:0:
330,280,121003,1,0,3:0:0:0:
334,294,121086,6,0,L|411:312,1,75.0000028610231,0|0,1:0|0:0,0:0:0:0:
273,133,121253,2,0,L|196:115,1,75.0000028610231,0|0,1:0|0:0,0:0:0:0:
42,241,121419,1,8,0:0:0:0:
117,42,121586,5,0,1:0:0:0:
126,79,121669,1,0,3:0:0:0:
104,65,121753,1,0,3:0:0:0:
141,57,121836,1,0,3:0:0:0:
64,129,121919,2,0,P|30:81|38:29,1,100,8|0,0:0|0:0,0:0:0:0:
199,115,122086,6,0,B|209:156|209:156|179:204,1,75.0000028610231,0|0,1:0|0:0,0:0:0:0:
129,224,122253,1,0,0:0:0:0:
114,221,122336,1,0,0:0:0:0:
67,303,122419,6,0,B|82:302|82:302|95:305|95:305|106:296|106:296|119:303|119:303|130:294|130:294|143:301|143:301|154:292|154:292|167:303|167:303|177:286|177:286|191:301|191:301|201:284|201:284|215:299|215:299|225:282|225:282|239:300|239:300|249:276|249:276|263:298|263:298|273:273|273:273|287:296|287:296|297:271|297:271|310:290|310:290|321:273|321:273|334:288|334:288|345:271|345:271|358:286|358:286|369:269|369:269|382:280|382:280|393:271|393:271|406:278|406:278|417:269|417:269|429:276|429:276|441:267|441:267|453:270|453:270|481:267,1,600,0|0,1:0|0:0,0:0:0:0:
319,180,122753,2,0,P|290:136|317:56,1,100,8|0,0:0|0:0,0:0:0:0:
454,269,122919,5,0,1:0:0:0:
464,306,123002,1,0,3:0:0:0:
440,334,123085,1,0,3:0:0:0:
428,297,123169,1,0,3:0:0:0:
403,201,123253,2,0,L|523:185,1,100,8|0,0:0|0:0,0:0:0:0:
362,116,123419,6,0,L|276:84,1,75.0000028610231,0|0,1:0|0:0,0:0:0:0:
339,31,123586,2,0,B|387:22|387:22|428:53,1,100,8|0,0:0|0:0,0:0:0:0:
319,180,123753,6,0,P|275:180|248:199,1,75.0000028610231,0|0,1:0|0:0,0:0:0:0:
196,22,123919,2,0,P|157:43|144:73,1,75.0000028610231,0|0,1:0|0:0,0:0:0:0:
11,177,124086,1,8,0:0:0:0:
107,328,124253,6,0,L|122:240,1,50,0|0,3:0|3:0,0:0:0:0:
144,69,124419,5,0,3:0:0:0:
166,72,124503,1,0,3:0:0:0:
284,208,124669,5,0,3:0:0:0:
306,211,124753,1,0,3:0:0:0:
403,73,124919,5,0,3:0:0:0:
425,76,125003,1,0,3:0:0:0:
477,127,125086,6,0,B|491:102|491:102|519:211|397:307|269:283|269:283|320:235|301:176,1,450.000017166138,4|0,1:2|0:0,0:0:0:0:
147,187,125419,2,0,P|156:202|246:187,1,100,8|0,0:0|0:0,0:0:0:0:
173,28,125586,5,0,1:0:0:0:
163,64,125670,1,0,3:0:0:0:
199,54,125753,1,0,3:0:0:0:
180,49,125836,1,0,3:0:0:0:
104,118,125919,2,0,P|95:133|5:118,1,100,8|0,0:0|0:0,0:0:0:0:
147,187,126086,6,0,B|163:166|163:166|235:179,1,75.0000028610231,0|0,1:0|0:0,0:0:0:0:
279,212,126253,1,0,3:0:0:0:
289,201,126336,1,0,3:0:0:0:
300,190,126419,6,0,B|289:136|289:136|259:119,1,75.0000028610231,0|0,1:0|0:0,0:0:0:0:
124,265,126586,2,0,B|135:319|135:319|165:336,1,75.0000028610231,0|0,1:0|0:0,0:0:0:0:
20,139,126753,1,8,0:0:0:0:
147,187,126919,5,0,1:0:0:0:
173,160,127003,1,0,3:0:0:0:
182,196,127086,1,0,3:0:0:0:
168,182,127169,1,0,3:0:0:0:
251,172,127253,2,0,P|253:224|211:260,1,100,8|0,0:0|0:0,0:0:0:0:
67,353,127419,6,0,B|35:331|35:331|-16:342,1,75.0000028610231,0|0,1:0|0:0,0:0:0:0:
131,381,127586,1,0,0:0:0:0:
145,380,127669,1,0,0:0:0:0:
194,322,127753,6,0,B|207:318|207:318|207:315|207:315|218:312|218:312|216:307|216:307|226:303|226:303|222:295|222:295|230:290|230:290|223:282|223:282|230:280|230:280|218:269|218:269|225:267|225:267|208:260|208:260|217:259|217:259|196:254|196:254|206:251|206:251|184:250|184:250|194:248|194:248|170:247|170:247|182:245|182:245|158:242|158:242|170:243|170:243|146:236|146:236|158:238|158:238|136:227|136:227|148:232|148:232|127:217|127:217|140:223|140:223|122:205|122:205|133:210|133:210|119:191|119:191|131:198|131:198|120:177|120:177|132:186|132:186|123:165|123:165|135:174|135:174|131:154|131:154|140:164|140:164|141:143|141:143|150:154|150:154|152:136|152:136|160:148|160:148|165:132|165:132|173:145|173:145|178:132|178:132|184:145|184:145|192:135|192:135|197:148|197:148|204:141|204:141|208:155|208:155|215:150|215:150|217:164|217:164|222:161|222:161|223:174|223:174|227:173|227:173|226:187|226:187|222:198,1,800,0|0,1:0|0:0,0:0:0:0:
194,322,128253,2,0,P|225:363|281:343,2,100,0|0|0,0:0|0:0|0:0,0:0:0:0:
235,249,129086,5,0,0:0:0:0:
235,249,129253,2,0,L|346:234,1,100,0|0,0:0|0:0,0:0:0:0:
377,164,129753,5,0,0:0:0:0:
270,150,129919,1,0,0:0:0:0:
235,249,130086,2,0,L|346:234,1,100,0|0,0:0|0:0,0:0:0:0:
151,116,130419,5,4,1:2:0:0:
151,116,130586,1,0,0:0:0:0:
7,72,130753,1,0,3:0:0:0:
7,72,130919,6,0,L|45:66,1,25,0|0,0:0|0:0,0:0:0:0:
43,66,131086,2,0,L|81:60,1,25,0|0,3:0|0:0,0:0:0:0:
80,59,131253,1,0,3:0:0:0:
87,184,131586,5,0,3:0:0:0:
114,335,131753,2,0,L|97:397,2,50,0|0|0,0:0|0:0|3:0,0:0:0:0:
0,271,132253,6,0,L|33:276,1,25,0|0,0:0|0:0,0:0:0:0:
38,277,132419,2,0,L|71:282,1,25,0|0,3:0|0:0,0:0:0:0:
130,255,132586,1,0,3:0:0:0:
203,136,132753,2,0,L|213:205,1,50,0|0,0:0|3:0,0:0:0:0:
226,286,133086,5,0,0:0:0:0:
226,286,133253,1,0,0:0:0:0:
376,321,133419,1,0,3:0:0:0:
376,321,133586,6,0,L|366:278,1,25,0|0,0:0|0:0,0:0:0:0:
367,284,133753,2,0,L|357:241,1,25,0|0,3:0|0:0,0:0:0:0:
358,249,133919,1,0,3:0:0:0:
459,161,134253,5,0,0:0:0:0:
336,177,134419,2,0,L|266:187,1,50,0|0,3:0|0:0,0:0:0:0:
360,101,134753,1,0,3:0:0:0:
335,104,134836,1,0,0:0:0:0:
310,108,134919,1,0,3:0:0:0:
435,259,135253,5,0,0:0:0:0:
435,259,135419,2,0,L|479:249,1,25,2|0,3:2|0:0,0:0:0:0:
473,251,135586,1,0,0:0:0:0:
386,321,135753,5,0,0:0:0:0:
386,321,135919,1,0,0:0:0:0:
228,287,136086,1,0,3:0:0:0:
228,287,136253,6,0,L|194:296,1,25,0|0,0:0|0:0,0:0:0:0:
192,298,136419,2,0,L|158:307,1,25,0|0,3:0|0:0,0:0:0:0:
157,307,136586,1,0,3:0:0:0:
247,206,136753,6,0,P|248:175|230:154,1,50,0|0,0:0|0:0,0:0:0:0:
89,260,137086,1,0,3:0:0:0:
89,260,137253,2,0,P|83:298|80:328,1,50,0|0,0:0|3:0,0:0:0:0:
26,168,137586,6,0,L|68:178,1,25,0|0,0:0|0:0,0:0:0:0:
62,177,137753,2,0,L|104:187,1,25,0|0,3:0|0:0,0:0:0:0:
155,221,137919,1,0,3:0:0:0:
222,351,138086,2,0,L|291:338,1,50,0|0,0:0|0:0,0:0:0:0:
384,318,138419,5,0,0:0:0:0:
384,318,138586,1,0,0:0:0:0:
440,168,138753,1,0,3:0:0:0:
440,168,138919,6,0,L|404:159,1,25,0|0,0:0|0:0,0:0:0:0:
404,158,139086,2,0,L|368:149,1,25,0|0,3:0|0:0,0:0:0:0:
321,195,139253,1,0,3:0:0:0:
240,77,139419,1,0,0:0:0:0:
240,77,139586,6,0,P|193:115|142:98,2,100,0|0|0,3:0|0:0|3:0,0:0:0:0:
178,40,140419,2,0,L|183:12,3,25,0|0|0|0,0:0|0:0|3:0|0:0,0:0:0:0:
138,108,140753,2,0,L|152:173,1,50,2|0,3:2|0:0,0:0:0:0:
175,243,141086,6,0,B|89:317|149:448|292:408|293:299|225:243|225:243|99:147|130:-66|420:-44|424:137|424:137|367:101|307:116|307:116|299:55|221:19,1,1150,4|0,0:0|0:0,0:0:0:0:
372,204,145086,6,0,P|331:234|376:212,1,150,2|0,0:0|0:0,0:0:0:0:
435,332,145753,2,0,P|467:344|431:344,1,100,2|0,0:0|0:0,0:0:0:0:
430,217,146253,5,2,0:0:0:0:
430,217,146336,1,2,0:0:0:0:
430,217,146419,2,0,B|335:263|331:354|331:354|347:262|255:198,1,350,2|0,0:0|0:0,0:0:0:0:
155,317,147753,6,0,B|86:333|86:333|33:301|72:249,1,150,2|0,0:0|0:0,0:0:0:0:
43,191,148419,2,0,B|112:175|112:175|165:207|126:259,1,150,2|0,0:0|0:0,0:0:0:0:
79,89,149086,6,0,B|144:45|240:89|234:174|234:174|227:230|283:255,1,300,2|0,0:0|0:0,0:0:0:0:
311,181,150253,5,2,0:0:0:0:
311,181,150336,1,2,0:0:0:0:
311,181,150419,1,4,0:0:0:0:
256,277,150586,5,2,0:0:0:0:
256,362,150753,1,2,0:0:0:0:
256,277,150919,1,2,0:0:0:0:
256,192,151252,5,2,0:0:0:0:
256,107,151419,1,2,0:0:0:0:
256,22,151586,1,2,0:0:0:0:
