osu file format v14

[General]
AudioFilename: audio.mp3
AudioLeadIn: 0
PreviewTime: 108110
Countdown: 0
SampleSet: Soft
StackLeniency: 0.7
Mode: 3
LetterboxInBreaks: 0
SpecialStyle: 0
WidescreenStoryboard: 1

[Editor]
Bookmarks: 22777,44110,65443,86777,129443
DistanceSpacing: 1
BeatDivisor: 2
GridSize: 4
TimelineZoom: 2.399998

[Metadata]
Title:Stasis
TitleUnicode:Stasis
Artist:Maozon
ArtistUnicode:Maozon
Creator:Ryu Sei
Version:Standard
Source:Lanota
Tags:
BeatmapID:1949553
BeatmapSetID:933780

[Difficulty]
HPDrainRate:8
CircleSize:4
OverallDifficulty:8
ApproachRate:5
SliderMultiplier:1.4
SliderTickRate:1

[Events]
//Background and Video events
0,0,"summeru.png",0,0
//Break Periods
2,66977,69243
2,72310,74910
//Storyboard Layer 0 (Background)
//Storyboard Layer 1 (Fail)
//Storyboard Layer 2 (Pass)
//Storyboard Layer 3 (Foreground)
//Storyboard Layer 4 (Overlay)
//Storyboard Sound Samples

[TimingPoints]
1444,333.333333333333,4,2,1,53,1,0
22777,-100,4,2,1,53,0,0
23110,-133.333333333333,4,2,1,53,0,0
25443,-52.6315789473684,4,2,1,53,0,0
25464,-1000,4,2,1,53,0,0
25485,-52.6315789473684,4,2,1,53,0,0
25506,-1000,4,2,1,53,0,0
25527,-52.6315789473684,4,2,1,53,0,0
25548,-1000,4,2,1,53,0,0
25568,-52.6315789473684,4,2,1,53,0,0
25589,-1000,4,2,1,53,0,0
25610,-52.6315789473684,4,2,1,53,0,0
25631,-1000,4,2,1,53,0,0
25652,-52.6315789473684,4,2,1,53,0,0
25673,-1000,4,2,1,53,0,0
25693,-52.6315789473684,4,2,1,53,0,0
25714,-1000,4,2,1,53,0,0
25735,-52.6315789473684,4,2,1,53,0,0
25756,-1000,4,2,1,53,0,0
25777,-133.333333333333,4,2,1,53,0,0
28110,-100,4,2,1,53,0,0
28443,-133.333333333333,4,2,1,53,0,0
30777,-52.6315789473684,4,2,1,53,0,0
30798,-1000,4,2,1,53,0,0
30818,-52.6315789473684,4,2,1,53,0,0
30839,-1000,4,2,1,53,0,0
30860,-52.6315789473684,4,2,1,53,0,0
30881,-1000,4,2,1,53,0,0
30902,-52.6315789473684,4,2,1,53,0,0
30923,-1000,4,2,1,53,0,0
30943,-52.6315789473684,4,2,1,53,0,0
30964,-1000,4,2,1,53,0,0
30985,-52.6315789473684,4,2,1,53,0,0
31006,-1000,4,2,1,53,0,0
31027,-52.6315789473684,4,2,1,53,0,0
31048,-1000,4,2,1,53,0,0
31068,-52.6315789473684,4,2,1,53,0,0
31089,-1000,4,2,1,53,0,0
31110,-133.333333333333,4,2,1,53,0,0
32110,-100,4,2,1,53,0,0
33443,-100,4,2,1,53,0,0
33776,-133.333333333333,4,2,1,53,0,0
36109,-52.6315789473684,4,2,1,53,0,0
36130,-1000,4,2,1,53,0,0
36151,-52.6315789473684,4,2,1,53,0,0
36172,-1000,4,2,1,53,0,0
36193,-52.6315789473684,4,2,1,53,0,0
36214,-1000,4,2,1,53,0,0
36234,-52.6315789473684,4,2,1,53,0,0
36255,-1000,4,2,1,53,0,0
36276,-52.6315789473684,4,2,1,53,0,0
36297,-1000,4,2,1,53,0,0
36318,-52.6315789473684,4,2,1,53,0,0
36339,-1000,4,2,1,53,0,0
36359,-52.6315789473684,4,2,1,53,0,0
36380,-1000,4,2,1,53,0,0
36401,-52.6315789473684,4,2,1,53,0,0
36422,-1000,4,2,1,53,0,0
36443,-133.333333333333,4,2,1,53,0,0
38776,-100,4,2,1,53,0,0
39109,-133.333333333333,4,2,1,53,0,0
41443,-52.6315789473684,4,2,1,53,0,0
41464,-1000,4,2,1,53,0,0
41484,-52.6315789473684,4,2,1,53,0,0
41505,-1000,4,2,1,53,0,0
41526,-52.6315789473684,4,2,1,53,0,0
41547,-1000,4,2,1,53,0,0
41568,-52.6315789473684,4,2,1,53,0,0
41589,-1000,4,2,1,53,0,0
41609,-52.6315789473684,4,2,1,53,0,0
41630,-1000,4,2,1,53,0,0
41651,-52.6315789473684,4,2,1,53,0,0
41672,-1000,4,2,1,53,0,0
41693,-52.6315789473684,4,2,1,53,0,0
41714,-1000,4,2,1,53,0,0
41734,-52.6315789473684,4,2,1,53,0,0
41755,-1000,4,2,1,53,0,0
41776,-133.333333333333,4,2,1,53,0,0
42777,-100,4,2,1,53,0,0
49277,-1000,4,2,1,53,0,0
49298,-100,4,2,1,53,0,0
51943,-1000,4,2,1,53,0,0
51964,-100,4,2,1,53,0,0
65443,-200,4,2,1,53,0,0
70777,-100,4,2,1,53,0,0
81110,-10,4,2,1,53,0,0
81131,-100,4,2,1,53,0,0
108110,-100,4,2,1,53,0,1
110777,-52.6315789473684,4,2,1,53,0,1
110798,-1000,4,2,1,53,0,1
110818,-52.6315789473684,4,2,1,53,0,1
110839,-1000,4,2,1,53,0,1
110860,-52.6315789473684,4,2,1,53,0,1
110881,-1000,4,2,1,53,0,1
110902,-52.6315789473684,4,2,1,53,0,1
110923,-1000,4,2,1,53,0,1
110943,-52.6315789473684,4,2,1,53,0,1
110964,-1000,4,2,1,53,0,1
110985,-52.6315789473684,4,2,1,53,0,1
111006,-1000,4,2,1,53,0,1
111027,-52.6315789473684,4,2,1,53,0,1
111048,-1000,4,2,1,53,0,1
111068,-52.6315789473684,4,2,1,53,0,1
111089,-1000,4,2,1,53,0,1
111110,-100,4,2,1,53,0,1
116110,-52.6315789473684,4,2,1,53,0,1
116131,-1000,4,2,1,53,0,1
116151,-52.6315789473684,4,2,1,53,0,1
116172,-1000,4,2,1,53,0,1
116193,-52.6315789473684,4,2,1,53,0,1
116214,-1000,4,2,1,53,0,1
116235,-52.6315789473684,4,2,1,53,0,1
116256,-1000,4,2,1,53,0,1
116276,-52.6315789473684,4,2,1,53,0,1
116297,-1000,4,2,1,53,0,1
116318,-52.6315789473684,4,2,1,53,0,1
116339,-1000,4,2,1,53,0,1
116360,-52.6315789473684,4,2,1,53,0,1
116381,-1000,4,2,1,53,0,1
116401,-52.6315789473684,4,2,1,53,0,1
116422,-1000,4,2,1,53,0,1
116443,-100,4,2,1,53,0,1
118776,-100,4,2,1,53,0,1
121443,-52.6315789473684,4,2,1,53,0,1
121464,-1000,4,2,1,53,0,1
121484,-52.6315789473684,4,2,1,53,0,1
121505,-1000,4,2,1,53,0,1
121526,-52.6315789473684,4,2,1,53,0,1
121547,-1000,4,2,1,53,0,1
121568,-52.6315789473684,4,2,1,53,0,1
121589,-1000,4,2,1,53,0,1
121609,-52.6315789473684,4,2,1,53,0,1
121630,-1000,4,2,1,53,0,1
121651,-52.6315789473684,4,2,1,53,0,1
121672,-1000,4,2,1,53,0,1
121693,-52.6315789473684,4,2,1,53,0,1
121714,-1000,4,2,1,53,0,1
121734,-52.6315789473684,4,2,1,53,0,1
121755,-1000,4,2,1,53,0,1
121776,-100,4,2,1,53,0,1
123485,-1000,4,2,1,53,0,1
123527,-100,4,2,1,53,0,1
123735,-1000,4,2,1,53,0,1
123777,-100,4,2,1,53,0,1
123985,-1000,4,2,1,53,0,1
124027,-100,4,2,1,53,0,1
124110,-100,4,2,1,53,0,1
126776,-52.6315789473684,4,2,1,53,0,1
126797,-1000,4,2,1,53,0,1
126817,-52.6315789473684,4,2,1,53,0,1
126838,-1000,4,2,1,53,0,1
126859,-52.6315789473684,4,2,1,53,0,1
126880,-1000,4,2,1,53,0,1
126901,-52.6315789473684,4,2,1,53,0,1
126922,-1000,4,2,1,53,0,1
126942,-52.6315789473684,4,2,1,53,0,1
126963,-1000,4,2,1,53,0,1
126984,-52.6315789473684,4,2,1,53,0,1
127005,-1000,4,2,1,53,0,1
127026,-52.6315789473684,4,2,1,53,0,1
127047,-1000,4,2,1,53,0,1
127067,-52.6315789473684,4,2,1,53,0,1
127088,-1000,4,2,1,53,0,1
127109,-100,4,2,1,53,0,1
129443,-100,4,2,1,53,0,0

[HitObjects]
64,192,1444,5,0,0:0:0:0:
192,192,1610,1,0,0:0:0:0:
320,192,1777,1,0,0:0:0:0:
64,192,1943,1,0,0:0:0:0:
448,192,2110,1,0,0:0:0:0:
320,192,2277,1,0,0:0:0:0:
192,192,2443,1,0,0:0:0:0:
320,192,2610,1,0,0:0:0:0:
64,192,2777,1,0,0:0:0:0:
192,192,2943,1,0,0:0:0:0:
320,192,3110,1,0,0:0:0:0:
64,192,3277,1,0,0:0:0:0:
448,192,3443,1,0,0:0:0:0:
320,192,3610,1,0,0:0:0:0:
448,192,3777,1,0,0:0:0:0:
192,192,3943,1,0,0:0:0:0:
64,192,4110,1,0,0:0:0:0:
192,192,4277,1,0,0:0:0:0:
320,192,4443,1,0,0:0:0:0:
64,192,4610,1,0,0:0:0:0:
448,192,4777,1,0,0:0:0:0:
320,192,4943,1,0,0:0:0:0:
192,192,5110,1,0,0:0:0:0:
320,192,5277,1,0,0:0:0:0:
64,192,5443,1,0,0:0:0:0:
192,192,5610,1,0,0:0:0:0:
320,192,5777,1,0,0:0:0:0:
64,192,5943,1,0,0:0:0:0:
448,192,6110,1,0,0:0:0:0:
320,192,6277,1,0,0:0:0:0:
448,192,6443,1,0,0:0:0:0:
192,192,6610,1,0,0:0:0:0:
448,192,6777,128,0,7110:0:0:0:0:
64,192,6777,128,0,7110:0:0:0:0:
320,192,7277,128,0,7777:0:0:0:0:
192,192,7277,128,0,7777:0:0:0:0:
192,192,8277,128,0,8443:0:0:0:0:
448,192,8277,128,0,8443:0:0:0:0:
64,192,8610,128,0,8943:0:0:0:0:
320,192,8610,128,0,8943:0:0:0:0:
192,192,8943,128,0,9277:0:0:0:0:
448,192,8943,128,0,9277:0:0:0:0:
64,192,9443,128,0,9777:0:0:0:0:
192,192,9443,128,0,9777:0:0:0:0:
448,192,9943,128,0,10443:0:0:0:0:
320,192,9943,128,0,10443:0:0:0:0:
64,192,10777,128,0,12110:0:0:0:0:
448,192,10777,128,0,11443:0:0:0:0:
448,192,12110,1,0,0:0:0:0:
320,192,12110,1,0,0:0:0:0:
64,192,12443,1,0,0:0:0:0:
192,192,12443,1,0,0:0:0:0:
192,192,12777,1,0,0:0:0:0:
320,192,12777,1,0,0:0:0:0:
64,192,13110,1,0,0:0:0:0:
448,192,13110,1,0,0:0:0:0:
64,192,13443,1,0,0:0:0:0:
192,192,13443,1,0,0:0:0:0:
448,192,13777,1,0,0:0:0:0:
320,192,13777,1,0,0:0:0:0:
320,192,14110,1,0,0:0:0:0:
192,192,14110,1,0,0:0:0:0:
448,192,14443,1,0,0:0:0:0:
64,192,14443,1,0,0:0:0:0:
320,192,14777,1,0,0:0:0:0:
448,192,14777,1,0,0:0:0:0:
192,192,15110,1,0,0:0:0:0:
64,192,15110,1,0,0:0:0:0:
320,192,15443,1,0,0:0:0:0:
192,192,15443,1,0,0:0:0:0:
448,192,15777,1,0,0:0:0:0:
64,192,15777,1,0,0:0:0:0:
192,192,16110,1,0,0:0:0:0:
64,192,16110,1,0,0:0:0:0:
320,192,16443,1,0,0:0:0:0:
448,192,16443,1,0,0:0:0:0:
192,192,16777,1,0,0:0:0:0:
320,192,16777,1,0,0:0:0:0:
320,192,17110,1,0,0:0:0:0:
192,192,17110,1,0,0:0:0:0:
64,192,17110,1,0,0:0:0:0:
448,192,17110,1,0,0:0:0:0:
64,192,17443,1,0,0:0:0:0:
192,192,17443,1,0,0:0:0:0:
320,192,17610,1,0,0:0:0:0:
64,192,17777,1,0,0:0:0:0:
192,192,17777,1,0,0:0:0:0:
320,192,18110,1,0,0:0:0:0:
448,192,18110,1,0,0:0:0:0:
192,192,18277,1,0,0:0:0:0:
320,192,18443,1,0,0:0:0:0:
448,192,18443,1,0,0:0:0:0:
64,192,18777,1,0,0:0:0:0:
192,192,18777,1,0,0:0:0:0:
448,192,18943,1,0,0:0:0:0:
64,192,19110,1,0,0:0:0:0:
192,192,19110,1,0,0:0:0:0:
320,192,19443,1,0,0:0:0:0:
448,192,19443,1,0,0:0:0:0:
64,192,19610,1,0,0:0:0:0:
320,192,19777,1,0,0:0:0:0:
448,192,19777,1,0,0:0:0:0:
64,192,20110,1,0,0:0:0:0:
448,192,20110,1,0,0:0:0:0:
192,192,20277,1,0,0:0:0:0:
320,192,20443,1,0,0:0:0:0:
64,192,20443,1,0,0:0:0:0:
192,192,20610,1,0,0:0:0:0:
64,192,20777,1,0,0:0:0:0:
448,192,20777,1,0,0:0:0:0:
320,192,20943,1,0,0:0:0:0:
192,192,21110,1,0,0:0:0:0:
448,192,21110,1,0,0:0:0:0:
320,192,21277,1,0,0:0:0:0:
448,192,21443,1,0,0:0:0:0:
448,192,22777,128,0,23110:0:0:0:0:
320,192,22777,128,0,23110:0:0:0:0:
64,192,23110,1,0,0:0:0:0:
192,192,23110,1,0,0:0:0:0:
192,192,23777,1,0,0:0:0:0:
64,192,23777,1,0,0:0:0:0:
192,192,24110,1,0,0:0:0:0:
64,192,24110,1,0,0:0:0:0:
192,192,24610,1,0,0:0:0:0:
64,192,24610,1,0,0:0:0:0:
192,192,24943,1,0,0:0:0:0:
64,192,24943,1,0,0:0:0:0:
448,192,25110,1,0,0:0:0:0:
320,192,25110,128,0,25443:0:0:0:0:
64,192,25443,128,0,25777:0:0:0:0:
192,192,25443,128,0,25777:0:0:0:0:
448,192,25777,1,0,0:0:0:0:
320,192,25777,1,0,0:0:0:0:
320,192,26443,1,0,0:0:0:0:
448,192,26443,1,0,0:0:0:0:
320,192,26777,1,0,0:0:0:0:
448,192,26777,1,0,0:0:0:0:
320,192,27277,1,0,0:0:0:0:
448,192,27277,1,0,0:0:0:0:
320,192,27610,1,0,0:0:0:0:
448,192,27610,1,0,0:0:0:0:
64,192,27777,1,0,0:0:0:0:
192,192,27777,128,0,28110:0:0:0:0:
64,192,28110,128,0,28443:0:0:0:0:
448,192,28110,128,0,28443:0:0:0:0:
192,192,28443,1,0,0:0:0:0:
320,192,28443,1,0,0:0:0:0:
192,192,29110,1,0,0:0:0:0:
320,192,29110,1,0,0:0:0:0:
192,192,29443,1,0,0:0:0:0:
320,192,29443,1,0,0:0:0:0:
192,192,29943,1,0,0:0:0:0:
320,192,29943,1,0,0:0:0:0:
192,192,30277,1,0,0:0:0:0:
320,192,30277,1,0,0:0:0:0:
448,192,30443,128,0,30777:0:0:0:0:
64,192,30443,1,0,0:0:0:0:
192,192,30777,128,0,31110:0:0:0:0:
320,192,30777,128,0,31110:0:0:0:0:
64,192,31110,1,0,0:0:0:0:
448,192,31110,1,0,0:0:0:0:
64,192,31777,1,0,0:0:0:0:
448,192,31777,1,0,0:0:0:0:
320,192,32110,1,0,0:0:0:0:
64,192,32277,1,0,0:0:0:0:
448,192,32443,1,0,0:0:0:0:
192,192,32610,1,0,0:0:0:0:
64,192,32777,1,0,0:0:0:0:
320,192,32943,1,0,0:0:0:0:
192,192,33110,1,0,0:0:0:0:
448,192,33277,1,0,0:0:0:0:
64,192,33443,128,0,33777:0:0:0:0:
192,192,33443,128,0,33777:0:0:0:0:
448,192,33777,1,0,0:0:0:0:
320,192,33777,1,0,0:0:0:0:
192,192,34110,1,0,0:0:0:0:
64,192,34110,1,0,0:0:0:0:
320,192,34443,1,0,0:0:0:0:
448,192,34443,1,0,0:0:0:0:
320,192,34777,1,0,0:0:0:0:
448,192,34777,1,0,0:0:0:0:
320,192,35277,1,0,0:0:0:0:
448,192,35277,1,0,0:0:0:0:
192,192,35443,1,0,0:0:0:0:
64,192,35443,1,0,0:0:0:0:
320,192,35610,1,0,0:0:0:0:
448,192,35610,1,0,0:0:0:0:
320,192,35777,1,0,0:0:0:0:
192,192,35777,128,0,36110:0:0:0:0:
448,192,36110,128,0,36443:0:0:0:0:
320,192,36110,128,0,36443:0:0:0:0:
64,192,36443,1,0,0:0:0:0:
192,192,36443,1,0,0:0:0:0:
320,192,36777,1,0,0:0:0:0:
448,192,36777,1,0,0:0:0:0:
192,192,37110,1,0,0:0:0:0:
64,192,37110,1,0,0:0:0:0:
448,192,37443,1,0,0:0:0:0:
192,192,37443,1,0,0:0:0:0:
64,192,37443,1,0,0:0:0:0:
192,192,37943,1,0,0:0:0:0:
64,192,37943,1,0,0:0:0:0:
320,192,38110,1,0,0:0:0:0:
448,192,38110,1,0,0:0:0:0:
192,192,38360,1,0,0:0:0:0:
320,192,38360,1,0,0:0:0:0:
64,192,38610,1,0,0:0:0:0:
192,192,38610,1,0,0:0:0:0:
448,192,38777,128,0,39110:0:0:0:0:
64,192,38777,128,0,39110:0:0:0:0:
320,192,39110,1,0,0:0:0:0:
192,192,39110,1,0,0:0:0:0:
448,192,39443,1,0,0:0:0:0:
64,192,39443,1,0,0:0:0:0:
320,192,39777,1,0,0:0:0:0:
192,192,39777,1,0,0:0:0:0:
448,192,40110,1,0,0:0:0:0:
320,192,40110,1,0,0:0:0:0:
192,192,40110,1,0,0:0:0:0:
320,192,40610,1,0,0:0:0:0:
192,192,40610,1,0,0:0:0:0:
448,192,40777,1,0,0:0:0:0:
64,192,40777,1,0,0:0:0:0:
320,192,40943,1,0,0:0:0:0:
192,192,40943,1,0,0:0:0:0:
64,192,41110,128,0,41443:0:0:0:0:
448,192,41110,1,0,0:0:0:0:
320,192,41443,128,0,41777:0:0:0:0:
192,192,41443,128,0,41777:0:0:0:0:
448,192,41777,1,0,0:0:0:0:
64,192,41777,1,0,0:0:0:0:
320,192,42110,1,0,0:0:0:0:
192,192,42110,1,0,0:0:0:0:
448,192,42443,1,0,0:0:0:0:
64,192,42443,1,0,0:0:0:0:
192,192,42777,1,0,0:0:0:0:
320,192,42777,1,0,0:0:0:0:
448,192,43110,1,0,0:0:0:0:
192,192,43277,1,0,0:0:0:0:
64,192,43277,1,0,0:0:0:0:
192,192,43610,1,0,0:0:0:0:
320,192,43777,1,0,0:0:0:0:
448,192,43777,1,0,0:0:0:0:
192,192,44110,1,4,0:0:0:0:
448,192,44110,1,0,0:0:0:0:
320,192,44277,1,0,0:0:0:0:
192,192,44443,1,0,0:0:0:0:
64,192,44610,1,0,0:0:0:0:
448,192,44777,1,0,0:0:0:0:
320,192,44777,1,0,0:0:0:0:
64,192,44943,1,0,0:0:0:0:
192,192,45110,1,0,0:0:0:0:
320,192,45277,1,0,0:0:0:0:
448,192,45443,1,0,0:0:0:0:
64,192,45610,1,0,0:0:0:0:
320,192,45777,1,0,0:0:0:0:
448,192,45943,1,0,0:0:0:0:
192,192,46110,1,0,0:0:0:0:
64,192,46277,1,0,0:0:0:0:
320,192,46443,1,0,0:0:0:0:
448,192,46610,1,0,0:0:0:0:
320,192,46777,1,0,0:0:0:0:
64,192,46777,1,0,0:0:0:0:
192,192,46943,1,0,0:0:0:0:
320,192,47110,1,0,0:0:0:0:
192,192,47277,1,0,0:0:0:0:
64,192,47443,1,0,0:0:0:0:
448,192,47443,1,0,0:0:0:0:
192,192,47610,1,0,0:0:0:0:
320,192,47777,1,0,0:0:0:0:
448,192,47943,1,0,0:0:0:0:
64,192,48110,1,0,0:0:0:0:
320,192,48277,1,0,0:0:0:0:
192,192,48443,1,0,0:0:0:0:
64,192,48610,1,0,0:0:0:0:
448,192,48777,1,0,0:0:0:0:
320,192,48777,1,0,0:0:0:0:
64,192,48943,1,0,0:0:0:0:
192,192,49110,1,0,0:0:0:0:
448,192,49277,1,0,0:0:0:0:
320,192,49277,1,4,0:0:0:0:
448,192,49610,1,0,0:0:0:0:
192,192,49777,1,0,0:0:0:0:
64,192,49943,1,0,0:0:0:0:
320,192,50110,1,0,0:0:0:0:
448,192,50110,1,0,0:0:0:0:
64,192,50277,1,0,0:0:0:0:
192,192,50443,1,0,0:0:0:0:
448,192,50610,1,0,0:0:0:0:
192,192,50777,1,0,0:0:0:0:
64,192,50943,1,0,0:0:0:0:
320,192,51110,1,0,0:0:0:0:
192,192,51277,1,0,0:0:0:0:
64,192,51443,1,0,0:0:0:0:
320,192,51610,1,0,0:0:0:0:
448,192,51777,1,0,0:0:0:0:
64,192,51943,1,0,0:0:0:0:
320,192,51943,1,4,0:0:0:0:
448,192,52277,1,0,0:0:0:0:
192,192,52443,1,0,0:0:0:0:
64,192,52610,1,0,0:0:0:0:
192,192,52777,1,0,0:0:0:0:
320,192,52777,1,0,0:0:0:0:
448,192,52943,1,0,0:0:0:0:
192,192,53110,1,0,0:0:0:0:
320,192,53277,1,0,0:0:0:0:
64,192,53443,1,0,0:0:0:0:
320,192,53610,1,0,0:0:0:0:
192,192,53777,1,0,0:0:0:0:
64,192,53943,1,0,0:0:0:0:
448,192,54110,1,0,0:0:0:0:
320,192,54110,1,0,0:0:0:0:
64,192,54277,1,0,0:0:0:0:
320,192,54443,1,0,0:0:0:0:
320,192,54777,1,4,0:0:0:0:
64,192,54777,1,0,0:0:0:0:
192,192,54943,1,0,0:0:0:0:
320,192,55110,1,0,0:0:0:0:
448,192,55277,1,0,0:0:0:0:
64,192,55443,1,0,0:0:0:0:
192,192,55443,1,0,0:0:0:0:
448,192,55610,1,0,0:0:0:0:
320,192,55777,1,0,0:0:0:0:
192,192,55943,1,0,0:0:0:0:
320,192,56110,1,0,0:0:0:0:
448,192,56277,1,0,0:0:0:0:
192,192,56443,1,0,0:0:0:0:
64,192,56610,1,0,0:0:0:0:
320,192,56777,1,0,0:0:0:0:
448,192,56943,1,0,0:0:0:0:
192,192,57110,1,0,0:0:0:0:
64,192,57277,1,0,0:0:0:0:
192,192,57443,1,0,0:0:0:0:
448,192,57443,1,0,0:0:0:0:
320,192,57610,1,0,0:0:0:0:
192,192,57777,1,0,0:0:0:0:
320,192,57943,1,0,0:0:0:0:
448,192,58110,1,0,0:0:0:0:
64,192,58110,1,0,0:0:0:0:
320,192,58277,1,0,0:0:0:0:
192,192,58443,1,0,0:0:0:0:
64,192,58610,1,0,0:0:0:0:
448,192,58777,1,0,0:0:0:0:
192,192,58943,1,0,0:0:0:0:
320,192,59110,1,0,0:0:0:0:
448,192,59277,1,0,0:0:0:0:
64,192,59443,1,0,0:0:0:0:
192,192,59443,1,0,0:0:0:0:
448,192,59610,1,0,0:0:0:0:
320,192,59777,1,0,0:0:0:0:
64,192,59943,1,0,0:0:0:0:
192,192,59943,1,4,0:0:0:0:
64,192,60277,1,0,0:0:0:0:
320,192,60443,1,0,0:0:0:0:
448,192,60610,1,0,0:0:0:0:
192,192,60777,1,0,0:0:0:0:
64,192,60777,1,0,0:0:0:0:
448,192,60943,1,0,0:0:0:0:
320,192,61110,1,0,0:0:0:0:
64,192,61277,1,0,0:0:0:0:
192,192,61443,1,0,0:0:0:0:
448,192,61610,1,0,0:0:0:0:
192,192,61777,1,0,0:0:0:0:
320,192,61943,1,0,0:0:0:0:
448,192,62110,1,0,0:0:0:0:
192,192,62277,1,0,0:0:0:0:
64,192,62443,1,0,0:0:0:0:
448,192,62610,1,0,0:0:0:0:
192,192,62610,1,4,0:0:0:0:
64,192,62943,1,0,0:0:0:0:
320,192,63110,1,0,0:0:0:0:
448,192,63277,1,0,0:0:0:0:
320,192,63443,1,0,0:0:0:0:
64,192,63610,1,0,0:0:0:0:
320,192,63777,1,0,0:0:0:0:
192,192,63943,1,0,0:0:0:0:
192,192,64277,1,0,0:0:0:0:
320,192,64443,1,0,0:0:0:0:
448,192,64610,1,0,0:0:0:0:
64,192,64777,1,0,0:0:0:0:
448,192,64943,1,0,0:0:0:0:
192,192,65110,1,0,0:0:0:0:
448,192,65443,128,0,66777:0:0:0:0:
448,192,70443,5,4,0:0:0:0:
64,192,70443,1,0,0:0:0:0:
64,192,70777,1,4,0:0:0:0:
448,192,70777,1,0,0:0:0:0:
192,192,70777,128,0,72110:0:0:0:0:
64,192,76110,5,0,0:0:0:0:
192,192,76110,1,0,0:0:0:0:
320,192,76277,1,0,0:0:0:0:
448,192,76443,1,0,0:0:0:0:
64,192,76443,1,0,0:0:0:0:
192,192,76610,1,0,0:0:0:0:
448,192,76777,1,0,0:0:0:0:
320,192,76777,1,0,0:0:0:0:
192,192,76943,1,0,0:0:0:0:
448,192,77110,1,0,0:0:0:0:
64,192,77110,1,0,0:0:0:0:
320,192,77277,1,0,0:0:0:0:
64,192,77443,5,0,0:0:0:0:
192,192,77443,1,0,0:0:0:0:
320,192,77610,1,0,0:0:0:0:
448,192,77777,1,0,0:0:0:0:
64,192,77777,1,0,0:0:0:0:
192,192,77943,1,0,0:0:0:0:
448,192,78110,1,0,0:0:0:0:
320,192,78110,1,0,0:0:0:0:
192,192,78277,1,0,0:0:0:0:
448,192,78443,1,0,0:0:0:0:
64,192,78443,1,0,0:0:0:0:
320,192,78610,1,0,0:0:0:0:
64,192,78777,5,0,0:0:0:0:
192,192,78777,1,0,0:0:0:0:
320,192,78943,1,0,0:0:0:0:
64,192,79110,1,0,0:0:0:0:
448,192,79110,1,0,0:0:0:0:
192,192,79277,1,0,0:0:0:0:
320,192,79443,1,0,0:0:0:0:
448,192,79443,1,0,0:0:0:0:
192,192,79610,1,0,0:0:0:0:
64,192,79777,1,0,0:0:0:0:
448,192,79777,1,0,0:0:0:0:
320,192,79943,1,0,0:0:0:0:
64,192,80110,5,0,0:0:0:0:
192,192,80110,1,0,0:0:0:0:
320,192,80277,1,0,0:0:0:0:
448,192,80443,1,0,0:0:0:0:
64,192,80443,1,0,0:0:0:0:
192,192,80610,1,0,0:0:0:0:
448,192,80777,1,0,0:0:0:0:
320,192,80777,1,0,0:0:0:0:
192,192,80943,1,0,0:0:0:0:
448,192,81110,1,0,0:0:0:0:
64,192,81110,1,0,0:0:0:0:
320,192,81110,1,0,0:0:0:0:
192,192,81110,1,0,0:0:0:0:
320,192,81443,1,0,0:0:0:0:
448,192,81443,1,0,0:0:0:0:
192,192,81610,1,0,0:0:0:0:
320,192,81777,1,0,0:0:0:0:
448,192,81777,1,0,0:0:0:0:
192,192,81943,1,0,0:0:0:0:
192,192,82110,1,0,0:0:0:0:
64,192,82110,1,0,0:0:0:0:
320,192,82277,1,0,0:0:0:0:
192,192,82443,1,0,0:0:0:0:
64,192,82443,1,0,0:0:0:0:
320,192,82610,1,0,0:0:0:0:
320,192,82777,1,0,0:0:0:0:
448,192,82777,1,0,0:0:0:0:
64,192,82943,1,0,0:0:0:0:
320,192,83110,1,0,0:0:0:0:
448,192,83110,1,0,0:0:0:0:
64,192,83277,1,0,0:0:0:0:
192,192,83443,1,0,0:0:0:0:
64,192,83443,1,0,0:0:0:0:
448,192,83610,1,0,0:0:0:0:
192,192,83777,1,0,0:0:0:0:
64,192,83777,1,0,0:0:0:0:
448,192,83943,1,0,0:0:0:0:
448,192,84110,1,0,0:0:0:0:
320,192,84110,1,0,0:0:0:0:
64,192,84277,1,0,0:0:0:0:
192,192,84443,1,0,0:0:0:0:
64,192,84443,1,0,0:0:0:0:
448,192,84610,1,0,0:0:0:0:
448,192,84777,1,0,0:0:0:0:
320,192,84777,1,0,0:0:0:0:
64,192,84943,1,0,0:0:0:0:
192,192,85110,1,0,0:0:0:0:
64,192,85110,1,0,0:0:0:0:
448,192,85277,1,0,0:0:0:0:
320,192,85443,1,0,0:0:0:0:
192,192,85443,1,0,0:0:0:0:
320,192,86777,128,0,87110:0:0:0:0:
448,192,86777,128,0,87110:0:0:0:0:
64,192,87110,1,0,0:0:0:0:
320,192,87277,1,0,0:0:0:0:
64,192,87443,1,0,0:0:0:0:
320,192,87610,1,0,0:0:0:0:
64,192,87777,1,0,0:0:0:0:
320,192,87943,1,0,0:0:0:0:
64,192,88110,1,0,0:0:0:0:
320,192,88277,1,0,0:0:0:0:
64,192,88443,1,0,0:0:0:0:
320,192,88610,1,0,0:0:0:0:
64,192,88777,1,0,0:0:0:0:
320,192,88943,1,0,0:0:0:0:
64,192,89110,1,0,0:0:0:0:
320,192,89277,1,0,0:0:0:0:
64,192,89443,1,0,0:0:0:0:
320,192,89610,1,0,0:0:0:0:
64,192,89777,1,0,0:0:0:0:
320,192,89943,1,0,0:0:0:0:
64,192,90110,1,0,0:0:0:0:
320,192,90277,1,0,0:0:0:0:
64,192,90443,1,0,0:0:0:0:
320,192,90610,1,0,0:0:0:0:
64,192,90777,1,0,0:0:0:0:
320,192,90943,1,0,0:0:0:0:
64,192,91110,1,0,0:0:0:0:
320,192,91277,1,0,0:0:0:0:
64,192,91443,1,0,0:0:0:0:
320,192,91610,1,0,0:0:0:0:
64,192,91777,1,0,0:0:0:0:
320,192,91943,1,0,0:0:0:0:
448,192,91943,1,0,0:0:0:0:
64,192,92110,128,0,92443:0:0:0:0:
192,192,92110,128,0,92443:0:0:0:0:
448,192,92443,1,0,0:0:0:0:
192,192,92610,1,0,0:0:0:0:
448,192,92777,1,0,0:0:0:0:
192,192,92943,1,0,0:0:0:0:
448,192,93110,1,0,0:0:0:0:
192,192,93277,1,0,0:0:0:0:
448,192,93443,1,0,0:0:0:0:
192,192,93610,1,0,0:0:0:0:
448,192,93777,1,0,0:0:0:0:
192,192,93943,1,0,0:0:0:0:
448,192,94110,1,0,0:0:0:0:
192,192,94277,1,0,0:0:0:0:
448,192,94443,1,0,0:0:0:0:
192,192,94610,1,0,0:0:0:0:
448,192,94777,1,0,0:0:0:0:
192,192,94943,1,0,0:0:0:0:
448,192,95110,1,0,0:0:0:0:
192,192,95277,1,0,0:0:0:0:
448,192,95443,1,0,0:0:0:0:
192,192,95610,1,0,0:0:0:0:
448,192,95777,1,0,0:0:0:0:
192,192,95943,1,0,0:0:0:0:
320,192,96110,1,0,0:0:0:0:
448,192,96110,1,0,0:0:0:0:
192,192,96277,1,0,0:0:0:0:
448,192,96443,1,0,0:0:0:0:
64,192,96610,1,0,0:0:0:0:
320,192,96777,1,0,0:0:0:0:
64,192,96943,1,0,0:0:0:0:
448,192,97110,1,0,0:0:0:0:
192,192,97277,1,0,0:0:0:0:
320,192,97443,128,0,97777:0:0:0:0:
192,192,97443,128,0,97777:0:0:0:0:
448,192,97777,1,0,0:0:0:0:
64,192,97943,1,0,0:0:0:0:
448,192,98110,1,0,0:0:0:0:
64,192,98277,1,0,0:0:0:0:
448,192,98443,1,0,0:0:0:0:
64,192,98610,1,0,0:0:0:0:
448,192,98777,1,0,0:0:0:0:
64,192,98943,1,0,0:0:0:0:
448,192,99110,1,0,0:0:0:0:
64,192,99277,1,0,0:0:0:0:
448,192,99443,1,0,0:0:0:0:
64,192,99610,1,0,0:0:0:0:
448,192,99777,1,0,0:0:0:0:
64,192,99943,1,0,0:0:0:0:
448,192,100110,1,0,0:0:0:0:
64,192,100277,1,0,0:0:0:0:
448,192,100443,1,0,0:0:0:0:
64,192,100610,1,0,0:0:0:0:
448,192,100777,1,0,0:0:0:0:
64,192,100943,1,0,0:0:0:0:
448,192,101110,1,0,0:0:0:0:
64,192,101277,1,0,0:0:0:0:
448,192,101443,1,0,0:0:0:0:
64,192,101610,1,0,0:0:0:0:
448,192,101777,1,0,0:0:0:0:
64,192,101943,1,0,0:0:0:0:
448,192,102110,1,0,0:0:0:0:
64,192,102277,1,0,0:0:0:0:
448,192,102443,1,0,0:0:0:0:
64,192,102610,1,0,0:0:0:0:
192,192,102610,1,0,0:0:0:0:
320,192,102777,128,0,103110:0:0:0:0:
448,192,102777,128,0,103110:0:0:0:0:
64,192,103110,1,0,0:0:0:0:
448,192,103277,1,0,0:0:0:0:
64,192,103443,1,0,0:0:0:0:
448,192,103610,1,0,0:0:0:0:
64,192,103777,1,0,0:0:0:0:
448,192,103943,1,0,0:0:0:0:
64,192,104110,1,0,0:0:0:0:
448,192,104277,1,0,0:0:0:0:
64,192,104443,1,0,0:0:0:0:
448,192,104610,1,0,0:0:0:0:
64,192,104777,1,0,0:0:0:0:
448,192,104943,1,0,0:0:0:0:
64,192,105110,1,0,0:0:0:0:
448,192,105277,1,0,0:0:0:0:
64,192,105443,1,0,0:0:0:0:
448,192,105610,1,0,0:0:0:0:
64,192,105777,1,0,0:0:0:0:
448,192,105943,1,0,0:0:0:0:
64,192,106110,1,0,0:0:0:0:
448,192,106277,1,0,0:0:0:0:
64,192,106443,1,0,0:0:0:0:
192,192,106443,1,0,0:0:0:0:
448,192,106777,128,0,107110:0:0:0:0:
64,192,106777,1,0,0:0:0:0:
64,192,107277,128,0,107777:0:0:0:0:
448,192,107277,1,0,0:0:0:0:
192,192,108110,1,4,0:0:0:0:
64,192,108110,1,0,0:0:0:0:
192,192,108443,1,0,0:0:0:0:
320,192,108443,1,0,0:0:0:0:
64,192,108610,1,0,0:0:0:0:
192,192,108777,1,0,0:0:0:0:
448,192,108943,1,0,0:0:0:0:
320,192,108943,1,0,0:0:0:0:
192,192,109110,1,0,0:0:0:0:
64,192,109277,1,0,0:0:0:0:
448,192,109277,1,0,0:0:0:0:
320,192,109443,1,0,0:0:0:0:
448,192,109610,1,0,0:0:0:0:
320,192,109610,1,0,0:0:0:0:
192,192,109777,1,0,0:0:0:0:
64,192,109943,1,0,0:0:0:0:
192,192,110110,1,0,0:0:0:0:
320,192,110277,1,0,0:0:0:0:
64,192,110277,1,0,0:0:0:0:
448,192,110443,1,0,0:0:0:0:
192,192,110610,1,0,0:0:0:0:
192,192,110777,128,0,111110:0:0:0:0:
320,192,110777,1,0,0:0:0:0:
64,192,111110,1,0,0:0:0:0:
320,192,111110,1,0,0:0:0:0:
448,192,111277,1,0,0:0:0:0:
192,192,111443,1,0,0:0:0:0:
448,192,111610,1,0,0:0:0:0:
320,192,111610,1,0,0:0:0:0:
64,192,111777,1,0,0:0:0:0:
320,192,111943,1,0,0:0:0:0:
448,192,111943,1,0,0:0:0:0:
192,192,112110,1,0,0:0:0:0:
448,192,112277,1,0,0:0:0:0:
192,192,112277,1,0,0:0:0:0:
64,192,112443,1,0,0:0:0:0:
320,192,112443,1,0,0:0:0:0:
448,192,112610,1,0,0:0:0:0:
320,192,112777,1,0,0:0:0:0:
192,192,112943,1,0,0:0:0:0:
448,192,112943,1,0,0:0:0:0:
64,192,113110,1,0,0:0:0:0:
320,192,113277,1,0,0:0:0:0:
192,192,113443,1,0,0:0:0:0:
320,192,113443,1,0,0:0:0:0:
64,192,113777,1,0,0:0:0:0:
320,192,113777,1,0,0:0:0:0:
448,192,113943,1,0,0:0:0:0:
192,192,113943,1,0,0:0:0:0:
64,192,114110,1,0,0:0:0:0:
448,192,114277,1,0,0:0:0:0:
192,192,114277,1,0,0:0:0:0:
320,192,114443,1,0,0:0:0:0:
192,192,114610,1,0,0:0:0:0:
64,192,114610,1,0,0:0:0:0:
448,192,114777,1,0,0:0:0:0:
320,192,114943,1,0,0:0:0:0:
448,192,114943,1,0,0:0:0:0:
64,192,115110,1,0,0:0:0:0:
192,192,115110,1,0,0:0:0:0:
448,192,115277,1,0,0:0:0:0:
320,192,115443,1,0,0:0:0:0:
64,192,115610,1,0,0:0:0:0:
192,192,115610,1,0,0:0:0:0:
320,192,115777,1,0,0:0:0:0:
448,192,115943,1,0,0:0:0:0:
64,192,116110,128,0,116443:0:0:0:0:
192,192,116110,1,0,0:0:0:0:
448,192,116443,1,0,0:0:0:0:
192,192,116443,1,0,0:0:0:0:
320,192,116610,1,0,0:0:0:0:
64,192,116777,1,0,0:0:0:0:
320,192,116943,1,0,0:0:0:0:
448,192,116943,1,0,0:0:0:0:
64,192,117110,1,0,0:0:0:0:
192,192,117277,1,0,0:0:0:0:
320,192,117277,1,0,0:0:0:0:
64,192,117443,1,0,0:0:0:0:
192,192,117527,1,0,0:0:0:0:
320,192,117610,1,0,0:0:0:0:
448,192,117693,1,0,0:0:0:0:
64,192,117777,1,0,0:0:0:0:
192,192,117860,1,0,0:0:0:0:
320,192,117943,1,0,0:0:0:0:
448,192,118027,1,0,0:0:0:0:
192,192,118110,1,0,0:0:0:0:
64,192,118193,1,0,0:0:0:0:
448,192,118277,1,0,0:0:0:0:
320,192,118360,1,0,0:0:0:0:
192,192,118443,1,0,0:0:0:0:
64,192,118527,1,0,0:0:0:0:
448,192,118610,1,0,0:0:0:0:
320,192,118693,1,0,0:0:0:0:
64,192,118777,1,4,0:0:0:0:
192,192,118777,1,0,0:0:0:0:
192,192,119110,1,0,0:0:0:0:
448,192,119110,1,0,0:0:0:0:
320,192,119277,1,0,0:0:0:0:
192,192,119443,1,0,0:0:0:0:
320,192,119610,1,0,0:0:0:0:
64,192,119610,1,0,0:0:0:0:
192,192,119777,1,0,0:0:0:0:
448,192,119943,1,0,0:0:0:0:
320,192,120110,1,0,0:0:0:0:
192,192,120277,1,0,0:0:0:0:
320,192,120277,1,0,0:0:0:0:
64,192,120443,1,0,0:0:0:0:
448,192,120610,1,0,0:0:0:0:
320,192,120777,1,0,0:0:0:0:
192,192,120943,1,0,0:0:0:0:
64,192,120943,1,0,0:0:0:0:
448,192,121110,1,0,0:0:0:0:
64,192,121277,1,0,0:0:0:0:
320,192,121443,128,0,121777:0:0:0:0:
192,192,121443,1,0,0:0:0:0:
64,192,121777,1,0,0:0:0:0:
448,192,121777,1,0,0:0:0:0:
192,192,121943,1,0,0:0:0:0:
320,192,122110,1,0,0:0:0:0:
448,192,122277,1,0,0:0:0:0:
64,192,122277,1,0,0:0:0:0:
320,192,122443,1,0,0:0:0:0:
448,192,122610,1,0,0:0:0:0:
192,192,122610,1,0,0:0:0:0:
320,192,122777,1,0,0:0:0:0:
64,192,122943,1,0,0:0:0:0:
320,192,122943,1,0,0:0:0:0:
448,192,123110,1,0,0:0:0:0:
64,192,123277,1,0,0:0:0:0:
320,192,123443,1,0,0:0:0:0:
448,192,123443,1,0,0:0:0:0:
192,192,123693,1,0,0:0:0:0:
320,192,123693,1,0,0:0:0:0:
64,192,123943,1,0,0:0:0:0:
192,192,123943,1,0,0:0:0:0:
448,192,124110,1,4,0:0:0:0:
320,192,124110,1,0,0:0:0:0:
192,192,124443,1,0,0:0:0:0:
64,192,124443,1,0,0:0:0:0:
320,192,124610,1,0,0:0:0:0:
64,192,124777,1,0,0:0:0:0:
192,192,124943,1,0,0:0:0:0:
448,192,124943,1,0,0:0:0:0:
64,192,125110,1,0,0:0:0:0:
320,192,125277,1,0,0:0:0:0:
448,192,125443,1,0,0:0:0:0:
192,192,125610,1,0,0:0:0:0:
448,192,125610,1,0,0:0:0:0:
64,192,125777,1,0,0:0:0:0:
320,192,125777,1,0,0:0:0:0:
192,192,125943,1,0,0:0:0:0:
320,192,126110,1,0,0:0:0:0:
64,192,126277,1,0,0:0:0:0:
448,192,126277,1,0,0:0:0:0:
192,192,126443,1,0,0:0:0:0:
448,192,126610,1,0,0:0:0:0:
64,192,126777,128,0,127110:0:0:0:0:
320,192,126777,1,0,0:0:0:0:
448,192,127110,1,0,0:0:0:0:
192,192,127277,1,0,0:0:0:0:
320,192,127610,1,0,0:0:0:0:
64,192,127943,1,0,0:0:0:0:
448,192,128277,1,0,0:0:0:0:
64,192,128777,1,0,0:0:0:0:
320,192,129110,1,0,0:0:0:0:
448,192,129443,128,0,136110:0:0:0:0:
64,192,129777,1,0,0:0:0:0:
192,192,129943,1,0,0:0:0:0:
320,192,130277,1,0,0:0:0:0:
192,192,130610,1,0,0:0:0:0:
64,192,130943,1,0,0:0:0:0:
192,192,131277,1,0,0:0:0:0:
64,192,131610,1,0,0:0:0:0:
320,192,131777,1,0,0:0:0:0:
192,192,131943,1,0,0:0:0:0:
64,192,132277,1,0,0:0:0:0:
320,192,132610,1,0,0:0:0:0:
192,192,132943,1,0,0:0:0:0:
320,192,133277,1,0,0:0:0:0:
64,192,133443,1,0,0:0:0:0:
320,192,133610,1,0,0:0:0:0:
64,192,133777,1,0,0:0:0:0:
192,192,133943,1,0,0:0:0:0:
64,192,134277,1,0,0:0:0:0:
320,192,134443,1,0,0:0:0:0:
192,192,134610,1,0,0:0:0:0:
64,192,134777,1,0,0:0:0:0:
192,192,134943,1,0,0:0:0:0:
320,192,135110,1,0,0:0:0:0:
64,192,135277,1,0,0:0:0:0:
192,192,135610,1,0,0:0:0:0:
64,192,136110,1,0,0:0:0:0:
192,192,136277,1,0,0:0:0:0:
320,192,136443,1,0,0:0:0:0:
448,192,136610,1,0,0:0:0:0:
320,192,137443,1,0,0:0:0:0:
64,192,137610,1,0,0:0:0:0:
192,192,137777,1,0,0:0:0:0:
448,192,137943,1,0,0:0:0:0:
192,192,138277,1,0,0:0:0:0:
320,192,138610,1,0,0:0:0:0:
64,192,138943,1,0,0:0:0:0:
320,192,139277,1,0,0:0:0:0:
192,192,139610,1,0,0:0:0:0:
320,192,139777,1,0,0:0:0:0:
448,192,139943,1,0,0:0:0:0:
64,192,140110,128,0,144110:0:0:0:0:
320,192,144110,128,0,144777:0:0:0:0:
448,192,144777,128,0,145443:0:0:0:0:
192,192,145443,128,0,146777:0:0:0:0:
64,192,146777,128,0,147443:0:0:0:0:
320,192,147443,128,0,148110:0:0:0:0:
448,192,148110,128,0,149443:0:0:0:0:
64,192,149443,1,0,0:0:0:0:
320,192,149443,1,4,0:0:0:0:
192,192,149610,1,0,0:0:0:0:
320,192,149777,1,0,0:0:0:0:
448,192,149943,1,0,0:0:0:0:
64,192,150277,1,0,0:0:0:0:
320,192,150443,1,0,0:0:0:0:
448,192,150610,1,0,0:0:0:0:
