osu file format v14

[General]
AudioFilename: audio.mp3
AudioLeadIn: 0
PreviewTime: -1
Countdown: 0
SampleSet: None
StackLeniency: 0.7
Mode: 3
LetterboxInBreaks: 0
SpecialStyle: 0
WidescreenStoryboard: 1

[Editor]
Bookmarks: 22690,42690,44023,65357,76024,86690,108024,129357
DistanceSpacing: 0.8
BeatDivisor: 4
GridSize: 16
TimelineZoom: 1.3

[Metadata]
Title:Stasis
TitleUnicode:Stasis
Artist:Maozon
ArtistUnicode:Maozon
Creator:DustMoon
Version:hs
Source:Lanota
Tags:
BeatmapID:1715742
BeatmapSetID:818249

[Difficulty]
HPDrainRate:9
CircleSize:4
OverallDifficulty:9
ApproachRate:5
SliderMultiplier:1.4
SliderTickRate:1

[Events]
//Background and Video events
0,0,"1530154X8-12.jpg",0,0
//Break Periods
2,62723,106823
//Storyboard Layer 0 (Background)
//Storyboard Layer 1 (Fail)
//Storyboard Layer 2 (Pass)
//Storyboard Layer 3 (Foreground)
//Storyboard Sound Samples

[TimingPoints]
24,333.333333333333,4,2,0,20,1,0

[HitObjects]
320,192,22690,5,0,0:0:0:0:
448,192,22690,1,0,0:0:0:0:
192,192,22690,1,0,0:0:0:0:
64,192,22690,1,0,0:0:0:0:
320,192,23023,1,0,0:0:0:0:
64,192,23357,1,0,0:0:0:0:
320,192,23690,1,0,0:0:0:0:
320,192,24023,1,0,0:0:0:0:
192,192,24023,1,0,0:0:0:0:
320,192,24523,1,0,0:0:0:0:
64,192,24690,1,0,0:0:0:0:
320,192,24857,1,0,0:0:0:0:
192,192,25023,1,0,0:0:0:0:
64,192,25357,1,0,0:0:0:0:
192,192,25357,1,0,0:0:0:0:
320,192,25357,1,0,0:0:0:0:
448,192,25357,1,0,0:0:0:0:
320,192,25690,1,0,0:0:0:0:
64,192,26023,1,0,0:0:0:0:
320,192,26357,1,0,0:0:0:0:
320,192,26690,1,0,0:0:0:0:
192,192,26690,1,0,0:0:0:0:
320,192,27190,1,0,0:0:0:0:
64,192,27357,1,0,0:0:0:0:
320,192,27523,1,0,0:0:0:0:
192,192,27690,1,0,0:0:0:0:
64,192,28023,1,0,0:0:0:0:
192,192,28023,1,0,0:0:0:0:
320,192,28023,1,0,0:0:0:0:
448,192,28023,1,0,0:0:0:0:
320,192,28357,1,0,0:0:0:0:
64,192,28690,1,0,0:0:0:0:
320,192,29023,1,0,0:0:0:0:
320,192,29357,1,0,0:0:0:0:
192,192,29357,1,0,0:0:0:0:
320,192,29857,1,0,0:0:0:0:
64,192,30023,1,0,0:0:0:0:
320,192,30190,1,0,0:0:0:0:
192,192,30357,1,0,0:0:0:0:
64,192,30690,1,0,0:0:0:0:
192,192,30690,1,0,0:0:0:0:
320,192,30690,1,0,0:0:0:0:
448,192,30690,1,0,0:0:0:0:
320,192,31023,1,0,0:0:0:0:
64,192,31357,1,0,0:0:0:0:
320,192,31690,1,0,0:0:0:0:
448,192,32023,128,0,33273:0:0:0:0:
64,192,33357,1,0,0:0:0:0:
192,192,33357,1,0,0:0:0:0:
320,192,33357,1,0,0:0:0:0:
448,192,33357,1,0,0:0:0:0:
320,192,33690,1,0,0:0:0:0:
64,192,34023,1,0,0:0:0:0:
320,192,34357,1,0,0:0:0:0:
320,192,34690,1,0,0:0:0:0:
192,192,34690,1,0,0:0:0:0:
320,192,35190,1,0,0:0:0:0:
64,192,35357,1,0,0:0:0:0:
320,192,35523,1,0,0:0:0:0:
192,192,35690,1,0,0:0:0:0:
320,192,36023,1,0,0:0:0:0:
448,192,36023,1,0,0:0:0:0:
64,192,36023,1,0,0:0:0:0:
192,192,36023,1,0,0:0:0:0:
320,192,36357,1,0,0:0:0:0:
64,192,36690,1,0,0:0:0:0:
320,192,37023,1,0,0:0:0:0:
192,192,37357,1,0,0:0:0:0:
320,192,37357,1,0,0:0:0:0:
64,192,37857,1,0,0:0:0:0:
64,192,38023,1,0,0:0:0:0:
64,192,38273,1,0,0:0:0:0:
64,192,38523,1,0,0:0:0:0:
64,192,38690,1,0,0:0:0:0:
192,192,38690,1,0,0:0:0:0:
320,192,38690,1,0,0:0:0:0:
448,192,38690,1,0,0:0:0:0:
320,192,39023,1,0,0:0:0:0:
64,192,39357,1,0,0:0:0:0:
320,192,39690,1,0,0:0:0:0:
320,192,40023,1,0,0:0:0:0:
192,192,40023,1,0,0:0:0:0:
320,192,40523,1,0,0:0:0:0:
64,192,40690,1,0,0:0:0:0:
320,192,40857,1,0,0:0:0:0:
192,192,41023,1,0,0:0:0:0:
320,192,41357,1,0,0:0:0:0:
448,192,41357,1,0,0:0:0:0:
64,192,41357,1,0,0:0:0:0:
192,192,41357,1,0,0:0:0:0:
320,192,41690,1,0,0:0:0:0:
64,192,42023,1,0,0:0:0:0:
320,192,42357,1,0,0:0:0:0:
192,192,42690,1,0,0:0:0:0:
320,192,42690,1,0,0:0:0:0:
448,192,42690,1,0,0:0:0:0:
192,192,44023,1,0,0:0:0:0:
64,192,44690,1,0,0:0:0:0:
192,192,44690,1,0,0:0:0:0:
192,192,45357,1,0,0:0:0:0:
64,192,46023,1,0,0:0:0:0:
192,192,46023,1,0,0:0:0:0:
192,192,46690,1,0,0:0:0:0:
64,192,47357,1,0,0:0:0:0:
192,192,47357,1,0,0:0:0:0:
192,192,48023,1,0,0:0:0:0:
64,192,48690,1,0,0:0:0:0:
192,192,48690,1,0,0:0:0:0:
64,192,49190,1,0,0:0:0:0:
448,192,49190,1,0,0:0:0:0:
64,192,50023,1,0,0:0:0:0:
192,192,50023,1,0,0:0:0:0:
192,192,50690,1,0,0:0:0:0:
64,192,51357,1,0,0:0:0:0:
192,192,51357,1,0,0:0:0:0:
64,192,51857,1,0,0:0:0:0:
448,192,51857,1,0,0:0:0:0:
192,192,52690,1,0,0:0:0:0:
64,192,52690,1,0,0:0:0:0:
192,192,53357,1,0,0:0:0:0:
64,192,54023,1,0,0:0:0:0:
192,192,54023,1,0,0:0:0:0:
64,192,54690,1,0,0:0:0:0:
320,192,54690,1,0,0:0:0:0:
448,192,54690,1,0,0:0:0:0:
192,192,55357,1,0,0:0:0:0:
64,192,55357,1,0,0:0:0:0:
192,192,56023,1,0,0:0:0:0:
64,192,56690,1,0,0:0:0:0:
192,192,56690,1,0,0:0:0:0:
192,192,57357,1,0,0:0:0:0:
64,192,58023,1,0,0:0:0:0:
192,192,58023,1,0,0:0:0:0:
192,192,58690,1,0,0:0:0:0:
64,192,59357,1,0,0:0:0:0:
192,192,59357,1,0,0:0:0:0:
64,192,59857,1,0,0:0:0:0:
448,192,59857,1,0,0:0:0:0:
192,192,60690,1,0,0:0:0:0:
64,192,60690,1,0,0:0:0:0:
192,192,61357,1,0,0:0:0:0:
64,192,62023,1,0,0:0:0:0:
192,192,62023,1,0,0:0:0:0:
64,192,62523,1,0,0:0:0:0:
448,192,62523,1,0,0:0:0:0:
64,192,108023,5,0,0:0:0:0:
192,192,108023,1,0,0:0:0:0:
320,192,108023,1,0,0:0:0:0:
448,192,108023,1,0,0:0:0:0:
64,192,108357,1,0,0:0:0:0:
192,192,108357,1,0,0:0:0:0:
64,192,108523,1,0,0:0:0:0:
64,192,108857,1,0,0:0:0:0:
192,192,108857,1,0,0:0:0:0:
64,192,109023,1,0,0:0:0:0:
320,192,109357,1,0,0:0:0:0:
320,192,109523,1,0,0:0:0:0:
192,192,109690,1,0,0:0:0:0:
64,192,109690,1,0,0:0:0:0:
64,192,109857,1,0,0:0:0:0:
64,192,110190,1,0,0:0:0:0:
192,192,110190,1,0,0:0:0:0:
64,192,110357,1,0,0:0:0:0:
64,192,110690,1,0,0:0:0:0:
192,192,110690,1,0,0:0:0:0:
320,192,110690,1,0,0:0:0:0:
448,192,110690,1,0,0:0:0:0:
192,192,111023,1,0,0:0:0:0:
64,192,111023,1,0,0:0:0:0:
64,192,111190,1,0,0:0:0:0:
192,192,111523,1,0,0:0:0:0:
64,192,111523,1,0,0:0:0:0:
64,192,111690,1,0,0:0:0:0:
192,192,111857,1,0,0:0:0:0:
64,192,111857,1,0,0:0:0:0:
320,192,112023,1,0,0:0:0:0:
320,192,112190,1,0,0:0:0:0:
192,192,112357,1,0,0:0:0:0:
64,192,112357,1,0,0:0:0:0:
64,192,112523,1,0,0:0:0:0:
192,192,112857,1,0,0:0:0:0:
64,192,112857,1,0,0:0:0:0:
64,192,113190,1,0,0:0:0:0:
64,192,113357,1,0,0:0:0:0:
192,192,113357,1,0,0:0:0:0:
320,192,113357,1,0,0:0:0:0:
448,192,113357,1,0,0:0:0:0:
192,192,113690,1,0,0:0:0:0:
64,192,113690,1,0,0:0:0:0:
64,192,113857,1,0,0:0:0:0:
192,192,114190,1,0,0:0:0:0:
64,192,114190,1,0,0:0:0:0:
64,192,114357,1,0,0:0:0:0:
320,192,114690,1,0,0:0:0:0:
320,192,114857,1,0,0:0:0:0:
192,192,115023,1,0,0:0:0:0:
64,192,115023,1,0,0:0:0:0:
64,192,115190,1,0,0:0:0:0:
192,192,115523,1,0,0:0:0:0:
64,192,115523,1,0,0:0:0:0:
64,192,115690,1,0,0:0:0:0:
64,192,116023,1,0,0:0:0:0:
192,192,116023,1,0,0:0:0:0:
320,192,116023,1,0,0:0:0:0:
448,192,116023,1,0,0:0:0:0:
64,192,116357,1,0,0:0:0:0:
192,192,116357,1,0,0:0:0:0:
64,192,116523,1,0,0:0:0:0:
64,192,116857,1,0,0:0:0:0:
192,192,116857,1,0,0:0:0:0:
64,192,117023,1,0,0:0:0:0:
64,192,117190,1,0,0:0:0:0:
192,192,117190,1,0,0:0:0:0:
448,192,117357,128,0,118607:0:0:0:0:
64,192,118690,1,0,0:0:0:0:
192,192,118690,1,0,0:0:0:0:
320,192,118690,1,0,0:0:0:0:
448,192,118690,1,0,0:0:0:0:
64,192,119023,1,0,0:0:0:0:
192,192,119023,1,0,0:0:0:0:
64,192,119190,1,0,0:0:0:0:
64,192,119523,1,0,0:0:0:0:
192,192,119523,1,0,0:0:0:0:
64,192,119690,1,0,0:0:0:0:
320,192,120023,1,0,0:0:0:0:
320,192,120190,1,0,0:0:0:0:
192,192,120357,1,0,0:0:0:0:
64,192,120357,1,0,0:0:0:0:
64,192,120523,1,0,0:0:0:0:
64,192,120857,1,0,0:0:0:0:
192,192,120857,1,0,0:0:0:0:
64,192,121023,1,0,0:0:0:0:
64,192,121357,1,0,0:0:0:0:
192,192,121357,1,0,0:0:0:0:
320,192,121357,1,0,0:0:0:0:
448,192,121357,1,0,0:0:0:0:
192,192,121690,1,0,0:0:0:0:
64,192,121690,1,0,0:0:0:0:
64,192,121857,1,0,0:0:0:0:
192,192,122190,1,0,0:0:0:0:
64,192,122190,1,0,0:0:0:0:
64,192,122357,1,0,0:0:0:0:
192,192,122523,1,0,0:0:0:0:
64,192,122523,1,0,0:0:0:0:
320,192,122690,1,0,0:0:0:0:
320,192,122857,1,0,0:0:0:0:
192,192,123023,1,0,0:0:0:0:
64,192,123023,1,0,0:0:0:0:
64,192,123190,1,0,0:0:0:0:
192,192,123357,1,0,0:0:0:0:
64,192,123357,1,0,0:0:0:0:
448,192,123357,1,0,0:0:0:0:
192,192,123607,1,0,0:0:0:0:
64,192,123607,1,0,0:0:0:0:
448,192,123607,1,0,0:0:0:0:
64,192,123857,1,0,0:0:0:0:
192,192,123857,1,0,0:0:0:0:
448,192,123857,1,0,0:0:0:0:
320,192,124023,1,0,0:0:0:0:
448,192,124023,1,0,0:0:0:0:
64,192,124023,1,0,0:0:0:0:
192,192,124023,1,0,0:0:0:0:
192,192,124357,1,0,0:0:0:0:
64,192,124357,1,0,0:0:0:0:
64,192,124523,1,0,0:0:0:0:
192,192,124857,1,0,0:0:0:0:
64,192,124857,1,0,0:0:0:0:
64,192,125023,1,0,0:0:0:0:
448,192,125190,1,0,0:0:0:0:
320,192,125357,1,0,0:0:0:0:
320,192,125523,1,0,0:0:0:0:
64,192,125690,1,0,0:0:0:0:
192,192,125690,1,0,0:0:0:0:
64,192,125857,1,0,0:0:0:0:
192,192,126190,1,0,0:0:0:0:
64,192,126190,1,0,0:0:0:0:
64,192,126357,1,0,0:0:0:0:
320,192,126690,1,0,0:0:0:0:
448,192,126690,1,0,0:0:0:0:
64,192,126690,1,0,0:0:0:0:
192,192,126690,1,0,0:0:0:0:
64,192,129357,1,0,0:0:0:0:
192,192,129357,1,0,0:0:0:0:
320,192,129357,1,0,0:0:0:0:
448,192,129357,1,0,0:0:0:0:
448,192,129523,1,0,0:0:0:0:
448,192,129690,1,0,0:0:0:0:
448,192,130190,1,0,0:0:0:0:
448,192,130690,1,0,0:0:0:0:
448,192,131023,1,0,0:0:0:0:
448,192,131523,1,0,0:0:0:0:
448,192,132023,1,0,0:0:0:0:
448,192,132190,1,0,0:0:0:0:
448,192,132357,1,0,0:0:0:0:
448,192,132857,1,0,0:0:0:0:
448,192,133357,1,0,0:0:0:0:
448,192,133857,1,0,0:0:0:0:
448,192,134440,1,0,0:0:0:0:
320,192,134440,1,0,0:0:0:0:
448,192,134690,1,0,0:0:0:0:
448,192,134857,1,0,0:0:0:0:
448,192,135023,1,0,0:0:0:0:
448,192,135523,1,0,0:0:0:0:
448,192,136023,1,0,0:0:0:0:
448,192,136190,1,0,0:0:0:0:
448,192,136357,1,0,0:0:0:0:
448,192,136857,1,0,0:0:0:0:
448,192,137357,1,0,0:0:0:0:
448,192,137523,1,0,0:0:0:0:
448,192,137690,1,0,0:0:0:0:
448,192,138190,1,0,0:0:0:0:
448,192,138523,1,0,0:0:0:0:
448,192,138690,1,0,0:0:0:0:
448,192,139190,1,0,0:0:0:0:
448,192,139690,1,0,0:0:0:0:
320,192,139690,1,0,0:0:0:0:
320,192,140023,1,0,0:0:0:0:
448,192,140023,1,0,0:0:0:0:
448,192,140357,1,0,0:0:0:0:
448,192,140857,1,0,0:0:0:0:
448,192,141357,1,0,0:0:0:0:
448,192,141690,1,0,0:0:0:0:
448,192,142190,1,0,0:0:0:0:
448,192,142690,1,0,0:0:0:0:
448,192,142857,1,0,0:0:0:0:
448,192,143023,1,0,0:0:0:0:
448,192,143523,1,0,0:0:0:0:
448,192,144023,1,0,0:0:0:0:
448,192,144357,1,0,0:0:0:0:
448,192,144857,1,0,0:0:0:0:
448,192,145357,1,0,0:0:0:0:
448,192,145523,1,0,0:0:0:0:
448,192,145690,1,0,0:0:0:0:
448,192,146190,1,0,0:0:0:0:
448,192,146690,1,0,0:0:0:0:
448,192,146857,1,0,0:0:0:0:
448,192,147023,1,0,0:0:0:0:
448,192,147523,1,0,0:0:0:0:
448,192,148023,1,0,0:0:0:0:
448,192,148190,1,0,0:0:0:0:
448,192,148357,1,0,0:0:0:0:
448,192,148857,1,0,0:0:0:0:
448,192,149357,1,0,0:0:0:0:
64,192,149357,1,0,0:0:0:0:
