osu file format v14

[General]
AudioFilename: Equilibrium.mp3
AudioLeadIn: 0
PreviewTime: 107981
Countdown: 0
SampleSet: Soft
StackLeniency: 0.7
Mode: 3
LetterboxInBreaks: 0
SpecialStyle: 0
WidescreenStoryboard: 0

[Editor]
DistanceSpacing: 2.4
BeatDivisor: 4
GridSize: 32
TimelineZoom: 1.6

[Metadata]
Title:Equilibrium
TitleUnicode:Equilibrium
Artist:Maozon
ArtistUnicode:Maozon
Creator:Critical_Star
Version:Reconcile
Source:Arcaea
Tags:lowiro Black Fate Chapter IV Hikari Akasha Video Game Electronic Instrumental Kuo Kyoka Dellvangel
BeatmapID:2464430
BeatmapSetID:1182015

[Difficulty]
HPDrainRate:8.6
CircleSize:4
OverallDifficulty:8.6
ApproachRate:5
SliderMultiplier:1.4
SliderTickRate:1

[Events]
//Background and Video events
0,0,"EQ.jpg",0,0
//Break Periods
//Storyboard Layer 0 (Background)
//Storyboard Layer 1 (Fail)
//Storyboard Layer 2 (Pass)
//Storyboard Layer 3 (Foreground)
//Storyboard Layer 4 (Overlay)
//Storyboard Sound Samples

[TimingPoints]
1315,333.333333333333,4,2,1,50,1,0
6981,-60.6060606060606,4,2,1,50,0,0
7023,-285.714285714286,4,2,1,50,0,0
7064,-100,4,2,1,50,0,0
7231,-60.6060606060606,4,2,1,50,0,0
7273,-285.714285714286,4,2,1,50,0,0
7314,-100,4,2,1,50,0,0
7481,-60.6060606060606,4,2,1,50,0,0
7523,-285.714285714286,4,2,1,50,0,0
7564,-100,4,2,1,50,0,0
7731,-60.6060606060606,4,2,1,50,0,0
7773,-285.714285714286,4,2,1,50,0,0
7814,-100,4,2,1,50,0,0
8314,-60.6060606060606,4,2,1,50,0,0
8356,-285.714285714286,4,2,1,50,0,0
8397,-100,4,2,1,50,0,0
8564,-60.6060606060606,4,2,1,50,0,0
8606,-285.714285714286,4,2,1,50,0,0
8647,-100,4,2,1,50,0,0
8814,-60.6060606060606,4,2,1,50,0,0
8856,-285.714285714286,4,2,1,50,0,0
8897,-100,4,2,1,50,0,0
9064,-60.6060606060606,4,2,1,50,0,0
9106,-285.714285714286,4,2,1,50,0,0
9147,-100,4,2,1,50,0,0
9648,-60.6060606060606,4,2,1,50,0,0
9690,-285.714285714286,4,2,1,50,0,0
9731,-100,4,2,1,50,0,0
9898,-60.6060606060606,4,2,1,50,0,0
9940,-285.714285714286,4,2,1,50,0,0
9981,-100,4,2,1,50,0,0
10148,-60.6060606060606,4,2,1,50,0,0
10190,-285.714285714286,4,2,1,50,0,0
10231,-100,4,2,1,50,0,0
10398,-60.6060606060606,4,2,1,50,0,0
10440,-285.714285714286,4,2,1,50,0,0
10481,-100,4,2,1,50,0,0
10981,-60.6060606060606,4,2,1,50,0,0
11023,-285.714285714286,4,2,1,50,0,0
11064,-100,4,2,1,50,0,0
11231,-60.6060606060606,4,2,1,50,0,0
11273,-285.714285714286,4,2,1,50,0,0
11314,-100,4,2,1,50,0,0
11564,-60.6060606060606,4,2,1,50,0,0
11606,-285.714285714286,4,2,1,50,0,0
11647,-100,4,2,1,50,0,0
11731,-60.6060606060606,4,2,1,50,0,0
11773,-285.714285714286,4,2,1,50,0,0
11814,-100,4,2,1,50,0,0
11898,-60.6060606060606,4,2,1,50,0,0
11940,-285.714285714286,4,2,1,50,0,0
11981,-100,4,2,1,50,0,0
22648,-40,4,2,1,50,0,0
22732,-200,4,2,1,50,0,0
22981,-66.6666666666667,4,2,1,50,0,0
23023,-200,4,2,1,50,0,0
23064,-100,4,2,1,50,0,0
23231,-66.6666666666667,4,2,1,50,0,0
23273,-200,4,2,1,50,0,0
23314,-100,4,2,1,50,0,0
23398,-66.6666666666667,4,2,1,50,0,0
23440,-200,4,2,1,50,0,0
23481,-66.6666666666667,4,2,1,50,0,0
23523,-200,4,2,1,50,0,0
23564,-100,4,2,1,50,0,0
23731,-66.6666666666667,4,2,1,50,0,0
23773,-200,4,2,1,50,0,0
23814,-100,4,2,1,50,0,0
23898,-66.6666666666667,4,2,1,50,0,0
23940,-200,4,2,1,50,0,0
23981,-66.6666666666667,4,2,1,50,0,0
24023,-200,4,2,1,50,0,0
24064,-100,4,2,1,50,0,0
24148,-66.6666666666667,4,2,1,50,0,0
24190,-200,4,2,1,50,0,0
24231,-100,4,2,1,50,0,0
24314,-66.6666666666667,4,2,1,50,0,0
24356,-200,4,2,1,50,0,0
24397,-100,4,2,1,50,0,0
24564,-66.6666666666667,4,2,1,50,0,0
24606,-200,4,2,1,50,0,0
24647,-100,4,2,1,50,0,0
24731,-66.6666666666667,4,2,1,50,0,0
24773,-200,4,2,1,50,0,0
24814,-66.6666666666667,4,2,1,50,0,0
24856,-200,4,2,1,50,0,0
24897,-100,4,2,1,50,0,0
25064,-66.6666666666667,4,2,1,50,0,0
25106,-200,4,2,1,50,0,0
25147,-100,4,2,1,50,0,0
25231,-66.6666666666667,4,2,1,50,0,0
25273,-200,4,2,1,50,0,0
25314,-40,4,2,1,50,0,0
25398,-200,4,2,1,50,0,0
25648,-66.6666666666667,4,2,1,50,0,0
25690,-200,4,2,1,50,0,0
25731,-100,4,2,1,50,0,0
25898,-66.6666666666667,4,2,1,50,0,0
25940,-200,4,2,1,50,0,0
25981,-100,4,2,1,50,0,0
26065,-66.6666666666667,4,2,1,50,0,0
26107,-200,4,2,1,50,0,0
26148,-66.6666666666667,4,2,1,50,0,0
26190,-200,4,2,1,50,0,0
26231,-100,4,2,1,50,0,0
26398,-66.6666666666667,4,2,1,50,0,0
26440,-200,4,2,1,50,0,0
26481,-100,4,2,1,50,0,0
26565,-66.6666666666667,4,2,1,50,0,0
26607,-200,4,2,1,50,0,0
26648,-66.6666666666667,4,2,1,50,0,0
26690,-200,4,2,1,50,0,0
26731,-100,4,2,1,50,0,0
26815,-66.6666666666667,4,2,1,50,0,0
26857,-200,4,2,1,50,0,0
26898,-100,4,2,1,50,0,0
26981,-66.6666666666667,4,2,1,50,0,0
27023,-200,4,2,1,50,0,0
27064,-100,4,2,1,50,0,0
27231,-66.6666666666667,4,2,1,50,0,0
27273,-200,4,2,1,50,0,0
27314,-100,4,2,1,50,0,0
27398,-66.6666666666667,4,2,1,50,0,0
27440,-200,4,2,1,50,0,0
27481,-66.6666666666667,4,2,1,50,0,0
27523,-200,4,2,1,50,0,0
27564,-100,4,2,1,50,0,0
27731,-66.6666666666667,4,2,1,50,0,0
27773,-200,4,2,1,50,0,0
27814,-100,4,2,1,50,0,0
27898,-66.6666666666667,4,2,1,50,0,0
27940,-200,4,2,1,50,0,0
27981,-40,4,2,1,50,0,0
28065,-200,4,2,1,50,0,0
28314,-66.6666666666667,4,2,1,50,0,0
28356,-200,4,2,1,50,0,0
28397,-100,4,2,1,50,0,0
28564,-66.6666666666667,4,2,1,50,0,0
28606,-200,4,2,1,50,0,0
28647,-100,4,2,1,50,0,0
28731,-66.6666666666667,4,2,1,50,0,0
28773,-200,4,2,1,50,0,0
28814,-66.6666666666667,4,2,1,50,0,0
28856,-200,4,2,1,50,0,0
28897,-100,4,2,1,50,0,0
29064,-66.6666666666667,4,2,1,50,0,0
29106,-200,4,2,1,50,0,0
29147,-100,4,2,1,50,0,0
29231,-66.6666666666667,4,2,1,50,0,0
29273,-200,4,2,1,50,0,0
29314,-66.6666666666667,4,2,1,50,0,0
29356,-200,4,2,1,50,0,0
29397,-100,4,2,1,50,0,0
29481,-66.6666666666667,4,2,1,50,0,0
29523,-200,4,2,1,50,0,0
29564,-100,4,2,1,50,0,0
29648,-66.6666666666667,4,2,1,50,0,0
29690,-200,4,2,1,50,0,0
29731,-100,4,2,1,50,0,0
29898,-66.6666666666667,4,2,1,50,0,0
29940,-200,4,2,1,50,0,0
29981,-100,4,2,1,50,0,0
30065,-66.6666666666667,4,2,1,50,0,0
30107,-200,4,2,1,50,0,0
30148,-66.6666666666667,4,2,1,50,0,0
30190,-200,4,2,1,50,0,0
30231,-100,4,2,1,50,0,0
30398,-66.6666666666667,4,2,1,50,0,0
30440,-200,4,2,1,50,0,0
30481,-100,4,2,1,50,0,0
30565,-66.6666666666667,4,2,1,50,0,0
30607,-200,4,2,1,50,0,0
30648,-100,4,2,1,50,0,0
33314,-33.8983050847458,4,2,1,50,0,0
33335,-285.714285714286,4,2,1,50,0,0
33398,-33.8983050847458,4,2,1,50,0,0
33419,-285.714285714286,4,2,1,50,0,0
33481,-33.8983050847458,4,2,1,50,0,0
33502,-285.714285714286,4,2,1,50,0,0
33564,-33.8983050847458,4,2,1,50,0,0
33585,-285.714285714286,4,2,1,50,0,0
33648,-33.8983050847458,4,2,1,50,0,0
33669,-285.714285714286,4,2,1,50,0,0
33731,-33.8983050847458,4,2,1,50,0,0
33752,-285.714285714286,4,2,1,50,0,0
33814,-33.8983050847458,4,2,1,50,0,0
33835,-285.714285714286,4,2,1,50,0,0
33898,-33.8983050847458,4,2,1,50,0,0
33919,-285.714285714286,4,2,1,50,0,0
33981,-60.6060606060606,4,2,1,50,0,0
34023,-285.714285714286,4,2,1,50,0,0
34064,-100,4,2,1,50,0,0
34481,-38.0228136882129,4,2,1,50,0,0
34648,-333.333333333333,4,2,1,50,0,0
35064,-100,4,2,1,50,0,0
35314,-60.6060606060606,4,2,1,50,0,0
35356,-285.714285714286,4,2,1,50,0,0
35397,-100,4,2,1,50,0,0
35981,-48.0769230769231,4,2,1,50,0,0
36106,-285.714285714286,4,2,1,50,0,0
36314,-33.8983050847458,4,2,1,50,0,0
36335,-285.714285714286,4,2,1,50,0,0
36398,-33.8983050847458,4,2,1,50,0,0
36419,-285.714285714286,4,2,1,50,0,0
36481,-33.8983050847458,4,2,1,50,0,0
36502,-285.714285714286,4,2,1,50,0,0
36564,-33.8983050847458,4,2,1,50,0,0
36585,-285.714285714286,4,2,1,50,0,0
36648,-60.6060606060606,4,2,1,50,0,0
36690,-285.714285714286,4,2,1,50,0,0
36731,-100,4,2,1,50,0,0
37314,-60.6060606060606,4,2,1,50,0,0
37356,-285.714285714286,4,2,1,50,0,0
37397,-100,4,2,1,50,0,0
37981,-60.6060606060606,4,2,1,50,0,0
38023,-285.714285714286,4,2,1,50,0,0
38064,-100,4,2,1,50,0,0
38648,-33.8983050847458,4,2,1,50,0,0
38669,-285.714285714286,4,2,1,50,0,0
38732,-33.8983050847458,4,2,1,50,0,0
38753,-285.714285714286,4,2,1,50,0,0
38815,-33.8983050847458,4,2,1,50,0,0
38836,-285.714285714286,4,2,1,50,0,0
38898,-33.8983050847458,4,2,1,50,0,0
38919,-285.714285714286,4,2,1,50,0,0
38982,-33.8983050847458,4,2,1,50,0,0
39003,-285.714285714286,4,2,1,50,0,0
39065,-33.8983050847458,4,2,1,50,0,0
39086,-285.714285714286,4,2,1,50,0,0
39148,-33.8983050847458,4,2,1,50,0,0
39169,-285.714285714286,4,2,1,50,0,0
39232,-33.8983050847458,4,2,1,50,0,0
39253,-285.714285714286,4,2,1,50,0,0
39315,-60.6060606060606,4,2,1,50,0,0
39357,-285.714285714286,4,2,1,50,0,0
39398,-100,4,2,1,50,0,0
39814,-38.0228136882129,4,2,1,50,0,0
39981,-285.714285714286,4,2,1,50,0,0
40314,-43.4782608695652,4,2,1,50,0,0
40398,-285.714285714286,4,2,1,50,0,0
40564,-100,4,2,1,50,0,0
40648,-60.6060606060606,4,2,1,50,0,0
40690,-285.714285714286,4,2,1,50,0,0
40731,-100,4,2,1,50,0,0
40814,-66.6666666666667,4,2,1,50,0,0
40856,-200,4,2,1,50,0,0
40898,-66.6666666666667,4,2,1,50,0,0
40940,-200,4,2,1,50,0,0
40981,-66.6666666666667,4,2,1,50,0,0
41023,-200,4,2,1,50,0,0
41064,-66.6666666666667,4,2,1,50,0,0
41106,-200,4,2,1,50,0,0
41148,-66.6666666666667,4,2,1,50,0,0
41189,-200,4,2,1,50,0,0
41273,-66.6666666666667,4,2,1,50,0,0
41314,-48.0769230769231,4,2,1,50,0,0
41439,-285.714285714286,4,2,1,50,0,0
41647,-33.8983050847458,4,2,1,50,0,0
41668,-285.714285714286,4,2,1,50,0,0
41731,-33.8983050847458,4,2,1,50,0,0
41752,-285.714285714286,4,2,1,50,0,0
41814,-33.8983050847458,4,2,1,50,0,0
41835,-285.714285714286,4,2,1,50,0,0
41897,-33.8983050847458,4,2,1,50,0,0
41918,-285.714285714286,4,2,1,50,0,0
41981,-60.6060606060606,4,2,1,50,0,0
42023,-285.714285714286,4,2,1,50,0,0
42064,-100,4,2,1,50,0,0
42481,-68.9655172413793,4,2,1,50,0,0
42523,-181.818181818182,4,2,1,50,0,0
42564,-68.9655172413793,4,2,1,50,0,0
42606,-181.818181818182,4,2,1,50,0,0
42648,-60.6060606060606,4,2,1,50,0,0
42690,-285.714285714286,4,2,1,50,0,0
42731,-100,4,2,1,50,0,0
43148,-68.9655172413793,4,2,1,50,0,0
43190,-181.818181818182,4,2,1,50,0,0
43231,-68.9655172413793,4,2,1,50,0,0
43273,-181.818181818182,4,2,1,50,0,0
43314,-60.6060606060606,4,2,1,50,0,0
43356,-285.714285714286,4,2,1,50,0,0
43397,-100,4,2,1,50,0,0
43814,-68.9655172413793,4,2,1,50,0,0
43856,-181.818181818182,4,2,1,50,0,0
43897,-68.9655172413793,4,2,1,50,0,0
43939,-181.818181818182,4,2,1,50,0,0
43981,-33.8983050847458,4,2,1,50,0,0
44002,-285.714285714286,4,2,1,50,0,0
44065,-33.8983050847458,4,2,1,50,0,0
44086,-285.714285714286,4,2,1,50,0,0
44148,-33.8983050847458,4,2,1,50,0,0
44169,-285.714285714286,4,2,1,50,0,0
44231,-33.8983050847458,4,2,1,50,0,0
44252,-285.714285714286,4,2,1,50,0,0
44315,-33.8983050847458,4,2,1,50,0,0
44336,-285.714285714286,4,2,1,50,0,0
44398,-33.8983050847458,4,2,1,50,0,0
44419,-285.714285714286,4,2,1,50,0,0
44481,-33.8983050847458,4,2,1,50,0,0
44502,-285.714285714286,4,2,1,50,0,0
44565,-33.8983050847458,4,2,1,50,0,0
44586,-285.714285714286,4,2,1,50,0,0
44648,-60.6060606060606,4,2,1,50,0,0
44690,-285.714285714286,4,2,1,50,0,0
44731,-100,4,2,1,50,0,0
45148,-38.0228136882129,4,2,1,50,0,0
45315,-333.333333333333,4,2,1,50,0,0
45731,-100,4,2,1,50,0,0
45981,-60.6060606060606,4,2,1,50,0,0
46023,-285.714285714286,4,2,1,50,0,0
46064,-100,4,2,1,50,0,0
46648,-48.0769230769231,4,2,1,50,0,0
46773,-285.714285714286,4,2,1,50,0,0
46981,-60.6060606060606,4,2,1,50,0,0
47002,-285.714285714286,4,2,1,50,0,0
47023,-60.6060606060606,4,2,1,50,0,0
47044,-285.714285714286,4,2,1,50,0,0
47064,-60.6060606060606,4,2,1,50,0,0
47085,-285.714285714286,4,2,1,50,0,0
47106,-60.6060606060606,4,2,1,50,0,0
47127,-285.714285714286,4,2,1,50,0,0
47148,-60.6060606060606,4,2,1,50,0,0
47169,-285.714285714286,4,2,1,50,0,0
47189,-60.6060606060606,4,2,1,50,0,0
47210,-285.714285714286,4,2,1,50,0,0
47231,-60.6060606060606,4,2,1,50,0,0
47252,-285.714285714286,4,2,1,50,0,0
47273,-60.6060606060606,4,2,1,50,0,0
47294,-285.714285714286,4,2,1,50,0,0
47314,-60.6060606060606,4,2,1,50,0,0
47356,-285.714285714286,4,2,1,50,0,0
47397,-100,4,2,1,50,0,0
47981,-60.6060606060606,4,2,1,50,0,0
48023,-285.714285714286,4,2,1,50,0,0
48064,-100,4,2,1,50,0,0
48648,-60.6060606060606,4,2,1,50,0,0
48690,-285.714285714286,4,2,1,50,0,0
48731,-100,4,2,1,50,0,0
49314,-60.6060606060606,4,2,1,50,0,0
49439,-285.714285714286,4,2,1,50,0,0
49564,-100,4,2,1,50,0,0
49648,-60.6060606060606,4,2,1,50,0,0
49773,-285.714285714286,4,2,1,50,0,0
49898,-100,4,2,1,50,0,0
49981,-60.6060606060606,4,2,1,50,0,0
50023,-285.714285714286,4,2,1,50,0,0
50064,-100,4,2,1,50,0,0
50148,-60.6060606060606,4,2,1,50,0,0
50314,-285.714285714286,4,2,1,50,0,0
50481,-60.6060606060606,4,2,1,50,0,0
50648,-285.714285714286,4,2,1,50,0,0
50814,-60.6060606060606,4,2,1,50,0,0
50898,-285.714285714286,4,2,1,50,0,0
50981,-60.6060606060606,4,2,1,50,0,0
51064,-285.714285714286,4,2,1,50,0,0
51148,-60.6060606060606,4,2,1,50,0,0
51231,-285.714285714286,4,2,1,50,0,0
51314,-60.6060606060606,4,2,1,50,0,0
51356,-285.714285714286,4,2,1,50,0,0
51397,-100,4,2,1,50,0,0
51481,-37.7358490566038,4,2,1,50,0,0
51502,-222.222222222222,4,2,1,50,0,0
51564,-37.7358490566038,4,2,1,50,0,0
51585,-222.222222222222,4,2,1,50,0,0
51648,-37.7358490566038,4,2,1,50,0,0
51669,-222.222222222222,4,2,1,50,0,0
51731,-37.7358490566038,4,2,1,50,0,0
51752,-222.222222222222,4,2,1,50,0,0
51814,-37.7358490566038,4,2,1,50,0,0
51835,-222.222222222222,4,2,1,50,0,0
51898,-37.7358490566038,4,2,1,50,0,0
51919,-222.222222222222,4,2,1,50,0,0
51981,-100,4,2,1,50,0,0
63981,-29.4117647058824,4,2,1,50,0,0
64002,-500,4,2,1,50,0,0
64064,-100,4,2,1,50,0,0
64231,-29.4117647058824,4,2,1,50,0,0
64252,-500,4,2,1,50,0,0
64314,-100,4,2,1,50,0,0
64481,-29.4117647058824,4,2,1,50,0,0
64502,-500,4,2,1,50,0,0
64564,-100,4,2,1,50,0,0
64648,-29.4117647058824,4,2,1,50,0,0
64669,-500,4,2,1,50,0,0
64731,-100,4,2,1,50,0,0
64898,-29.4117647058824,4,2,1,50,0,0
64919,-500,4,2,1,50,0,0
64981,-100,4,2,1,50,0,0
65148,-29.4117647058824,4,2,1,50,0,0
65169,-500,4,2,1,50,0,0
65231,-100,4,2,1,50,0,0
65314,-100,4,2,1,50,0,0
70648,-40,4,2,1,50,0,0
70732,-200,4,2,1,50,0,0
70981,-66.6666666666667,4,2,1,50,0,0
71023,-200,4,2,1,50,0,0
71064,-100,4,2,1,50,0,0
71231,-66.6666666666667,4,2,1,50,0,0
71273,-200,4,2,1,50,0,0
71314,-100,4,2,1,50,0,0
71398,-66.6666666666667,4,2,1,50,0,0
71440,-200,4,2,1,50,0,0
71481,-66.6666666666667,4,2,1,50,0,0
71523,-200,4,2,1,50,0,0
71564,-100,4,2,1,50,0,0
71731,-66.6666666666667,4,2,1,50,0,0
71773,-200,4,2,1,50,0,0
71814,-100,4,2,1,50,0,0
71898,-66.6666666666667,4,2,1,50,0,0
71940,-200,4,2,1,50,0,0
71981,-66.6666666666667,4,2,1,50,0,0
72023,-200,4,2,1,50,0,0
72064,-100,4,2,1,50,0,0
72148,-66.6666666666667,4,2,1,50,0,0
72190,-200,4,2,1,50,0,0
72231,-100,4,2,1,50,0,0
72314,-66.6666666666667,4,2,1,50,0,0
72356,-200,4,2,1,50,0,0
72397,-100,4,2,1,50,0,0
72564,-66.6666666666667,4,2,1,50,0,0
72606,-200,4,2,1,50,0,0
72647,-100,4,2,1,50,0,0
72731,-66.6666666666667,4,2,1,50,0,0
72773,-200,4,2,1,50,0,0
72814,-66.6666666666667,4,2,1,50,0,0
72856,-200,4,2,1,50,0,0
72897,-100,4,2,1,50,0,0
73064,-66.6666666666667,4,2,1,50,0,0
73106,-200,4,2,1,50,0,0
73147,-100,4,2,1,50,0,0
73231,-66.6666666666667,4,2,1,50,0,0
73273,-200,4,2,1,50,0,0
73314,-40,4,2,1,50,0,0
73398,-200,4,2,1,50,0,0
73648,-66.6666666666667,4,2,1,50,0,0
73690,-200,4,2,1,50,0,0
73731,-100,4,2,1,50,0,0
73898,-66.6666666666667,4,2,1,50,0,0
73940,-200,4,2,1,50,0,0
73981,-100,4,2,1,50,0,0
74065,-66.6666666666667,4,2,1,50,0,0
74107,-200,4,2,1,50,0,0
74148,-66.6666666666667,4,2,1,50,0,0
74190,-200,4,2,1,50,0,0
74231,-100,4,2,1,50,0,0
74398,-66.6666666666667,4,2,1,50,0,0
74440,-200,4,2,1,50,0,0
74481,-100,4,2,1,50,0,0
74565,-66.6666666666667,4,2,1,50,0,0
74607,-200,4,2,1,50,0,0
74648,-100,4,2,1,50,0,0
102648,-40,4,2,1,50,0,0
102669,-200,4,2,1,50,0,0
102731,-100,4,2,1,50,0,0
102814,-40,4,2,1,50,0,0
102835,-200,4,2,1,50,0,0
102897,-100,4,2,1,50,0,0
102981,-40,4,2,1,50,0,0
103002,-200,4,2,1,50,0,0
103064,-100,4,2,1,50,0,0
103147,-40,4,2,1,50,0,0
103168,-200,4,2,1,50,0,0
103230,-100,4,2,1,50,0,0
103314,-40,4,2,1,50,0,0
103335,-200,4,2,1,50,0,0
103397,-100,4,2,1,50,0,0
103480,-40,4,2,1,50,0,0
103501,-200,4,2,1,50,0,0
103563,-100,4,2,1,50,0,0
103647,-40,4,2,1,50,0,0
103668,-200,4,2,1,50,0,0
103730,-100,4,2,1,50,0,0
103813,-40,4,2,1,50,0,0
103834,-200,4,2,1,50,0,0
103896,-100,4,2,1,50,0,0
103980,-40,4,2,1,50,0,0
104001,-200,4,2,1,50,0,0
104063,-100,4,2,1,50,0,0
104146,-40,4,2,1,50,0,0
104167,-200,4,2,1,50,0,0
104229,-100,4,2,1,50,0,0
104313,-40,4,2,1,50,0,0
104334,-200,4,2,1,50,0,0
104396,-100,4,2,1,50,0,0
104479,-40,4,2,1,50,0,0
104500,-200,4,2,1,50,0,0
104562,-100,4,2,1,50,0,0
104646,-40,4,2,1,50,0,0
104667,-200,4,2,1,50,0,0
104729,-100,4,2,1,50,0,0
104812,-40,4,2,1,50,0,0
104833,-200,4,2,1,50,0,0
104895,-100,4,2,1,50,0,0
104979,-40,4,2,1,50,0,0
105000,-200,4,2,1,50,0,0
105062,-100,4,2,1,50,0,0
105145,-40,4,2,1,50,0,0
105166,-200,4,2,1,50,0,0
105228,-100,4,2,1,50,0,0
105314,-66.6666666666667,4,2,1,50,0,0
105356,-200,4,2,1,50,0,0
105398,-66.6666666666667,4,2,1,50,0,0
105439,-200,4,2,1,50,0,0
105481,-66.6666666666667,4,2,1,50,0,0
105523,-200,4,2,1,50,0,0
105564,-66.6666666666667,4,2,1,50,0,0
105606,-200,4,2,1,50,0,0
105648,-66.6666666666667,4,2,1,50,0,0
105689,-200,4,2,1,50,0,0
105731,-66.6666666666667,4,2,1,50,0,0
105773,-200,4,2,1,50,0,0
105814,-66.6666666666667,4,2,1,50,0,0
105856,-200,4,2,1,50,0,0
105898,-66.6666666666667,4,2,1,50,0,0
105939,-200,4,2,1,50,0,0
105981,-66.6666666666667,4,2,1,50,0,0
106023,-200,4,2,1,50,0,0
106064,-66.6666666666667,4,2,1,50,0,0
106106,-200,4,2,1,50,0,0
106148,-66.6666666666667,4,2,1,50,0,0
106189,-200,4,2,1,50,0,0
106231,-66.6666666666667,4,2,1,50,0,0
106273,-200,4,2,1,50,0,0
106314,-66.6666666666667,4,2,1,50,0,0
106356,-200,4,2,1,50,0,0
106398,-66.6666666666667,4,2,1,50,0,0
106439,-200,4,2,1,50,0,0
106481,-66.6666666666667,4,2,1,50,0,0
106523,-200,4,2,1,50,0,0
106564,-66.6666666666667,4,2,1,50,0,0
106606,-200,4,2,1,50,0,0
106648,-100,4,2,1,50,0,0
108314,-66.6666666666667,4,2,1,50,0,0
108356,-200,4,2,1,50,0,0
108397,-100,4,2,1,50,0,0
108564,-66.6666666666667,4,2,1,50,0,0
108606,-200,4,2,1,50,0,0
108647,-100,4,2,1,50,0,0
108731,-66.6666666666667,4,2,1,50,0,0
108773,-200,4,2,1,50,0,0
108814,-66.6666666666667,4,2,1,50,0,0
108856,-200,4,2,1,50,0,0
108897,-100,4,2,1,50,0,0
109064,-66.6666666666667,4,2,1,50,0,0
109106,-200,4,2,1,50,0,0
109147,-100,4,2,1,50,0,0
109231,-66.6666666666667,4,2,1,50,0,0
109273,-200,4,2,1,50,0,0
109314,-66.6666666666667,4,2,1,50,0,0
109356,-200,4,2,1,50,0,0
109397,-100,4,2,1,50,0,0
109481,-66.6666666666667,4,2,1,50,0,0
109523,-200,4,2,1,50,0,0
109564,-100,4,2,1,50,0,0
109647,-66.6666666666667,4,2,1,50,0,0
109689,-200,4,2,1,50,0,0
109730,-100,4,2,1,50,0,0
109897,-66.6666666666667,4,2,1,50,0,0
109939,-200,4,2,1,50,0,0
109980,-100,4,2,1,50,0,0
110064,-66.6666666666667,4,2,1,50,0,0
110106,-200,4,2,1,50,0,0
110147,-66.6666666666667,4,2,1,50,0,0
110189,-200,4,2,1,50,0,0
110230,-100,4,2,1,50,0,0
110314,-66.6666666666667,4,2,1,50,0,0
110356,-200,4,2,1,50,0,0
110398,-66.6666666666667,4,2,1,50,0,0
110440,-200,4,2,1,50,0,0
110481,-66.6666666666667,4,2,1,50,0,0
110523,-200,4,2,1,50,0,0
110564,-66.6666666666667,4,2,1,50,0,0
110606,-200,4,2,1,50,0,0
110648,-100,4,2,1,50,0,1
110981,-30.7692307692308,4,2,1,50,0,1
111002,-400,4,2,1,50,0,1
111064,-100,4,2,1,50,0,1
111648,-30.7692307692308,4,2,1,50,0,1
111669,-400,4,2,1,50,0,1
111731,-100,4,2,1,50,0,1
112314,-30.7692307692308,4,2,1,50,0,1
112335,-400,4,2,1,50,0,1
112397,-100,4,2,1,50,0,1
112981,-30.7692307692308,4,2,1,50,0,1
113002,-400,4,2,1,50,0,1
113064,-100,4,2,1,50,0,1
113648,-30.7692307692308,4,2,1,50,0,1
113669,-400,4,2,1,50,0,1
113731,-100,4,2,1,50,0,1
114314,-30.7692307692308,4,2,1,50,0,1
114335,-400,4,2,1,50,0,1
114397,-100,4,2,1,50,0,1
114981,-30.7692307692308,4,2,1,50,0,1
115002,-400,4,2,1,50,0,1
115064,-100,4,2,1,50,0,1
115648,-30.7692307692308,4,2,1,50,0,1
115669,-400,4,2,1,50,0,1
115731,-100,4,2,1,50,0,1
116314,-30.7692307692308,4,2,1,50,0,1
116335,-400,4,2,1,50,0,1
116397,-100,4,2,1,50,0,1
116814,-30.7692307692308,4,2,1,50,0,1
116835,-400,4,2,1,50,0,1
116897,-100,4,2,1,50,0,1
117148,-30.7692307692308,4,2,1,50,0,1
117169,-400,4,2,1,50,0,1
117231,-100,4,2,1,50,0,1
117314,-60.6060606060606,4,2,1,50,0,1
117439,-285.714285714286,4,2,1,50,0,1
117564,-60.6060606060606,4,2,1,50,0,1
117689,-285.714285714286,4,2,1,50,0,1
117814,-60.6060606060606,4,2,1,50,0,1
117856,-285.714285714286,4,2,1,50,0,1
117898,-100,4,2,1,50,0,1
118148,-60.6060606060606,4,2,1,50,0,1
118189,-285.714285714286,4,2,1,50,0,1
118231,-100,4,2,1,50,0,1
120981,-30.7692307692308,4,2,1,50,0,1
121002,-400,4,2,1,50,0,1
121064,-100,4,2,1,50,0,1
123648,-30.7692307692308,4,2,1,50,0,1
123669,-400,4,2,1,50,0,1
123731,-100,4,2,1,50,0,1
123981,-40,4,2,1,50,0,1
124002,-200,4,2,1,50,0,1
124064,-100,4,2,1,50,0,1
124148,-40,4,2,1,50,0,1
124169,-200,4,2,1,50,0,1
124231,-100,4,2,1,50,0,1
124314,-40,4,2,1,50,0,1
124335,-200,4,2,1,50,0,1
124398,-100,4,2,1,50,0,1
124481,-40,4,2,1,50,0,1
124502,-200,4,2,1,50,0,1
124564,-100,4,2,1,50,0,1
124648,-40,4,2,1,50,0,1
124669,-200,4,2,1,50,0,1
124731,-100,4,2,1,50,0,1
124814,-40,4,2,1,50,0,1
124835,-200,4,2,1,50,0,1
124898,-100,4,2,1,50,0,1
124981,-40,4,2,1,50,0,1
125002,-200,4,2,1,50,0,1
125064,-100,4,2,1,50,0,1
125148,-40,4,2,1,50,0,1
125169,-200,4,2,1,50,0,1
125231,-100,4,2,1,50,0,1
125314,-40,4,2,1,50,0,1
125335,-200,4,2,1,50,0,1
125398,-100,4,2,1,50,0,1
125481,-40,4,2,1,50,0,1
125502,-200,4,2,1,50,0,1
125564,-100,4,2,1,50,0,1
125648,-40,4,2,1,50,0,1
125669,-200,4,2,1,50,0,1
125731,-100,4,2,1,50,0,1
125814,-40,4,2,1,50,0,1
125835,-200,4,2,1,50,0,1
125898,-100,4,2,1,50,0,1
125981,-40,4,2,1,50,0,1
126002,-200,4,2,1,50,0,1
126064,-100,4,2,1,50,0,1
126148,-40,4,2,1,50,0,1
126169,-200,4,2,1,50,0,1
126231,-100,4,2,1,50,0,1
126314,-40,4,2,1,50,0,1
126335,-200,4,2,1,50,0,1
126398,-100,4,2,1,50,0,1
126481,-40,4,2,1,50,0,1
126502,-200,4,2,1,50,0,1
126564,-100,4,2,1,50,0,1
126648,-66.6666666666667,4,2,1,50,0,1
126689,-200,4,2,1,50,0,1
126731,-66.6666666666667,4,2,1,50,0,1
126773,-200,4,2,1,50,0,1
126814,-66.6666666666667,4,2,1,50,0,1
126856,-200,4,2,1,50,0,1
126898,-66.6666666666667,4,2,1,50,0,1
126939,-200,4,2,1,50,0,1
126981,-66.6666666666667,4,2,1,50,0,1
127023,-200,4,2,1,50,0,1
127064,-66.6666666666667,4,2,1,50,0,1
127106,-200,4,2,1,50,0,1
127148,-66.6666666666667,4,2,1,50,0,1
127189,-200,4,2,1,50,0,1
127231,-66.6666666666667,4,2,1,50,0,1
127273,-200,4,2,1,50,0,1
127314,-66.6666666666667,4,2,1,50,0,1
127356,-200,4,2,1,50,0,1
127398,-66.6666666666667,4,2,1,50,0,1
127439,-200,4,2,1,50,0,1
127481,-66.6666666666667,4,2,1,50,0,1
127523,-200,4,2,1,50,0,1
127564,-66.6666666666667,4,2,1,50,0,1
127606,-200,4,2,1,50,0,1
127648,-66.6666666666667,4,2,1,50,0,1
127689,-200,4,2,1,50,0,1
127731,-66.6666666666667,4,2,1,50,0,1
127773,-200,4,2,1,50,0,1
127814,-66.6666666666667,4,2,1,50,0,1
127856,-200,4,2,1,50,0,1
127898,-66.6666666666667,4,2,1,50,0,1
127939,-200,4,2,1,50,0,1
127981,-100,4,2,1,50,0,1
129314,-100,4,2,1,50,0,0
129315,-100,4,2,1,50,0,0

[HitObjects]
192,192,981,5,0,0:0:0:0:
64,192,1065,1,0,0:0:0:0:
192,192,1148,1,0,0:0:0:0:
320,192,1231,1,0,0:0:0:0:
448,192,1315,1,0,0:0:0:70:Cymbal.wav
192,192,1315,1,0,0:0:0:0:
64,192,1315,1,0,0:0:0:70:Kick.wav
320,192,1648,128,0,1814:0:0:0:0:
320,192,1981,1,0,0:0:0:0:
320,192,2231,1,0,0:0:0:0:
192,192,2731,1,0,0:0:0:0:
192,192,2981,1,0,0:0:0:0:
192,192,3231,1,0,0:0:0:0:
448,192,3314,1,0,0:0:0:0:
448,192,3731,1,0,0:0:0:0:
320,192,3898,1,0,0:0:0:0:
192,192,4064,1,0,0:0:0:0:
64,192,4314,128,0,4481:0:0:0:0:
64,192,4648,1,0,0:0:0:0:
64,192,4898,1,0,0:0:0:0:
448,192,5398,1,0,0:0:0:0:
192,192,5564,1,0,0:0:0:0:
448,192,5648,1,0,0:0:0:0:
448,192,5898,1,0,0:0:0:0:
192,192,5981,1,0,0:0:0:0:
64,192,6064,1,0,0:0:0:0:
320,192,6148,1,0,0:0:0:0:
192,192,6231,1,0,0:0:0:0:
192,192,6398,1,0,0:0:0:0:
320,192,6481,1,0,0:0:0:0:
64,192,6564,1,0,0:0:0:0:
192,192,6648,1,0,0:0:0:0:
448,192,6648,1,0,0:0:0:0:
448,192,6814,1,0,0:0:0:0:
64,192,6981,1,0,0:0:0:0:
192,192,6981,1,0,0:0:0:0:
320,192,7148,1,0,0:0:0:0:
64,192,7231,1,0,0:0:0:0:
192,192,7231,1,0,0:0:0:0:
192,192,7398,1,0,0:0:0:0:
320,192,7481,1,0,0:0:0:0:
448,192,7481,1,0,0:0:0:0:
448,192,7648,1,0,0:0:0:0:
320,192,7731,1,0,0:0:0:0:
64,192,7731,1,0,0:0:0:0:
192,192,7814,1,0,0:0:0:0:
448,192,7898,1,0,0:0:0:0:
192,192,7981,1,0,0:0:0:0:
320,192,8064,1,0,0:0:0:0:
64,192,8148,1,0,0:0:0:0:
448,192,8231,1,0,0:0:0:0:
320,192,8314,1,0,0:0:0:0:
64,192,8314,1,0,0:0:0:0:
64,192,8481,1,0,0:0:0:0:
448,192,8564,1,0,0:0:0:0:
192,192,8564,1,0,0:0:0:0:
192,192,8731,1,0,0:0:0:0:
448,192,8814,1,0,0:0:0:0:
320,192,8814,1,0,0:0:0:0:
320,192,8981,1,0,0:0:0:0:
64,192,9064,1,0,0:0:0:0:
448,192,9064,1,0,0:0:0:0:
192,192,9148,1,0,0:0:0:0:
320,192,9231,1,0,0:0:0:0:
192,192,9314,1,0,0:0:0:0:
64,192,9314,1,0,0:0:0:0:
320,192,9481,1,0,0:0:0:0:
192,192,9564,1,0,0:0:0:0:
448,192,9648,1,0,0:0:0:0:
64,192,9648,1,0,0:0:0:0:
448,192,9814,1,0,0:0:0:0:
64,192,9898,1,0,0:0:0:0:
320,192,9898,1,0,0:0:0:0:
320,192,10064,1,0,0:0:0:0:
192,192,10148,1,0,0:0:0:0:
64,192,10148,1,0,0:0:0:0:
192,192,10314,1,0,0:0:0:0:
448,192,10398,1,0,0:0:0:0:
64,192,10398,1,0,0:0:0:0:
320,192,10481,1,0,0:0:0:0:
192,192,10564,1,0,0:0:0:0:
448,192,10648,1,0,0:0:0:0:
320,192,10731,1,0,0:0:0:0:
448,192,10814,1,0,0:0:0:0:
192,192,10898,1,0,0:0:0:0:
320,192,10981,1,0,0:0:0:0:
448,192,10981,1,0,0:0:0:0:
320,192,11148,1,0,0:0:0:0:
192,192,11231,1,0,0:0:0:0:
64,192,11231,1,0,0:0:0:0:
448,192,11314,1,0,0:0:0:0:
64,192,11398,1,0,0:0:0:0:
192,192,11481,1,0,0:0:0:0:
448,192,11564,1,0,0:0:0:0:
320,192,11564,1,0,0:0:0:0:
192,192,11648,1,0,0:0:0:0:
64,192,11731,1,0,0:0:0:0:
448,192,11731,1,0,0:0:0:0:
320,192,11814,1,0,0:0:0:0:
192,192,11898,1,0,0:0:0:0:
320,192,11981,1,0,0:0:0:70:Cymbal.wav
448,192,11981,128,0,12814:0:0:0:0:
64,192,11981,128,0,14481:0:0:0:70:Kick.wav
320,192,12481,128,0,12814:0:0:0:0:
192,192,12814,1,0,0:0:0:0:
320,192,12981,1,0,0:0:0:0:
448,192,13148,128,0,14481:0:0:0:0:
192,192,13981,128,0,14481:0:0:0:0:
320,192,14648,128,0,17148:0:0:0:0:
192,192,14648,128,0,15814:0:0:0:0:
448,192,15148,128,0,15814:0:0:0:0:
64,192,15814,128,0,17148:0:0:0:0:
192,192,16148,128,0,17148:0:0:0:0:
448,192,16648,128,0,17148:0:0:0:0:
448,192,17314,128,0,19814:0:0:0:0:
192,192,17314,128,0,18314:0:0:0:0:
64,192,17314,1,0,0:0:0:70:Cymbal.wav
64,192,17814,128,0,18314:0:0:0:0:
320,192,18314,1,0,0:0:0:0:
192,192,18481,128,0,19314:0:0:0:0:
64,192,18814,128,0,19314:0:0:0:0:
320,192,19314,1,0,0:0:0:0:
64,192,19481,128,0,19814:0:0:0:0:
192,192,19814,1,0,0:0:0:0:
320,192,19981,128,0,22481:0:0:0:0:
448,192,19981,128,0,20814:0:0:0:0:
64,192,19981,1,0,0:0:0:0:
192,192,20481,128,0,20814:0:0:0:0:
64,192,20814,1,0,0:0:0:0:
192,192,20981,1,0,0:0:0:0:
448,192,21148,128,0,22481:0:0:0:0:
64,192,21481,128,0,22481:0:0:0:0:
192,192,21981,128,0,22481:0:0:0:0:
448,192,22648,1,0,0:0:0:70:Kick.wav
320,192,22648,1,0,0:0:0:0:
192,192,22648,1,0,0:0:0:0:
64,192,22648,1,0,0:0:0:70:Cymbal.wav
448,192,22981,1,0,0:0:0:0:
192,192,22981,1,0,0:0:0:0:
64,192,23231,1,0,0:0:0:0:
320,192,23231,1,0,0:0:0:0:
64,192,23398,1,0,0:0:0:0:
192,192,23398,1,0,0:0:0:0:
64,192,23481,1,0,0:0:0:0:
320,192,23481,1,0,0:0:0:0:
320,192,23648,1,0,0:0:0:0:
64,192,23731,1,0,0:0:0:0:
448,192,23731,1,0,0:0:0:0:
192,192,23814,1,0,0:0:0:0:
64,192,23898,1,0,0:0:0:0:
320,192,23898,1,0,0:0:0:0:
448,192,23981,1,0,0:0:0:0:
448,192,24148,1,0,0:0:0:0:
192,192,24314,1,0,0:0:0:0:
64,192,24314,1,0,0:0:0:0:
192,192,24564,1,0,0:0:0:0:
64,192,24564,1,0,0:0:0:0:
192,192,24731,1,0,0:0:0:0:
64,192,24731,1,0,0:0:0:0:
192,192,24814,1,0,0:0:0:0:
448,192,24814,1,0,0:0:0:0:
320,192,24981,1,0,0:0:0:0:
192,192,25064,1,0,0:0:0:0:
64,192,25064,1,0,0:0:0:0:
448,192,25148,1,0,0:0:0:0:
192,192,25231,1,0,0:0:0:0:
320,192,25231,1,0,0:0:0:0:
64,192,25314,1,0,0:0:0:0:
320,192,25648,1,0,0:0:0:0:
64,192,25648,1,0,0:0:0:0:
320,192,25898,1,0,0:0:0:0:
448,192,25898,1,0,0:0:0:0:
64,192,25981,1,0,0:0:0:0:
320,192,26064,1,0,0:0:0:0:
448,192,26064,1,0,0:0:0:0:
320,192,26148,1,0,0:0:0:0:
64,192,26148,1,0,0:0:0:0:
192,192,26314,1,0,0:0:0:0:
320,192,26398,1,0,0:0:0:0:
448,192,26398,1,0,0:0:0:0:
64,192,26481,1,0,0:0:0:0:
320,192,26564,1,0,0:0:0:0:
448,192,26564,1,0,0:0:0:0:
64,192,26648,1,0,0:0:0:0:
64,192,26814,1,0,0:0:0:0:
448,192,26981,1,0,0:0:0:0:
192,192,26981,1,0,0:0:0:0:
448,192,27231,1,0,0:0:0:0:
320,192,27231,1,0,0:0:0:0:
448,192,27398,1,0,0:0:0:0:
192,192,27398,1,0,0:0:0:0:
448,192,27481,1,0,0:0:0:0:
64,192,27481,1,0,0:0:0:0:
320,192,27648,1,0,0:0:0:0:
448,192,27731,1,0,0:0:0:0:
64,192,27731,1,0,0:0:0:0:
192,192,27814,1,0,0:0:0:0:
448,192,27898,1,0,0:0:0:0:
64,192,27898,1,0,0:0:0:0:
320,192,27981,1,0,0:0:0:0:
448,192,28314,1,0,0:0:0:0:
320,192,28314,1,0,0:0:0:0:
64,192,28481,1,0,0:0:0:0:
448,192,28564,1,0,0:0:0:0:
320,192,28564,1,0,0:0:0:0:
320,192,28731,1,0,0:0:0:0:
64,192,28731,1,0,0:0:0:0:
448,192,28814,1,0,0:0:0:0:
320,192,28814,1,0,0:0:0:0:
192,192,28981,1,0,0:0:0:0:
448,192,29064,1,0,0:0:0:0:
320,192,29064,1,0,0:0:0:0:
64,192,29148,1,0,0:0:0:0:
448,192,29231,1,0,0:0:0:0:
320,192,29231,1,0,0:0:0:0:
64,192,29314,1,0,0:0:0:0:
64,192,29481,1,0,0:0:0:0:
192,192,29648,1,0,0:0:0:0:
448,192,29648,1,0,0:0:0:0:
192,192,29898,1,0,0:0:0:0:
448,192,29898,1,0,0:0:0:0:
192,192,30064,1,0,0:0:0:0:
448,192,30064,1,0,0:0:0:0:
192,192,30148,1,0,0:0:0:0:
64,192,30148,1,0,0:0:0:0:
64,192,30314,1,0,0:0:0:0:
448,192,30398,1,0,0:0:0:0:
320,192,30398,1,0,0:0:0:0:
64,192,30481,1,0,0:0:0:0:
320,192,30564,1,0,0:0:0:0:
448,192,30564,1,0,0:0:0:0:
64,192,30648,128,0,31981:0:0:0:70:Kick.wav
192,192,30648,128,0,31314:0:0:0:70:Cymbal.wav
448,192,31314,1,0,0:0:0:0:
320,192,31398,1,0,0:0:0:0:
192,192,31481,1,0,0:0:0:0:
448,192,31564,1,0,0:0:0:0:
320,192,31648,1,0,0:0:0:0:
448,192,31731,1,0,0:0:0:0:
192,192,31814,1,0,0:0:0:0:
320,192,31898,1,0,0:0:0:0:
448,192,31981,128,0,32648:0:0:0:0:
192,192,32064,1,0,0:0:0:0:
64,192,32148,1,0,0:0:0:0:
320,192,32231,1,0,0:0:0:0:
192,192,32314,1,0,0:0:0:0:
64,192,32398,1,0,0:0:0:0:
192,192,32481,1,0,0:0:0:0:
320,192,32564,1,0,0:0:0:0:
64,192,32648,1,0,0:0:0:70:Kick.wav
192,192,32648,1,0,0:0:0:0:
448,192,32814,1,0,0:0:0:0:
320,192,32814,1,0,0:0:0:70:Kick.wav
64,192,32898,1,0,0:0:0:70:Kick.wav
192,192,32939,1,0,0:0:0:70:Kick.wav
320,192,32981,1,0,0:0:0:70:Kick.wav
448,192,32981,1,0,0:0:0:0:
192,192,33064,1,0,0:0:0:70:Kick.wav
64,192,33148,1,0,0:0:0:70:Kick.wav
448,192,33148,1,0,0:0:0:0:
320,192,33231,1,0,0:0:0:70:Kick.wav
448,192,33314,1,0,0:0:0:70:Cymbal.wav
192,192,33314,128,0,33564:0:0:0:70:Kick.wav
64,192,33314,128,0,33564:0:0:0:0:
448,192,33481,128,0,33898:0:0:0:0:
320,192,33648,128,0,33898:0:0:0:0:
64,192,33648,128,0,33898:0:0:0:0:
192,192,33981,1,0,0:0:0:70:snare.wav
64,192,33981,1,0,0:0:0:0:
320,192,33981,1,0,0:0:0:0:
448,192,33981,1,0,0:0:0:0:
448,192,34148,128,0,34231:0:0:0:0:
320,192,34314,128,0,34398:0:0:0:0:
64,192,34314,128,0,34398:0:0:0:0:
64,192,34481,128,0,35064:0:0:0:70:Cymbal.wav
192,192,34481,128,0,35064:0:0:0:70:Kick.wav
448,192,34481,128,0,35148:0:0:0:0:
320,192,34481,1,0,0:0:0:0:
192,192,35148,1,0,0:0:0:0:
64,192,35148,1,0,0:0:0:70:Kick.wav
320,192,35314,1,0,0:0:0:0:
448,192,35314,1,0,0:0:0:70:snare.wav
192,192,35314,1,0,0:0:0:0:
64,192,35314,1,0,0:0:0:0:
448,192,35481,1,0,0:0:0:70:Kick.wav
320,192,35481,1,0,0:0:0:0:
320,192,35648,1,0,0:0:0:70:Kick.wav
192,192,35648,1,0,0:0:0:0:
192,192,35814,1,0,0:0:0:70:Kick.wav
64,192,35814,1,0,0:0:0:0:
448,192,35981,128,0,36481:0:0:0:70:Kick.wav
192,192,35981,128,0,36314:0:0:0:0:
64,192,35981,1,0,0:0:0:0:
320,192,35981,128,0,36398:0:0:0:0:
64,192,36314,1,0,0:0:0:0:
64,192,36481,1,0,0:0:0:0:
192,192,36481,1,0,0:0:0:70:Kick.wav
320,192,36564,1,0,0:0:0:70:Kick.wav
448,192,36564,1,0,0:0:0:0:
448,192,36648,1,0,0:0:0:70:snare.wav
192,192,36648,128,0,36814:0:0:0:0:
64,192,36648,128,0,36814:0:0:0:0:
320,192,36648,1,0,0:0:0:0:
448,192,36898,128,0,37064:0:0:0:0:
192,192,36981,128,0,37064:0:0:0:0:
64,192,36981,128,0,37064:0:0:0:0:
64,192,37148,128,0,37231:0:0:0:0:
192,192,37148,128,0,37231:0:0:0:0:
320,192,37314,128,0,37481:0:0:0:0:
448,192,37314,128,0,37481:0:0:0:0:
64,192,37314,1,0,0:0:0:70:Kick.wav
64,192,37564,128,0,37731:0:0:0:0:
320,192,37648,128,0,37731:0:0:0:0:
448,192,37648,128,0,37731:0:0:0:0:
320,192,37814,128,0,37898:0:0:0:0:
448,192,37814,128,0,37898:0:0:0:0:
64,192,37814,1,0,0:0:0:70:Kick.wav
448,192,37981,1,0,0:0:0:70:snare.wav
192,192,37981,128,0,38148:0:0:0:0:
64,192,37981,128,0,38148:0:0:0:0:
320,192,37981,1,0,0:0:0:0:
448,192,38231,128,0,38398:0:0:0:0:
64,192,38314,128,0,38398:0:0:0:0:
192,192,38314,128,0,38398:0:0:0:0:
64,192,38481,128,0,38564:0:0:0:0:
192,192,38481,128,0,38564:0:0:0:0:
192,192,38648,1,0,0:0:0:70:Kick.wav
320,192,38648,128,0,38898:0:0:0:0:
448,192,38648,128,0,38898:0:0:0:0:
64,192,38648,1,0,0:0:0:70:Cymbal.wav
64,192,38814,128,0,39231:0:0:0:0:
192,192,38981,128,0,39231:0:0:0:0:
448,192,38981,128,0,39231:0:0:0:0:
320,192,39314,1,0,0:0:0:70:snare.wav
448,192,39314,1,0,0:0:0:0:
192,192,39314,1,0,0:0:0:0:
64,192,39314,1,0,0:0:0:0:
64,192,39481,128,0,39564:0:0:0:0:
192,192,39648,128,0,39731:0:0:0:0:
448,192,39648,128,0,39731:0:0:0:0:
64,192,39814,128,0,40564:0:0:0:70:Cymbal.wav
192,192,39814,128,0,40564:0:0:0:70:Kick.wav
448,192,39814,1,0,0:0:0:0:
320,192,39814,1,0,0:0:0:0:
320,192,40314,128,0,40564:0:0:0:70:Kick.wav
448,192,40314,128,0,40564:0:0:0:0:
192,192,40648,1,0,0:0:0:0:
64,192,40648,1,0,0:0:0:0:
320,192,40648,1,0,0:0:0:70:snare.wav
448,192,40648,1,0,0:0:0:0:
192,192,40814,1,0,0:0:0:70:Kick.wav
64,192,40814,1,0,0:0:0:0:
192,192,40898,1,0,0:0:0:70:Kick.wav
64,192,40898,1,0,0:0:0:0:
320,192,40981,1,0,0:0:0:70:Kick.wav
448,192,40981,1,0,0:0:0:0:
320,192,41064,1,0,0:0:0:70:Kick.wav
448,192,41064,1,0,0:0:0:0:
192,192,41148,1,0,0:0:0:70:Kick.wav
64,192,41148,1,0,0:0:0:0:
64,192,41314,128,0,41814:0:0:0:0:
320,192,41314,128,0,41648:0:0:0:0:
448,192,41314,1,0,0:0:0:70:Kick.wav
192,192,41314,128,0,41731:0:0:0:0:
448,192,41648,1,0,0:0:0:0:
448,192,41814,1,0,0:0:0:0:
320,192,41814,1,0,0:0:0:70:Kick.wav
192,192,41898,1,0,0:0:0:70:Kick.wav
64,192,41898,1,0,0:0:0:0:
64,192,41981,1,0,0:0:0:0:
320,192,41981,128,0,42148:0:0:0:0:
448,192,41981,128,0,42148:0:0:0:0:
192,192,41981,1,0,0:0:0:70:snare.wav
64,192,42231,128,0,42398:0:0:0:0:
320,192,42314,128,0,42398:0:0:0:0:
448,192,42314,128,0,42398:0:0:0:0:
320,192,42481,1,0,0:0:0:0:
320,192,42564,1,0,0:0:0:0:
192,192,42648,128,0,42814:0:0:0:0:
64,192,42648,128,0,42814:0:0:0:0:
448,192,42648,1,0,0:0:0:70:Kick.wav
448,192,42898,128,0,43064:0:0:0:0:
192,192,42981,128,0,43064:0:0:0:0:
64,192,42981,128,0,43064:0:0:0:0:
448,192,43148,1,0,0:0:0:70:Kick.wav
192,192,43148,1,0,0:0:0:0:
192,192,43231,1,0,0:0:0:0:
64,192,43314,1,0,0:0:0:70:snare.wav
320,192,43314,128,0,43481:0:0:0:0:
448,192,43314,128,0,43481:0:0:0:0:
64,192,43564,128,0,43731:0:0:0:0:
448,192,43648,128,0,43731:0:0:0:0:
320,192,43648,128,0,43731:0:0:0:0:
320,192,43814,1,0,0:0:0:0:
320,192,43898,1,0,0:0:0:0:
192,192,43981,128,0,44231:0:0:0:70:Kick.wav
64,192,43981,128,0,44231:0:0:0:0:
448,192,43981,1,0,0:0:0:70:Cymbal.wav
448,192,44148,128,0,44564:0:0:0:0:
320,192,44314,128,0,44564:0:0:0:0:
64,192,44314,128,0,44564:0:0:0:0:
192,192,44648,1,0,0:0:0:70:snare.wav
64,192,44648,1,0,0:0:0:0:
320,192,44648,1,0,0:0:0:0:
448,192,44648,1,0,0:0:0:0:
448,192,44814,128,0,44898:0:0:0:0:
320,192,44981,128,0,45064:0:0:0:0:
64,192,44981,128,0,45064:0:0:0:0:
64,192,45148,128,0,45731:0:0:0:70:Cymbal.wav
192,192,45148,128,0,45731:0:0:0:70:Kick.wav
448,192,45148,128,0,45814:0:0:0:0:
320,192,45148,1,0,0:0:0:0:
64,192,45814,1,0,0:0:0:70:Kick.wav
320,192,45814,1,0,0:0:0:0:
320,192,45981,1,0,0:0:0:0:
448,192,45981,1,0,0:0:0:70:snare.wav
192,192,45981,1,0,0:0:0:0:
64,192,45981,1,0,0:0:0:0:
448,192,46148,1,0,0:0:0:70:Kick.wav
192,192,46148,1,0,0:0:0:0:
320,192,46314,1,0,0:0:0:70:Kick.wav
192,192,46314,1,0,0:0:0:0:
64,192,46481,1,0,0:0:0:0:
320,192,46481,1,0,0:0:0:70:Kick.wav
448,192,46648,128,0,46981:0:0:0:70:Kick.wav
320,192,46648,128,0,46981:0:0:0:0:
64,192,46648,1,0,0:0:0:0:
192,192,46648,1,0,0:0:0:0:
64,192,46981,1,0,0:0:0:0:
192,192,47023,1,0,0:0:0:0:
320,192,47064,1,0,0:0:0:0:
448,192,47106,1,0,0:0:0:0:
64,192,47148,1,0,0:0:0:0:
192,192,47189,1,0,0:0:0:0:
320,192,47231,1,0,0:0:0:0:
448,192,47273,1,0,0:0:0:0:
192,192,47314,128,0,47481:0:0:0:0:
64,192,47314,128,0,47481:0:0:0:70:snare.wav
448,192,47564,128,0,47731:0:0:0:0:
192,192,47648,128,0,47731:0:0:0:0:
64,192,47648,128,0,47731:0:0:0:0:
64,192,47814,128,0,47898:0:0:0:0:
192,192,47814,128,0,47898:0:0:0:0:
320,192,47981,128,0,48148:0:0:0:0:
448,192,47981,128,0,48148:0:0:0:0:
64,192,47981,1,0,0:0:0:70:Kick.wav
64,192,48231,128,0,48398:0:0:0:0:
320,192,48314,128,0,48398:0:0:0:0:
448,192,48314,128,0,48398:0:0:0:0:
320,192,48481,128,0,48564:0:0:0:0:
448,192,48481,128,0,48564:0:0:0:0:
64,192,48481,1,0,0:0:0:70:Kick.wav
448,192,48648,1,0,0:0:0:70:snare.wav
192,192,48648,128,0,48814:0:0:0:0:
64,192,48648,128,0,48814:0:0:0:0:
320,192,48648,1,0,0:0:0:0:
448,192,48898,128,0,49064:0:0:0:0:
64,192,48981,128,0,49064:0:0:0:0:
192,192,48981,128,0,49064:0:0:0:0:
64,192,49148,128,0,49231:0:0:0:0:
192,192,49148,128,0,49231:0:0:0:0:
64,192,49314,128,0,49898:0:0:0:0:
192,192,49314,1,0,0:0:0:0:
320,192,49314,128,0,49564:0:0:0:70:Kick.wav
448,192,49314,128,0,49564:0:0:0:70:Cymbal.wav
448,192,49648,128,0,49898:0:0:0:70:Cymbal.wav
192,192,49648,1,0,0:0:0:0:
320,192,49648,128,0,49898:0:0:0:70:Kick.wav
192,192,49981,1,0,0:0:0:70:snare.wav
448,192,49981,1,0,0:0:0:0:
64,192,49981,1,0,0:0:0:0:
320,192,49981,1,0,0:0:0:0:
192,192,50148,128,0,50481:0:0:0:0:
448,192,50148,1,0,0:0:0:70:Kick.wav
64,192,50148,1,0,0:0:0:0:
448,192,50481,128,0,50814:0:0:0:0:
64,192,50481,128,0,51148:0:0:0:70:Cymbal.wav
320,192,50481,1,0,0:0:0:70:Kick.wav
192,192,50814,128,0,51148:0:0:0:0:
448,192,50981,1,0,0:0:0:70:Kick.wav
320,192,50981,1,0,0:0:0:0:
448,192,51148,1,0,0:0:0:70:Kick.wav
320,192,51148,1,0,0:0:0:0:
192,192,51314,1,0,0:0:0:0:
320,192,51314,1,0,0:0:0:0:
448,192,51314,1,0,0:0:0:70:snare.wav
64,192,51314,128,0,51814:0:0:0:0:
320,192,51481,1,0,0:0:0:0:
192,192,51564,1,0,0:0:0:0:
448,192,51648,1,0,0:0:0:0:
320,192,51731,1,0,0:0:0:0:
192,192,51814,1,0,0:0:0:0:
320,192,51898,1,0,0:0:0:0:
192,192,51981,1,0,0:0:0:70:Cymbal.wav
64,192,51981,1,0,0:0:0:70:Kick.wav
448,192,51981,128,0,52314:0:0:0:0:
320,192,52481,128,0,52814:0:0:0:0:
192,192,52981,128,0,53314:0:0:0:0:
448,192,52981,128,0,54481:0:0:0:0:
64,192,53481,128,0,53981:0:0:0:0:
320,192,53981,1,0,0:0:0:70:Kick.wav
192,192,53981,1,0,0:0:0:0:
320,192,54148,1,0,0:0:0:70:Kick.wav
192,192,54314,1,0,0:0:0:70:Kick.wav
192,192,54481,1,0,0:0:0:70:Kick.wav
320,192,54648,1,0,0:0:0:70:Kick.wav
64,192,54648,1,0,0:0:0:70:Cymbal.wav
448,192,54648,128,0,55648:0:0:0:0:
192,192,55148,1,0,0:0:0:0:
320,192,55981,128,0,56481:0:0:0:0:
64,192,56148,1,0,0:0:0:0:
192,192,56648,128,0,57148:0:0:0:0:
448,192,56648,128,0,57148:0:0:0:0:
320,192,56814,1,0,0:0:0:0:
64,192,57314,128,0,58314:0:0:0:0:
448,192,57314,1,0,0:0:0:0:
448,192,57814,128,0,58314:0:0:0:0:
192,192,58648,128,0,59148:0:0:0:0:
64,192,58648,1,0,0:0:0:0:
448,192,58814,1,0,0:0:0:0:
320,192,59314,128,0,59814:0:0:0:0:
64,192,59314,128,0,59814:0:0:0:0:
448,192,59981,1,0,0:0:0:0:
192,192,59981,1,0,0:0:0:0:
64,192,59981,1,0,0:0:0:0:
448,192,60148,128,0,60481:0:0:0:0:
64,192,60481,1,0,0:0:0:0:
320,192,60564,1,0,0:0:0:0:
64,192,60648,1,0,0:0:0:0:
448,192,60814,1,0,0:0:0:0:
64,192,60981,1,0,0:0:0:0:
320,192,61064,1,0,0:0:0:0:
192,192,61148,1,0,0:0:0:0:
448,192,61231,1,0,0:0:0:0:
320,192,61314,128,0,61814:0:0:0:0:
192,192,61314,1,0,0:0:0:0:
64,192,61314,1,0,0:0:0:0:
64,192,61564,1,0,0:0:0:0:
448,192,61814,1,0,0:0:0:0:
64,192,61814,1,0,0:0:0:0:
192,192,61981,128,0,62481:0:0:0:0:
448,192,61981,128,0,62481:0:0:0:0:
320,192,61981,1,0,0:0:0:0:
320,192,62231,1,0,0:0:0:0:
320,192,62481,1,0,0:0:0:0:
448,192,62648,1,0,0:0:0:0:
192,192,62648,1,0,0:0:0:0:
64,192,62648,1,0,0:0:0:0:
64,192,62814,128,0,63148:0:0:0:0:
320,192,62898,1,0,0:0:0:0:
448,192,63148,128,0,63648:0:0:0:0:
320,192,63148,1,0,0:0:0:0:
64,192,63314,1,0,0:0:0:0:
320,192,63398,1,0,0:0:0:0:
64,192,63481,1,0,0:0:0:0:
64,192,63648,1,0,0:0:0:0:
192,192,63648,1,0,0:0:0:70:Kick.wav
320,192,63731,1,0,0:0:0:70:Kick.wav
448,192,63814,1,0,0:0:0:0:
64,192,63814,1,0,0:0:0:70:Kick.wav
192,192,63898,1,0,0:0:0:70:Kick.wav
320,192,63981,1,0,0:0:0:70:Kick.wav
448,192,63981,1,0,0:0:0:70:Cymbal.wav
64,192,63981,1,0,0:0:0:0:
192,192,64231,1,0,0:0:0:0:
320,192,64231,1,0,0:0:0:70:Cymbal.wav
448,192,64231,1,0,0:0:0:70:Kick.wav
320,192,64481,1,0,0:0:0:0:
192,192,64481,1,0,0:0:0:70:Cymbal.wav
64,192,64481,1,0,0:0:0:70:Kick.wav
192,192,64648,1,0,0:0:0:0:
320,192,64648,1,0,0:0:0:70:Cymbal.wav
448,192,64648,1,0,0:0:0:70:Kick.wav
64,192,64898,1,0,0:0:0:0:
448,192,64898,1,0,0:0:0:70:Kick.wav
320,192,64898,1,0,0:0:0:70:Cymbal.wav
320,192,65148,1,0,0:0:0:70:Cymbal.wav
192,192,65148,1,0,0:0:0:70:Kick.wav
64,192,65148,1,0,0:0:0:0:
64,192,65314,5,0,0:0:0:70:Cymbal.wav
448,192,65314,1,0,0:0:0:0:
192,192,65314,1,0,0:0:0:70:Kick.wav
320,192,65398,1,0,0:0:0:0:
448,192,65481,1,0,0:0:0:0:
192,192,65564,1,0,0:0:0:70:Kick.wav
64,192,65564,1,0,0:0:0:0:
448,192,65648,1,0,0:0:0:0:
320,192,65648,1,0,0:0:0:0:
64,192,65731,1,0,0:0:0:0:
192,192,65814,1,0,0:0:0:70:Kick.wav
448,192,65814,1,0,0:0:0:0:
320,192,65898,1,0,0:0:0:0:
448,192,65981,1,0,0:0:0:70:Kick.wav
64,192,65981,1,0,0:0:0:0:
192,192,66064,1,0,0:0:0:0:
64,192,66148,1,0,0:0:0:0:
320,192,66231,1,0,0:0:0:0:
448,192,66231,1,0,0:0:0:70:Kick.wav
192,192,66314,1,0,0:0:0:0:
64,192,66314,1,0,0:0:0:0:
320,192,66398,1,0,0:0:0:0:
448,192,66481,1,0,0:0:0:70:Kick.wav
64,192,66481,1,0,0:0:0:0:
192,192,66564,1,0,0:0:0:0:
448,192,66648,1,0,0:0:0:0:
320,192,66648,1,0,0:0:0:70:Kick.wav
64,192,66731,1,0,0:0:0:0:
320,192,66814,1,0,0:0:0:0:
64,192,66898,1,0,0:0:0:0:
192,192,66898,1,0,0:0:0:70:Kick.wav
448,192,66981,1,0,0:0:0:0:
320,192,66981,1,0,0:0:0:0:
192,192,67064,1,0,0:0:0:0:
64,192,67148,1,0,0:0:0:70:Kick.wav
448,192,67148,1,0,0:0:0:0:
320,192,67231,1,0,0:0:0:0:
64,192,67314,1,0,0:0:0:0:
192,192,67314,1,0,0:0:0:70:Kick.wav
448,192,67398,1,0,0:0:0:0:
192,192,67481,1,0,0:0:0:0:
448,192,67564,1,0,0:0:0:0:
320,192,67564,1,0,0:0:0:70:Kick.wav
192,192,67648,1,0,0:0:0:0:
64,192,67648,1,0,0:0:0:0:
320,192,67731,1,0,0:0:0:0:
448,192,67814,1,0,0:0:0:0:
64,192,67814,1,0,0:0:0:70:Kick.wav
192,192,67898,1,0,0:0:0:0:
448,192,67981,1,0,0:0:0:0:
320,192,67981,1,0,0:0:0:70:Kick.wav
64,192,68064,1,0,0:0:0:0:
320,192,68148,1,0,0:0:0:0:
192,192,68231,1,0,0:0:0:70:Kick.wav
64,192,68231,1,0,0:0:0:0:
320,192,68314,1,0,0:0:0:0:
448,192,68314,1,0,0:0:0:0:
192,192,68398,1,0,0:0:0:0:
64,192,68481,1,0,0:0:0:0:
448,192,68481,1,0,0:0:0:70:Kick.wav
320,192,68564,1,0,0:0:0:0:
64,192,68648,1,0,0:0:0:0:
192,192,68648,1,0,0:0:0:70:Kick.wav
448,192,68731,1,0,0:0:0:0:
192,192,68814,1,0,0:0:0:0:
320,192,68898,1,0,0:0:0:70:Kick.wav
448,192,68898,1,0,0:0:0:0:
64,192,68981,1,0,0:0:0:0:
192,192,68981,1,0,0:0:0:0:
320,192,69064,1,0,0:0:0:0:
448,192,69148,1,0,0:0:0:70:Kick.wav
64,192,69148,1,0,0:0:0:0:
192,192,69231,1,0,0:0:0:0:
448,192,69314,1,0,0:0:0:0:
320,192,69314,1,0,0:0:0:70:Kick.wav
64,192,69398,1,0,0:0:0:0:
320,192,69481,1,0,0:0:0:0:
64,192,69564,1,0,0:0:0:0:
192,192,69564,1,0,0:0:0:70:Kick.wav
448,192,69648,1,0,0:0:0:0:
320,192,69648,1,0,0:0:0:0:
192,192,69731,1,0,0:0:0:0:
64,192,69814,1,0,0:0:0:0:
320,192,69814,1,0,0:0:0:70:Kick.wav
448,192,69898,1,0,0:0:0:0:
64,192,69981,1,0,0:0:0:0:
192,192,69981,1,0,0:0:0:70:Kick.wav
320,192,70064,1,0,0:0:0:0:
64,192,70148,1,0,0:0:0:0:
448,192,70231,1,0,0:0:0:0:
320,192,70231,1,0,0:0:0:70:Kick.wav
192,192,70314,1,0,0:0:0:0:
64,192,70314,1,0,0:0:0:0:
320,192,70398,1,0,0:0:0:0:
448,192,70481,1,0,0:0:0:70:Kick.wav
64,192,70481,1,0,0:0:0:0:
192,192,70564,1,0,0:0:0:0:
64,192,70648,1,0,0:0:0:0:
448,192,70648,1,0,0:0:0:70:Cymbal.wav
320,192,70648,1,0,0:0:0:70:Kick.wav
192,192,70981,1,0,0:0:0:0:
64,192,70981,1,0,0:0:0:0:
192,192,71231,1,0,0:0:0:0:
64,192,71231,1,0,0:0:0:0:
320,192,71398,1,0,0:0:0:0:
64,192,71398,1,0,0:0:0:0:
448,192,71481,1,0,0:0:0:0:
320,192,71481,1,0,0:0:0:0:
320,192,71731,1,0,0:0:0:0:
448,192,71731,1,0,0:0:0:0:
192,192,71898,1,0,0:0:0:0:
448,192,71898,1,0,0:0:0:0:
64,192,71981,1,0,0:0:0:0:
192,192,71981,1,0,0:0:0:0:
64,192,72148,1,0,0:0:0:0:
448,192,72314,1,0,0:0:0:0:
192,192,72314,1,0,0:0:0:0:
448,192,72564,1,0,0:0:0:0:
192,192,72564,1,0,0:0:0:0:
448,192,72731,1,0,0:0:0:0:
192,192,72731,1,0,0:0:0:0:
448,192,72814,1,0,0:0:0:0:
64,192,72814,1,0,0:0:0:0:
192,192,73064,1,0,0:0:0:0:
448,192,73064,1,0,0:0:0:0:
448,192,73231,1,0,0:0:0:0:
192,192,73231,1,0,0:0:0:0:
64,192,73314,1,0,0:0:0:0:
320,192,73314,1,0,0:0:0:0:
192,192,73648,1,0,0:0:0:0:
448,192,73648,1,0,0:0:0:0:
192,192,73898,1,0,0:0:0:0:
448,192,73898,1,0,0:0:0:0:
320,192,74064,1,0,0:0:0:0:
448,192,74064,1,0,0:0:0:0:
64,192,74148,1,0,0:0:0:0:
320,192,74148,1,0,0:0:0:0:
64,192,74398,1,0,0:0:0:0:
320,192,74398,1,0,0:0:0:0:
320,192,74564,1,0,0:0:0:0:
64,192,74564,1,0,0:0:0:0:
192,192,74648,1,0,0:0:0:70:Kick.wav
64,192,74648,1,0,0:0:0:70:Cymbal.wav
448,192,74648,1,0,0:0:0:0:
320,192,74898,128,0,74981:0:0:0:0:
192,192,75148,128,0,75231:0:0:0:0:
320,192,75314,128,0,75398:0:0:0:0:
192,192,75564,128,0,75648:0:0:0:0:
64,192,75814,128,0,75898:0:0:0:0:
64,192,75981,128,0,78481:0:0:0:0:
192,192,75981,1,0,0:0:0:70:Cymbal.wav
320,192,75981,1,0,0:0:0:70:Kick.wav
448,192,75981,128,0,76814:0:0:0:0:
320,192,76481,128,0,76814:0:0:0:0:
192,192,76814,1,0,0:0:0:0:
320,192,76981,1,0,0:0:0:0:
448,192,77148,128,0,78481:0:0:0:0:
192,192,77481,128,0,78481:0:0:0:0:
320,192,77981,128,0,78481:0:0:0:0:
320,192,78648,128,0,79814:0:0:0:0:
64,192,78648,128,0,81148:0:0:0:0:
448,192,78648,1,0,0:0:0:0:
448,192,79148,128,0,79814:0:0:0:0:
192,192,79814,128,0,81148:0:0:0:0:
448,192,80148,128,0,81148:0:0:0:0:
320,192,80648,128,0,81148:0:0:0:0:
64,192,81314,128,0,83814:0:0:0:0:
320,192,81314,128,0,82314:0:0:0:0:
448,192,81314,1,0,0:0:0:70:Cymbal.wav
448,192,81814,128,0,82314:0:0:0:0:
192,192,82314,1,0,0:0:0:0:
320,192,82481,128,0,83314:0:0:0:0:
448,192,82814,128,0,83314:0:0:0:0:
192,192,83314,1,0,0:0:0:0:
448,192,83481,128,0,83814:0:0:0:0:
320,192,83814,1,0,0:0:0:0:
192,192,83981,128,0,86481:0:0:0:0:
64,192,83981,128,0,84814:0:0:0:0:
448,192,83981,1,0,0:0:0:0:
320,192,84481,128,0,84814:0:0:0:0:
448,192,84814,1,0,0:0:0:0:
320,192,84981,1,0,0:0:0:0:
64,192,85148,128,0,86481:0:0:0:0:
448,192,85481,128,0,86481:0:0:0:0:
320,192,85981,128,0,86481:0:0:0:0:
64,192,86648,128,0,87231:0:0:0:70:Cymbal.wav
192,192,86648,128,0,87231:0:0:0:70:Kick.wav
320,192,86648,128,0,87231:0:0:0:0:
448,192,86648,128,0,87231:0:0:0:0:
64,192,87314,1,0,0:0:0:70:Kick.wav
448,192,87314,128,0,87398:0:0:0:0:
64,192,87481,1,0,0:0:0:70:Kick.wav
320,192,87481,128,0,87564:0:0:0:0:
192,192,87648,128,0,87731:0:0:0:0:
448,192,87648,1,0,0:0:0:70:Kick.wav
448,192,87814,128,0,88481:0:0:0:70:Cymbal.wav
320,192,87814,128,0,88481:0:0:0:0:
64,192,87814,128,0,88481:0:0:0:0:
192,192,87814,1,0,0:0:0:70:Kick.wav
192,192,88648,128,0,89148:0:0:0:0:
64,192,88648,128,0,89148:0:0:0:0:
320,192,88648,1,0,0:0:0:70:snare.wav
448,192,88648,128,0,89148:0:0:0:0:
320,192,89314,128,0,90148:0:0:0:70:Cymbal.wav
448,192,89314,128,0,90314:0:0:0:70:Kick.wav
192,192,89314,128,0,89981:0:0:0:0:
64,192,89314,128,0,89814:0:0:0:0:
64,192,89981,1,0,0:0:0:70:Kick.wav
192,192,90148,1,0,0:0:0:70:Kick.wav
320,192,90314,1,0,0:0:0:70:Kick.wav
64,192,90481,128,0,91898:0:0:0:0:
448,192,90481,128,0,91148:0:0:0:0:
192,192,90481,128,0,91148:0:0:0:70:Cymbal.wav
320,192,90481,1,0,0:0:0:70:Kick.wav
320,192,91314,128,0,91731:0:0:0:70:snare.wav
448,192,91314,128,0,91648:0:0:0:0:
192,192,91314,128,0,91814:0:0:0:0:
192,192,91981,128,0,92814:0:0:0:70:Kick.wav
320,192,91981,128,0,92648:0:0:0:0:
64,192,91981,128,0,92981:0:0:0:70:Cymbal.wav
448,192,91981,128,0,92481:0:0:0:0:
448,192,92648,1,0,0:0:0:70:Kick.wav
320,192,92814,1,0,0:0:0:70:Kick.wav
448,192,92981,128,0,93064:0:0:0:0:
192,192,92981,1,0,0:0:0:70:Kick.wav
192,192,93148,128,0,93731:0:0:0:0:
64,192,93148,128,0,93731:0:0:0:0:
448,192,93148,128,0,93814:0:0:0:70:Cymbal.wav
320,192,93148,1,0,0:0:0:70:Kick.wav
192,192,93814,1,0,0:0:0:70:Kick.wav
64,192,93814,1,0,0:0:0:0:
448,192,93981,1,0,0:0:0:70:snare.wav
64,192,93981,128,0,94481:0:0:0:0:
192,192,93981,128,0,94481:0:0:0:0:
320,192,93981,1,0,0:0:0:0:
320,192,94148,128,0,94481:0:0:0:0:
448,192,94481,128,0,94564:0:0:0:0:
448,192,94648,128,0,95148:0:0:0:0:
64,192,94648,128,0,95314:0:0:0:70:Cymbal.wav
192,192,94648,128,0,95314:0:0:0:70:Kick.wav
320,192,94648,128,0,95148:0:0:0:0:
448,192,95314,1,0,0:0:0:70:Kick.wav
320,192,95314,128,0,95398:0:0:0:0:
192,192,95481,128,0,95564:0:0:0:0:
448,192,95481,1,0,0:0:0:70:Kick.wav
448,192,95648,1,0,0:0:0:70:Kick.wav
64,192,95648,128,0,95731:0:0:0:0:
320,192,95814,128,0,97148:0:0:0:70:Kick.wav
448,192,95814,128,0,97148:0:0:0:0:
192,192,95814,128,0,97148:0:0:0:70:Cymbal.wav
64,192,95814,128,0,97148:0:0:0:0:
64,192,97314,1,0,0:0:0:0:
320,192,97314,1,0,0:0:0:70:Kick.wav
448,192,97314,1,0,0:0:0:70:Cymbal.wav
192,192,97314,1,0,0:0:0:0:
192,192,97481,1,0,0:0:0:0:
448,192,97648,1,0,0:0:0:0:
320,192,97814,128,0,97981:0:0:0:0:
320,192,98148,1,0,0:0:0:0:
192,192,98314,1,0,0:0:0:0:
64,192,98481,1,0,0:0:0:0:
448,192,98648,1,0,0:0:0:0:
320,192,98648,1,0,0:0:0:0:
448,192,98814,1,0,0:0:0:0:
192,192,98814,1,0,0:0:0:0:
64,192,99148,128,0,99314:0:0:0:0:
448,192,99481,1,0,0:0:0:0:
320,192,99648,1,0,0:0:0:0:
192,192,99814,1,0,0:0:0:0:
64,192,99981,1,0,0:0:0:0:
448,192,99981,1,0,0:0:0:0:
192,192,100148,1,0,0:0:0:0:
448,192,100314,1,0,0:0:0:0:
320,192,100481,128,0,100648:0:0:0:0:
320,192,100814,1,0,0:0:0:0:
192,192,100981,1,0,0:0:0:0:
64,192,101148,1,0,0:0:0:0:
448,192,101314,1,0,0:0:0:0:
320,192,101314,1,0,0:0:0:0:
448,192,101481,1,0,0:0:0:0:
192,192,101481,1,0,0:0:0:0:
64,192,101814,128,0,101981:0:0:0:0:
64,192,102148,1,0,0:0:0:0:
192,192,102314,1,0,0:0:0:0:
320,192,102481,1,0,0:0:0:0:
448,192,102648,1,0,0:0:0:70:Kick.wav
64,192,102648,1,0,0:0:0:0:
192,192,102648,1,0,0:0:0:0:
320,192,102814,1,0,0:0:0:0:
448,192,102814,1,0,0:0:0:70:Kick.wav
192,192,102981,1,0,0:0:0:0:
448,192,102981,1,0,0:0:0:70:Kick.wav
64,192,103064,1,0,0:0:0:0:
320,192,103148,1,0,0:0:0:0:
448,192,103148,1,0,0:0:0:70:Kick.wav
192,192,103231,1,0,0:0:0:0:
64,192,103314,1,0,0:0:0:0:
448,192,103314,1,0,0:0:0:70:Kick.wav
320,192,103398,1,0,0:0:0:0:
64,192,103481,1,0,0:0:0:70:Kick.wav
192,192,103481,1,0,0:0:0:0:
448,192,103564,1,0,0:0:0:0:
64,192,103648,1,0,0:0:0:70:Kick.wav
320,192,103648,1,0,0:0:0:0:
192,192,103731,1,0,0:0:0:0:
64,192,103814,1,0,0:0:0:70:Kick.wav
448,192,103814,1,0,0:0:0:0:
192,192,103898,1,0,0:0:0:0:
64,192,103981,1,0,0:0:0:70:Kick.wav
320,192,103981,1,0,0:0:0:0:
448,192,104064,1,0,0:0:0:0:
320,192,104148,1,0,0:0:0:70:Kick.wav
192,192,104148,1,0,0:0:0:0:
64,192,104231,1,0,0:0:0:0:
320,192,104314,1,0,0:0:0:70:Kick.wav
448,192,104314,1,0,0:0:0:0:
192,192,104398,1,0,0:0:0:0:
320,192,104481,1,0,0:0:0:70:Kick.wav
448,192,104481,1,0,0:0:0:0:
64,192,104564,1,0,0:0:0:0:
320,192,104648,1,0,0:0:0:70:Kick.wav
192,192,104648,1,0,0:0:0:0:
448,192,104731,1,0,0:0:0:0:
192,192,104814,1,0,0:0:0:70:Kick.wav
64,192,104814,1,0,0:0:0:0:
320,192,104898,1,0,0:0:0:0:
192,192,104981,1,0,0:0:0:0:
448,192,104981,1,0,0:0:0:70:Kick.wav
64,192,105064,1,0,0:0:0:0:
192,192,105148,1,0,0:0:0:0:
320,192,105148,1,0,0:0:0:70:Kick.wav
448,192,105231,1,0,0:0:0:0:
192,192,105314,1,0,0:0:0:70:Kick.wav
64,192,105314,1,0,0:0:0:0:
320,192,105398,1,0,0:0:0:70:Kick.wav
448,192,105398,1,0,0:0:0:0:
192,192,105481,1,0,0:0:0:70:Kick.wav
64,192,105481,1,0,0:0:0:0:
448,192,105564,1,0,0:0:0:0:
320,192,105564,1,0,0:0:0:70:Kick.wav
192,192,105648,1,0,0:0:0:70:Kick.wav
64,192,105648,1,0,0:0:0:0:
320,192,105731,1,0,0:0:0:70:Kick.wav
448,192,105731,1,0,0:0:0:0:
192,192,105814,5,0,0:0:0:70:Kick.wav
64,192,105814,1,0,0:0:0:0:
320,192,105898,1,0,0:0:0:70:Kick.wav
448,192,105898,1,0,0:0:0:0:
192,192,105981,1,0,0:0:0:70:Kick.wav
64,192,105981,1,0,0:0:0:0:
320,192,106064,1,0,0:0:0:70:Kick.wav
448,192,106064,1,0,0:0:0:0:
192,192,106148,1,0,0:0:0:70:Kick.wav
64,192,106148,1,0,0:0:0:0:
320,192,106231,1,0,0:0:0:70:Kick.wav
448,192,106231,1,0,0:0:0:0:
64,192,106314,1,0,0:0:0:0:
192,192,106314,1,0,0:0:0:70:Kick.wav
320,192,106398,1,0,0:0:0:70:Kick.wav
448,192,106398,1,0,0:0:0:0:
192,192,106481,1,0,0:0:0:70:Kick.wav
64,192,106481,1,0,0:0:0:0:
320,192,106564,1,0,0:0:0:70:Kick.wav
448,192,106564,1,0,0:0:0:0:
192,192,106648,1,0,0:0:0:70:Kick.wav
64,192,106648,1,0,0:0:0:70:Cymbal.wav
320,192,106814,1,0,0:0:0:0:
448,192,107148,1,0,0:0:0:0:
192,192,107231,1,0,0:0:0:0:
448,192,107314,1,0,0:0:0:0:
64,192,107481,1,0,0:0:0:0:
320,192,107648,1,0,0:0:0:0:
192,192,107814,1,0,0:0:0:0:
448,192,107981,1,0,0:0:0:70:Kick.wav
320,192,107981,1,0,0:0:0:70:Cymbal.wav
64,192,107981,1,0,0:0:0:0:
192,192,108148,1,0,0:0:0:0:
320,192,108314,1,0,0:0:0:0:
448,192,108481,128,0,108814:0:0:0:0:
64,192,108564,1,0,0:0:0:0:
64,192,108731,1,0,0:0:0:0:
320,192,108814,1,0,0:0:0:0:
192,192,108981,1,0,0:0:0:0:
320,192,109064,1,0,0:0:0:0:
64,192,109148,1,0,0:0:0:0:
192,192,109231,1,0,0:0:0:0:
320,192,109314,1,0,0:0:0:0:
448,192,109314,1,0,0:0:0:0:
320,192,109481,1,0,0:0:0:0:
448,192,109481,1,0,0:0:0:0:
64,192,109648,1,0,0:0:0:0:
448,192,109648,1,0,0:0:0:0:
192,192,109814,1,0,0:0:0:0:
320,192,109898,1,0,0:0:0:0:
64,192,109898,1,0,0:0:0:0:
64,192,110064,1,0,0:0:0:0:
320,192,110064,1,0,0:0:0:0:
64,192,110148,1,0,0:0:0:0:
448,192,110148,1,0,0:0:0:0:
64,192,110314,1,0,0:0:0:0:
320,192,110314,1,0,0:0:0:70:Kick.wav
192,192,110398,1,0,0:0:0:70:Kick.wav
64,192,110481,1,0,0:0:0:0:
448,192,110481,1,0,0:0:0:70:Kick.wav
320,192,110564,1,0,0:0:0:70:Kick.wav
448,192,110648,1,0,0:0:0:70:Cymbal.wav
64,192,110648,1,0,0:0:0:70:Kick.wav
192,192,110648,128,0,110981:0:0:0:0:
320,192,110814,128,0,110981:0:0:0:0:
64,192,110981,128,0,111398:0:0:0:0:
448,192,110981,1,0,0:0:0:70:snare.wav
448,192,111148,128,0,111398:0:0:0:0:
192,192,111148,128,0,111398:0:0:0:0:
448,192,111481,1,0,0:0:0:0:
320,192,111481,1,0,0:0:0:70:Kick.wav
192,192,111481,1,0,0:0:0:0:
448,192,111648,1,0,0:0:0:0:
64,192,111648,1,0,0:0:0:0:
192,192,111648,1,0,0:0:0:0:
320,192,111648,1,0,0:0:0:70:snare.wav
320,192,111814,1,0,0:0:0:0:
64,192,111814,1,0,0:0:0:0:
448,192,111981,1,0,0:0:0:70:Kick.wav
64,192,111981,128,0,112231:0:0:0:0:
192,192,111981,128,0,112231:0:0:0:0:
448,192,112148,128,0,112731:0:0:0:0:
64,192,112314,1,0,0:0:0:0:
192,192,112314,1,0,0:0:0:70:snare.wav
320,192,112314,1,0,0:0:0:0:
320,192,112481,128,0,112731:0:0:0:0:
64,192,112481,128,0,112731:0:0:0:0:
448,192,112814,1,0,0:0:0:0:
192,192,112814,1,0,0:0:0:70:Kick.wav
64,192,112814,1,0,0:0:0:0:
448,192,112981,1,0,0:0:0:70:snare.wav
64,192,112981,1,0,0:0:0:0:
192,192,112981,1,0,0:0:0:0:
320,192,112981,1,0,0:0:0:0:
320,192,113148,1,0,0:0:0:0:
192,192,113148,1,0,0:0:0:0:
320,192,113314,128,0,113648:0:0:0:0:
64,192,113314,1,0,0:0:0:0:
448,192,113314,1,0,0:0:0:70:Kick.wav
192,192,113481,128,0,113648:0:0:0:0:
448,192,113648,128,0,114064:0:0:0:0:
64,192,113648,1,0,0:0:0:70:snare.wav
64,192,113814,128,0,114064:0:0:0:0:
320,192,113814,128,0,114064:0:0:0:0:
64,192,114148,1,0,0:0:0:0:
192,192,114148,1,0,0:0:0:70:Kick.wav
320,192,114148,1,0,0:0:0:0:
64,192,114314,1,0,0:0:0:0:
448,192,114314,1,0,0:0:0:0:
320,192,114314,1,0,0:0:0:70:snare.wav
192,192,114314,1,0,0:0:0:0:
448,192,114481,1,0,0:0:0:0:
192,192,114481,1,0,0:0:0:0:
64,192,114648,1,0,0:0:0:70:Kick.wav
448,192,114648,128,0,114898:0:0:0:0:
320,192,114648,128,0,114898:0:0:0:0:
64,192,114814,128,0,115398:0:0:0:0:
448,192,114981,1,0,0:0:0:0:
320,192,114981,1,0,0:0:0:70:snare.wav
192,192,114981,1,0,0:0:0:0:
192,192,115148,128,0,115398:0:0:0:0:
448,192,115148,128,0,115398:0:0:0:0:
64,192,115481,1,0,0:0:0:0:
448,192,115481,1,0,0:0:0:0:
320,192,115481,1,0,0:0:0:70:Kick.wav
320,192,115648,1,0,0:0:0:0:
448,192,115648,1,0,0:0:0:0:
192,192,115648,1,0,0:0:0:70:snare.wav
64,192,115648,1,0,0:0:0:0:
320,192,115814,1,0,0:0:0:0:
192,192,115814,1,0,0:0:0:0:
64,192,115981,1,0,0:0:0:0:
192,192,115981,128,0,116314:0:0:0:0:
448,192,115981,1,0,0:0:0:70:Kick.wav
320,192,116148,128,0,116314:0:0:0:0:
64,192,116314,128,0,116731:0:0:0:0:
448,192,116314,1,0,0:0:0:70:snare.wav
320,192,116481,128,0,116731:0:0:0:0:
448,192,116481,128,0,116731:0:0:0:0:
64,192,116814,1,0,0:0:0:0:
320,192,116814,1,0,0:0:0:0:
448,192,116814,1,0,0:0:0:0:
192,192,116814,1,0,0:0:0:70:snare.wav
64,192,116981,1,0,0:0:0:0:
320,192,116981,1,0,0:0:0:0:
448,192,117148,1,0,0:0:0:70:Kick.wav
320,192,117148,1,0,0:0:0:0:
192,192,117148,1,0,0:0:0:0:
448,192,117314,1,0,0:0:0:70:Kick.wav
64,192,117314,1,0,0:0:0:70:Cymbal.wav
192,192,117314,1,0,0:0:0:0:
320,192,117564,1,0,0:0:0:70:Kick.wav
448,192,117564,1,0,0:0:0:0:
192,192,117564,1,0,0:0:0:70:Cymbal.wav
320,192,117814,1,0,0:0:0:70:Kick.wav
192,192,117814,1,0,0:0:0:0:
64,192,117814,1,0,0:0:0:70:Cymbal.wav
192,192,117981,1,0,0:0:0:0:
448,192,117981,128,0,118064:0:0:0:0:
64,192,118148,1,0,0:0:0:70:Kick.wav
320,192,118148,128,0,118231:0:0:0:0:
192,192,118148,1,0,0:0:0:70:Cymbal.wav
192,192,118314,128,0,118398:0:0:0:0:
448,192,118314,1,0,0:0:0:70:Kick.wav
320,192,118398,1,0,0:0:0:70:Kick.wav
448,192,118481,1,0,0:0:0:70:Kick.wav
64,192,118481,128,0,118564:0:0:0:0:
320,192,118564,1,0,0:0:0:70:Kick.wav
448,192,118648,1,0,0:0:0:70:Kick.wav
64,192,118648,1,0,0:0:0:70:Cymbal.wav
192,192,118648,128,0,118981:0:0:0:0:
320,192,118814,128,0,118981:0:0:0:0:
64,192,118981,128,0,119481:0:0:0:0:
448,192,118981,1,0,0:0:0:70:Kick.wav
192,192,119148,128,0,119481:0:0:0:0:
448,192,119314,1,0,0:0:0:70:Kick.wav
320,192,119481,128,0,119564:0:0:0:0:
448,192,119648,1,0,0:0:0:70:Kick.wav
192,192,119648,128,0,119731:0:0:0:0:
64,192,119814,128,0,119898:0:0:0:0:
448,192,119981,1,0,0:0:0:70:Kick.wav
320,192,119981,128,0,120314:0:0:0:0:
192,192,119981,1,0,0:0:0:0:
64,192,120148,128,0,120648:0:0:0:0:
448,192,120314,1,0,0:0:0:70:Kick.wav
192,192,120481,128,0,120648:0:0:0:0:
320,192,120481,128,0,120648:0:0:0:0:
448,192,120648,1,0,0:0:0:70:Kick.wav
320,192,120814,1,0,0:0:0:0:
64,192,120814,1,0,0:0:0:0:
64,192,120981,1,0,0:0:0:0:
320,192,120981,1,0,0:0:0:0:
192,192,120981,1,0,0:0:0:0:
448,192,120981,1,0,0:0:0:70:snare.wav
192,192,121148,1,0,0:0:0:0:
448,192,121148,1,0,0:0:0:0:
320,192,121314,128,0,121648:0:0:0:0:
64,192,121314,1,0,0:0:0:70:Kick.wav
448,192,121314,1,0,0:0:0:70:Cymbal.wav
192,192,121481,128,0,121648:0:0:0:0:
448,192,121648,128,0,122148:0:0:0:0:
64,192,121648,1,0,0:0:0:70:Kick.wav
320,192,121814,128,0,122148:0:0:0:0:
64,192,121981,1,0,0:0:0:70:Kick.wav
192,192,122148,128,0,122231:0:0:0:0:
64,192,122314,1,0,0:0:0:70:Kick.wav
320,192,122314,128,0,122398:0:0:0:0:
448,192,122481,128,0,122564:0:0:0:0:
64,192,122648,1,0,0:0:0:70:Kick.wav
192,192,122648,128,0,122981:0:0:0:0:
320,192,122648,1,0,0:0:0:0:
448,192,122814,128,0,123314:0:0:0:0:
64,192,122981,1,0,0:0:0:70:Kick.wav
320,192,123148,128,0,123314:0:0:0:0:
192,192,123148,128,0,123314:0:0:0:0:
64,192,123314,1,0,0:0:0:70:Kick.wav
192,192,123481,1,0,0:0:0:0:
448,192,123481,1,0,0:0:0:0:
64,192,123648,1,0,0:0:0:0:
448,192,123648,1,0,0:0:0:70:snare.wav
320,192,123648,1,0,0:0:0:0:
192,192,123648,1,0,0:0:0:0:
320,192,123814,1,0,0:0:0:0:
64,192,123814,1,0,0:0:0:0:
448,192,123981,1,0,0:0:0:70:Kick.wav
64,192,123981,1,0,0:0:0:0:
192,192,123981,1,0,0:0:0:0:
320,192,124148,1,0,0:0:0:0:
448,192,124148,1,0,0:0:0:70:Kick.wav
64,192,124148,1,0,0:0:0:0:
320,192,124314,1,0,0:0:0:70:Kick.wav
64,192,124314,1,0,0:0:0:0:
192,192,124314,1,0,0:0:0:0:
192,192,124481,1,0,0:0:0:0:
448,192,124481,1,0,0:0:0:0:
320,192,124481,1,0,0:0:0:70:Kick.wav
448,192,124648,1,0,0:0:0:0:
64,192,124648,1,0,0:0:0:70:Kick.wav
320,192,124814,1,0,0:0:0:0:
64,192,124814,1,0,0:0:0:70:Kick.wav
448,192,124814,1,0,0:0:0:0:
192,192,124981,1,0,0:0:0:70:Kick.wav
320,192,124981,1,0,0:0:0:0:
448,192,124981,1,0,0:0:0:0:
64,192,125148,1,0,0:0:0:0:
192,192,125148,1,0,0:0:0:70:Kick.wav
320,192,125148,1,0,0:0:0:0:
448,192,125314,1,0,0:0:0:70:Kick.wav
320,192,125314,1,0,0:0:0:0:
64,192,125314,1,0,0:0:0:0:
192,192,125481,1,0,0:0:0:0:
448,192,125481,1,0,0:0:0:70:Kick.wav
64,192,125481,1,0,0:0:0:0:
320,192,125648,1,0,0:0:0:0:
448,192,125648,1,0,0:0:0:70:Kick.wav
192,192,125814,1,0,0:0:0:70:Kick.wav
64,192,125814,1,0,0:0:0:0:
320,192,125814,1,0,0:0:0:0:
448,192,125981,1,0,0:0:0:0:
192,192,125981,1,0,0:0:0:70:Kick.wav
320,192,126148,1,0,0:0:0:0:
192,192,126148,1,0,0:0:0:70:Kick.wav
64,192,126148,1,0,0:0:0:0:
320,192,126314,1,0,0:0:0:0:
64,192,126314,1,0,0:0:0:0:
448,192,126314,1,0,0:0:0:70:Kick.wav
192,192,126481,1,0,0:0:0:0:
320,192,126481,1,0,0:0:0:0:
448,192,126481,1,0,0:0:0:70:Kick.wav
64,192,126648,1,0,0:0:0:0:
192,192,126648,1,0,0:0:0:70:Kick.wav
320,192,126731,1,0,0:0:0:70:Kick.wav
448,192,126731,1,0,0:0:0:0:
192,192,126814,1,0,0:0:0:70:Kick.wav
64,192,126814,1,0,0:0:0:0:
448,192,126898,1,0,0:0:0:0:
320,192,126898,1,0,0:0:0:70:Kick.wav
192,192,126981,1,0,0:0:0:70:Kick.wav
64,192,126981,1,0,0:0:0:0:
448,192,127064,1,0,0:0:0:0:
320,192,127064,1,0,0:0:0:70:Kick.wav
192,192,127148,1,0,0:0:0:70:Kick.wav
64,192,127148,1,0,0:0:0:0:
448,192,127231,1,0,0:0:0:0:
320,192,127231,1,0,0:0:0:70:Kick.wav
192,192,127314,1,0,0:0:0:70:Kick.wav
64,192,127314,1,0,0:0:0:0:
320,192,127398,1,0,0:0:0:70:Kick.wav
448,192,127398,1,0,0:0:0:0:
192,192,127481,1,0,0:0:0:70:Kick.wav
64,192,127481,1,0,0:0:0:0:
448,192,127564,1,0,0:0:0:0:
320,192,127564,1,0,0:0:0:70:Kick.wav
192,192,127648,1,0,0:0:0:70:Kick.wav
64,192,127648,1,0,0:0:0:0:
448,192,127731,1,0,0:0:0:0:
320,192,127731,1,0,0:0:0:70:Kick.wav
192,192,127814,1,0,0:0:0:70:Kick.wav
64,192,127814,1,0,0:0:0:0:
448,192,127898,1,0,0:0:0:0:
320,192,127898,1,0,0:0:0:70:Kick.wav
64,192,127981,128,0,128314:0:0:0:70:Cymbal.wav
192,192,127981,1,0,0:0:0:70:Kick.wav
448,192,128148,128,0,128314:0:0:0:0:
192,192,128481,128,0,128564:0:0:0:0:
448,192,128648,128,0,128731:0:0:0:0:
320,192,128814,128,0,128898:0:0:0:0:
192,192,128981,128,0,129064:0:0:0:0:
64,192,129148,128,0,129231:0:0:0:0:
64,192,129314,1,0,0:0:0:0:
448,192,129314,1,0,0:0:0:0:
320,192,129814,1,0,0:0:0:0:
192,192,129814,1,0,0:0:0:0:
192,192,130314,1,0,0:0:0:0:
64,192,130314,1,0,0:0:0:0:
320,192,130814,1,0,0:0:0:0:
64,192,130814,1,0,0:0:0:0:
448,192,131314,1,0,0:0:0:0:
192,192,131314,1,0,0:0:0:0:
448,192,131981,1,0,0:0:0:0:
64,192,131981,1,0,0:0:0:0:
192,192,132481,1,0,0:0:0:0:
320,192,132481,1,0,0:0:0:0:
64,192,132981,1,0,0:0:0:0:
192,192,132981,1,0,0:0:0:0:
192,192,133481,1,0,0:0:0:0:
448,192,133481,128,0,135981:0:0:0:0:
