osu file format v14

[General]
AudioFilename: Equilibrium.mp3
AudioLeadIn: 0
PreviewTime: 107981
Countdown: 0
SampleSet: Soft
StackLeniency: 0.7
Mode: 3
LetterboxInBreaks: 0
SpecialStyle: 0
WidescreenStoryboard: 0

[Editor]
DistanceSpacing: 2.4
BeatDivisor: 4
GridSize: 32
TimelineZoom: 1.3

[Metadata]
Title:Equilibrium
TitleUnicode:Equilibrium
Artist:Maozon
ArtistUnicode:Maozon
Creator:Critical_Star
Version:Present
Source:Arcaea
Tags:lowiro Black Fate Chapter IV Hikari Akasha Video Game Electronic Instrumental Kuo Kyoka Dellvangel
BeatmapID:2464429
BeatmapSetID:1182015

[Difficulty]
HPDrainRate:7
CircleSize:4
OverallDifficulty:7
ApproachRate:5
SliderMultiplier:1.4
SliderTickRate:1

[Events]
//Background and Video events
0,0,"EQ.jpg",0,0
//Break Periods
//Storyboard Layer 0 (Background)
//Storyboard Layer 1 (Fail)
//Storyboard Layer 2 (Pass)
//Storyboard Layer 3 (Foreground)
//Storyboard Layer 4 (Overlay)
//Storyboard Sound Samples
Sample,32939,0,"Kick.wav",70
Sample,97314,0,"Cymbal.wav",70
Sample,127981,0,"Kick.wav",70

[TimingPoints]
1315,333.333333333333,4,2,1,50,1,0
110648,-100,4,2,1,50,0,1
129314,-100,4,2,1,50,0,0

[HitObjects]
448,192,1315,5,0,0:0:0:70:Cymbal.wav
64,192,1315,1,0,0:0:0:70:Kick.wav
192,192,1648,128,0,1814:0:0:0:0:
192,192,1981,1,0,0:0:0:0:
192,192,2231,1,0,0:0:0:0:
320,192,2731,1,0,0:0:0:0:
320,192,2981,1,0,0:0:0:0:
448,192,3314,1,0,0:0:0:0:
64,192,3731,1,0,0:0:0:0:
192,192,3898,1,0,0:0:0:0:
320,192,4064,1,0,0:0:0:0:
64,192,4314,128,0,4481:0:0:0:0:
64,192,4648,1,0,0:0:0:0:
64,192,4898,1,0,0:0:0:0:
448,192,5398,1,0,0:0:0:0:
448,192,5648,1,0,0:0:0:0:
448,192,5898,1,0,0:0:0:0:
192,192,6231,1,0,0:0:0:0:
192,192,6398,1,0,0:0:0:0:
448,192,6648,1,0,0:0:0:0:
64,192,6648,1,0,0:0:0:0:
320,192,6981,128,0,7148:0:0:0:0:
320,192,7314,1,0,0:0:0:0:
320,192,7564,1,0,0:0:0:0:
192,192,8064,1,0,0:0:0:0:
192,192,8314,1,0,0:0:0:0:
64,192,8648,1,0,0:0:0:0:
448,192,9064,1,0,0:0:0:0:
320,192,9231,1,0,0:0:0:0:
192,192,9398,1,0,0:0:0:0:
448,192,9648,128,0,9814:0:0:0:0:
448,192,9981,1,0,0:0:0:0:
448,192,10231,1,0,0:0:0:0:
64,192,10731,1,0,0:0:0:0:
64,192,10981,1,0,0:0:0:0:
448,192,11314,1,0,0:0:0:0:
320,192,11564,1,0,0:0:0:0:
192,192,11814,1,0,0:0:0:0:
64,192,11981,128,0,12814:0:0:0:70:Cymbal.wav
448,192,11981,1,0,0:0:0:70:Kick.wav
448,192,12481,1,0,0:0:0:0:
192,192,12814,1,0,0:0:0:0:
320,192,12981,1,0,0:0:0:0:
448,192,13148,128,0,13981:0:0:0:0:
192,192,13981,128,0,14648:0:0:0:0:
64,192,14648,128,0,15814:0:0:0:0:
448,192,15148,1,0,0:0:0:0:
320,192,15814,128,0,17314:0:0:0:0:
64,192,16148,1,0,0:0:0:0:
192,192,16648,1,0,0:0:0:0:
448,192,17314,1,0,0:0:0:70:Cymbal.wav
64,192,17314,128,0,18314:0:0:0:0:
448,192,17814,1,0,0:0:0:0:
192,192,18314,1,0,0:0:0:0:
448,192,18481,128,0,19314:0:0:0:0:
64,192,18814,1,0,0:0:0:0:
320,192,19314,1,0,0:0:0:0:
64,192,19481,128,0,19814:0:0:0:0:
448,192,19814,1,0,0:0:0:0:
192,192,19981,128,0,20814:0:0:0:0:
448,192,20481,1,0,0:0:0:0:
64,192,20814,1,0,0:0:0:0:
192,192,20981,1,0,0:0:0:0:
320,192,21148,128,0,21981:0:0:0:0:
64,192,21481,1,0,0:0:0:0:
192,192,21981,1,0,0:0:0:0:
320,192,22314,1,0,0:0:0:0:
448,192,22648,1,0,0:0:0:70:Kick.wav
64,192,22648,1,0,0:0:0:70:Cymbal.wav
64,192,22981,1,0,0:0:0:0:
64,192,23231,1,0,0:0:0:0:
320,192,23398,1,0,0:0:0:0:
64,192,23481,1,0,0:0:0:0:
192,192,23648,1,0,0:0:0:0:
448,192,23731,1,0,0:0:0:0:
448,192,23898,1,0,0:0:0:0:
192,192,23981,1,0,0:0:0:0:
192,192,24148,1,0,0:0:0:0:
448,192,24314,1,0,0:0:0:0:
192,192,24564,1,0,0:0:0:0:
192,192,24731,1,0,0:0:0:0:
448,192,24814,1,0,0:0:0:0:
192,192,25064,1,0,0:0:0:0:
192,192,25231,1,0,0:0:0:0:
448,192,25314,1,0,0:0:0:0:
64,192,25648,1,0,0:0:0:0:
320,192,25898,1,0,0:0:0:0:
320,192,26064,1,0,0:0:0:0:
64,192,26148,1,0,0:0:0:0:
320,192,26398,1,0,0:0:0:0:
320,192,26564,1,0,0:0:0:0:
64,192,26648,1,0,0:0:0:0:
64,192,26814,1,0,0:0:0:0:
448,192,26981,1,0,0:0:0:0:
448,192,27231,1,0,0:0:0:0:
192,192,27398,1,0,0:0:0:0:
448,192,27481,1,0,0:0:0:0:
192,192,27731,1,0,0:0:0:0:
192,192,27898,1,0,0:0:0:0:
448,192,27981,1,0,0:0:0:0:
320,192,28314,1,0,0:0:0:0:
320,192,28564,1,0,0:0:0:0:
64,192,28731,1,0,0:0:0:0:
320,192,28814,1,0,0:0:0:0:
320,192,29064,1,0,0:0:0:0:
320,192,29231,1,0,0:0:0:0:
64,192,29314,1,0,0:0:0:0:
64,192,29481,1,0,0:0:0:0:
448,192,29648,1,0,0:0:0:0:
448,192,29898,1,0,0:0:0:0:
192,192,30064,1,0,0:0:0:0:
448,192,30148,1,0,0:0:0:0:
448,192,30398,1,0,0:0:0:0:
448,192,30564,1,0,0:0:0:0:
192,192,30648,128,0,32648:0:0:0:70:Kick.wav
64,192,30648,1,0,0:0:0:70:Cymbal.wav
448,192,31981,128,0,32648:0:0:0:0:
64,192,32648,1,0,0:0:0:70:Kick.wav
320,192,32814,1,0,0:0:0:70:Kick.wav
192,192,32898,1,0,0:0:0:70:Kick.wav
320,192,32981,1,0,0:0:0:70:Kick.wav
64,192,33064,1,0,0:0:0:70:Kick.wav
448,192,33148,1,0,0:0:0:70:Kick.wav
64,192,33231,1,0,0:0:0:70:Kick.wav
448,192,33314,1,0,0:0:0:70:Cymbal.wav
320,192,33314,128,0,33981:0:0:0:70:Kick.wav
64,192,33648,128,0,33981:0:0:0:0:
192,192,33981,1,0,0:0:0:70:snare.wav
448,192,33981,1,0,0:0:0:0:
320,192,34148,1,0,0:0:0:0:
64,192,34314,1,0,0:0:0:0:
64,192,34481,128,0,35148:0:0:0:70:Cymbal.wav
448,192,34481,128,0,35148:0:0:0:70:Kick.wav
320,192,35148,1,0,0:0:0:70:Kick.wav
64,192,35314,1,0,0:0:0:70:snare.wav
448,192,35314,1,0,0:0:0:0:
64,192,35481,1,0,0:0:0:70:Kick.wav
448,192,35648,1,0,0:0:0:70:Kick.wav
448,192,35814,1,0,0:0:0:70:Kick.wav
64,192,35981,1,0,0:0:0:70:Kick.wav
192,192,35981,128,0,36481:0:0:0:0:
448,192,36314,128,0,36481:0:0:0:0:
320,192,36481,1,0,0:0:0:70:Kick.wav
192,192,36564,1,0,0:0:0:70:Kick.wav
64,192,36648,1,0,0:0:0:70:snare.wav
448,192,36648,1,0,0:0:0:0:
448,192,36898,1,0,0:0:0:0:
192,192,36981,1,0,0:0:0:0:
448,192,37148,1,0,0:0:0:0:
64,192,37314,1,0,0:0:0:70:Kick.wav
192,192,37314,1,0,0:0:0:0:
192,192,37564,1,0,0:0:0:0:
448,192,37648,1,0,0:0:0:0:
64,192,37814,1,0,0:0:0:70:Kick.wav
192,192,37814,1,0,0:0:0:0:
320,192,37981,1,0,0:0:0:70:snare.wav
448,192,37981,1,0,0:0:0:0:
320,192,38231,1,0,0:0:0:0:
64,192,38314,1,0,0:0:0:0:
320,192,38481,1,0,0:0:0:0:
448,192,38648,1,0,0:0:0:70:Kick.wav
64,192,38648,128,0,39314:0:0:0:70:Cymbal.wav
448,192,38981,128,0,39314:0:0:0:0:
320,192,39314,1,0,0:0:0:70:snare.wav
192,192,39314,1,0,0:0:0:0:
64,192,39481,1,0,0:0:0:0:
448,192,39648,1,0,0:0:0:0:
448,192,39814,128,0,40314:0:0:0:70:Cymbal.wav
192,192,39814,128,0,40648:0:0:0:70:Kick.wav
64,192,40314,128,0,40648:0:0:0:70:Kick.wav
320,192,40314,1,0,0:0:0:0:
448,192,40648,1,0,0:0:0:70:snare.wav
320,192,40648,1,0,0:0:0:0:
192,192,40814,1,0,0:0:0:70:Kick.wav
320,192,40898,1,0,0:0:0:70:Kick.wav
192,192,40981,1,0,0:0:0:70:Kick.wav
448,192,41064,1,0,0:0:0:70:Kick.wav
64,192,41148,1,0,0:0:0:70:Kick.wav
448,192,41314,1,0,0:0:0:70:Kick.wav
320,192,41314,128,0,41814:0:0:0:0:
64,192,41648,128,0,41814:0:0:0:0:
192,192,41814,1,0,0:0:0:70:Kick.wav
320,192,41898,1,0,0:0:0:70:Kick.wav
448,192,41981,1,0,0:0:0:70:snare.wav
64,192,41981,1,0,0:0:0:0:
64,192,42231,1,0,0:0:0:0:
320,192,42314,1,0,0:0:0:0:
64,192,42481,1,0,0:0:0:0:
192,192,42564,1,0,0:0:0:0:
448,192,42648,1,0,0:0:0:70:Kick.wav
320,192,42648,1,0,0:0:0:0:
320,192,42898,1,0,0:0:0:0:
64,192,42981,1,0,0:0:0:0:
448,192,43148,1,0,0:0:0:70:Kick.wav
320,192,43148,1,0,0:0:0:0:
192,192,43314,1,0,0:0:0:70:snare.wav
64,192,43314,1,0,0:0:0:0:
192,192,43564,1,0,0:0:0:0:
448,192,43648,1,0,0:0:0:0:
192,192,43814,1,0,0:0:0:0:
320,192,43898,1,0,0:0:0:0:
448,192,43981,1,0,0:0:0:70:Kick.wav
64,192,43981,128,0,44648:0:0:0:70:Cymbal.wav
192,192,44314,128,0,44648:0:0:0:0:
448,192,44648,1,0,0:0:0:70:snare.wav
320,192,44648,1,0,0:0:0:0:
64,192,44814,1,0,0:0:0:0:
320,192,44981,1,0,0:0:0:0:
448,192,45148,128,0,45814:0:0:0:70:Cymbal.wav
320,192,45148,128,0,45814:0:0:0:70:Kick.wav
64,192,45814,1,0,0:0:0:70:Kick.wav
320,192,45981,1,0,0:0:0:70:snare.wav
448,192,45981,1,0,0:0:0:0:
192,192,46148,1,0,0:0:0:70:Kick.wav
192,192,46314,1,0,0:0:0:70:Kick.wav
64,192,46481,1,0,0:0:0:70:Kick.wav
320,192,46648,128,0,47314:0:0:0:70:Kick.wav
448,192,46648,1,0,0:0:0:0:
192,192,46981,128,0,47314:0:0:0:0:
64,192,47314,1,0,0:0:0:70:snare.wav
448,192,47314,1,0,0:0:0:0:
64,192,47564,1,0,0:0:0:0:
320,192,47648,1,0,0:0:0:0:
64,192,47814,1,0,0:0:0:0:
320,192,47981,1,0,0:0:0:70:Kick.wav
448,192,47981,1,0,0:0:0:0:
448,192,48231,1,0,0:0:0:0:
192,192,48314,1,0,0:0:0:0:
448,192,48481,1,0,0:0:0:70:Kick.wav
320,192,48481,1,0,0:0:0:0:
192,192,48648,1,0,0:0:0:70:snare.wav
64,192,48648,1,0,0:0:0:0:
192,192,48898,1,0,0:0:0:0:
448,192,48981,1,0,0:0:0:0:
192,192,49148,1,0,0:0:0:0:
64,192,49314,1,0,0:0:0:70:Kick.wav
448,192,49314,128,0,49481:0:0:0:70:Cymbal.wav
448,192,49648,128,0,49814:0:0:0:70:Cymbal.wav
64,192,49648,1,0,0:0:0:70:Kick.wav
192,192,49981,1,0,0:0:0:70:snare.wav
64,192,49981,1,0,0:0:0:0:
448,192,50148,1,0,0:0:0:70:Kick.wav
192,192,50481,128,0,50981:0:0:0:70:Cymbal.wav
448,192,50481,1,0,0:0:0:70:Kick.wav
64,192,50981,1,0,0:0:0:70:Kick.wav
64,192,51148,1,0,0:0:0:70:Kick.wav
320,192,51314,1,0,0:0:0:70:snare.wav
448,192,51314,128,0,51814:0:0:0:0:
64,192,51648,128,0,51981:0:0:0:0:
448,192,51981,1,0,0:0:0:70:Cymbal.wav
320,192,51981,1,0,0:0:0:70:Kick.wav
320,192,52481,128,0,52814:0:0:0:0:
192,192,52981,128,0,53314:0:0:0:0:
64,192,53481,128,0,54481:0:0:0:0:
320,192,53981,1,0,0:0:0:70:Kick.wav
448,192,54148,1,0,0:0:0:70:Kick.wav
192,192,54314,1,0,0:0:0:70:Kick.wav
192,192,54481,1,0,0:0:0:70:Kick.wav
448,192,54648,128,0,55648:0:0:0:70:Kick.wav
320,192,54648,1,0,0:0:0:70:Cymbal.wav
320,192,55981,128,0,56481:0:0:0:0:
192,192,56648,128,0,57148:0:0:0:0:
448,192,56648,128,0,57148:0:0:0:0:
64,192,57314,128,0,58314:0:0:0:0:
192,192,58648,128,0,59148:0:0:0:0:
320,192,59314,128,0,59814:0:0:0:0:
64,192,59314,128,0,59814:0:0:0:0:
448,192,59981,1,0,0:0:0:0:
192,192,59981,1,0,0:0:0:0:
448,192,60148,1,0,0:0:0:0:
64,192,60481,128,0,60814:0:0:0:0:
448,192,60814,1,0,0:0:0:0:
192,192,60981,1,0,0:0:0:0:
320,192,61148,1,0,0:0:0:0:
448,192,61314,128,0,61814:0:0:0:0:
64,192,61481,1,0,0:0:0:0:
64,192,61814,1,0,0:0:0:0:
192,192,61981,128,0,62481:0:0:0:0:
448,192,62148,1,0,0:0:0:0:
448,192,62481,1,0,0:0:0:0:
64,192,62648,1,0,0:0:0:0:
320,192,62648,1,0,0:0:0:0:
64,192,62814,1,0,0:0:0:0:
448,192,63148,128,0,63648:0:0:0:0:
64,192,63648,1,0,0:0:0:70:Kick.wav
192,192,63731,1,0,0:0:0:70:Kick.wav
448,192,63814,1,0,0:0:0:70:Kick.wav
320,192,63898,1,0,0:0:0:70:Kick.wav
192,192,63981,1,0,0:0:0:70:Kick.wav
64,192,63981,1,0,0:0:0:70:Cymbal.wav
192,192,64231,1,0,0:0:0:70:Cymbal.wav
64,192,64231,1,0,0:0:0:70:Kick.wav
448,192,64481,1,0,0:0:0:70:Cymbal.wav
320,192,64481,1,0,0:0:0:70:Kick.wav
320,192,64648,1,0,0:0:0:70:Cymbal.wav
192,192,64648,1,0,0:0:0:70:Kick.wav
320,192,64898,1,0,0:0:0:70:Kick.wav
192,192,64898,1,0,0:0:0:70:Cymbal.wav
192,192,65148,1,0,0:0:0:70:Cymbal.wav
64,192,65148,1,0,0:0:0:70:Kick.wav
64,192,65314,1,0,0:0:0:70:Cymbal.wav
320,192,65314,1,0,0:0:0:70:Kick.wav
64,192,65564,1,0,0:0:0:70:Kick.wav
448,192,65648,1,0,0:0:0:0:
64,192,65814,1,0,0:0:0:70:Kick.wav
192,192,65981,1,0,0:0:0:70:Kick.wav
320,192,65981,1,0,0:0:0:0:
192,192,66231,1,0,0:0:0:70:Kick.wav
448,192,66314,1,0,0:0:0:0:
192,192,66481,1,0,0:0:0:70:Kick.wav
320,192,66648,1,0,0:0:0:70:Kick.wav
64,192,66648,1,0,0:0:0:0:
64,192,66898,1,0,0:0:0:70:Kick.wav
448,192,66981,1,0,0:0:0:0:
64,192,67148,1,0,0:0:0:70:Kick.wav
192,192,67314,1,0,0:0:0:70:Kick.wav
320,192,67314,1,0,0:0:0:0:
192,192,67564,1,0,0:0:0:70:Kick.wav
448,192,67648,1,0,0:0:0:0:
192,192,67814,1,0,0:0:0:70:Kick.wav
448,192,67981,1,0,0:0:0:70:Kick.wav
64,192,67981,1,0,0:0:0:0:
448,192,68231,1,0,0:0:0:70:Kick.wav
64,192,68314,1,0,0:0:0:0:
448,192,68481,1,0,0:0:0:70:Kick.wav
192,192,68648,1,0,0:0:0:70:Kick.wav
320,192,68648,1,0,0:0:0:0:
320,192,68898,1,0,0:0:0:70:Kick.wav
64,192,68981,1,0,0:0:0:0:
320,192,69148,1,0,0:0:0:70:Kick.wav
448,192,69314,1,0,0:0:0:70:Kick.wav
192,192,69314,1,0,0:0:0:0:
448,192,69564,1,0,0:0:0:70:Kick.wav
64,192,69648,1,0,0:0:0:0:
448,192,69814,1,0,0:0:0:70:Kick.wav
192,192,69981,1,0,0:0:0:70:Kick.wav
320,192,69981,1,0,0:0:0:0:
320,192,70231,1,0,0:0:0:70:Kick.wav
64,192,70314,1,0,0:0:0:0:
320,192,70481,1,0,0:0:0:70:Kick.wav
448,192,70648,1,0,0:0:0:70:Cymbal.wav
192,192,70648,1,0,0:0:0:70:Kick.wav
320,192,70981,1,0,0:0:0:0:
320,192,71231,1,0,0:0:0:0:
320,192,71398,1,0,0:0:0:0:
64,192,71481,1,0,0:0:0:0:
320,192,71731,1,0,0:0:0:0:
320,192,71898,1,0,0:0:0:0:
64,192,71981,1,0,0:0:0:0:
64,192,72148,1,0,0:0:0:0:
448,192,72314,1,0,0:0:0:0:
448,192,72564,1,0,0:0:0:0:
448,192,72731,1,0,0:0:0:0:
192,192,72814,1,0,0:0:0:0:
192,192,73064,1,0,0:0:0:0:
192,192,73231,1,0,0:0:0:0:
448,192,73314,1,0,0:0:0:0:
448,192,73648,1,0,0:0:0:0:
448,192,73898,1,0,0:0:0:0:
192,192,74064,1,0,0:0:0:0:
448,192,74148,1,0,0:0:0:0:
64,192,74398,1,0,0:0:0:0:
64,192,74564,1,0,0:0:0:0:
448,192,74648,1,0,0:0:0:70:Kick.wav
320,192,74648,1,0,0:0:0:70:Cymbal.wav
192,192,74898,1,0,0:0:0:0:
64,192,75148,1,0,0:0:0:0:
448,192,75314,1,0,0:0:0:0:
320,192,75564,1,0,0:0:0:0:
192,192,75814,1,0,0:0:0:0:
64,192,75981,128,0,77981:0:0:0:70:Cymbal.wav
448,192,75981,1,0,0:0:0:70:Kick.wav
448,192,76814,1,0,0:0:0:0:
320,192,76981,1,0,0:0:0:0:
192,192,77148,128,0,77981:0:0:0:0:
320,192,77981,128,0,78648:0:0:0:0:
448,192,78648,128,0,80981:0:0:0:0:
192,192,79814,128,0,80981:0:0:0:0:
64,192,81314,1,0,0:0:0:70:Cymbal.wav
320,192,81314,128,0,83314:0:0:0:0:
64,192,82314,1,0,0:0:0:0:
192,192,82481,128,0,83314:0:0:0:0:
64,192,83314,1,0,0:0:0:0:
448,192,83481,128,0,83814:0:0:0:0:
192,192,83814,1,0,0:0:0:0:
64,192,83981,128,0,85981:0:0:0:0:
192,192,84814,1,0,0:0:0:0:
320,192,84981,1,0,0:0:0:0:
448,192,85148,128,0,85981:0:0:0:0:
320,192,85981,1,0,0:0:0:0:
192,192,86314,1,0,0:0:0:0:
64,192,86648,128,0,87314:0:0:0:70:Cymbal.wav
320,192,86648,128,0,87314:0:0:0:70:Kick.wav
192,192,87314,1,0,0:0:0:70:Kick.wav
320,192,87481,1,0,0:0:0:70:Kick.wav
448,192,87648,1,0,0:0:0:70:Kick.wav
192,192,87814,128,0,88648:0:0:0:70:Cymbal.wav
64,192,87814,128,0,88648:0:0:0:70:Kick.wav
448,192,88648,1,0,0:0:0:70:snare.wav
320,192,88648,128,0,89314:0:0:0:0:
448,192,89314,128,0,90314:0:0:0:70:Cymbal.wav
64,192,89314,1,0,0:0:0:70:Kick.wav
64,192,89981,1,0,0:0:0:70:Kick.wav
192,192,90148,1,0,0:0:0:70:Kick.wav
320,192,90314,1,0,0:0:0:70:Kick.wav
64,192,90481,128,0,91314:0:0:0:70:Cymbal.wav
448,192,90481,128,0,91314:0:0:0:70:Kick.wav
320,192,91314,1,0,0:0:0:70:snare.wav
192,192,91314,1,0,0:0:0:0:
448,192,91981,128,0,92648:0:0:0:70:Kick.wav
192,192,91981,128,0,92648:0:0:0:70:Cymbal.wav
320,192,92648,1,0,0:0:0:70:Kick.wav
192,192,92814,1,0,0:0:0:70:Kick.wav
64,192,92981,1,0,0:0:0:70:Kick.wav
320,192,93148,128,0,93814:0:0:0:70:Cymbal.wav
448,192,93148,128,0,93814:0:0:0:70:Kick.wav
64,192,93814,1,0,0:0:0:70:Kick.wav
448,192,93981,1,0,0:0:0:70:snare.wav
192,192,93981,1,0,0:0:0:0:
320,192,94148,128,0,94481:0:0:0:0:
448,192,94481,1,0,0:0:0:0:
64,192,94648,128,0,95314:0:0:0:70:Cymbal.wav
192,192,94648,128,0,95314:0:0:0:70:Kick.wav
448,192,95314,1,0,0:0:0:70:Kick.wav
320,192,95481,1,0,0:0:0:70:Kick.wav
192,192,95648,1,0,0:0:0:70:Kick.wav
448,192,95814,128,0,97314:0:0:0:70:Kick.wav
64,192,95814,128,0,97314:0:0:0:70:Cymbal.wav
192,192,97314,1,0,0:0:0:70:Kick.wav
320,192,97481,1,0,0:0:0:0:
448,192,97648,1,0,0:0:0:0:
320,192,97814,1,0,0:0:0:0:
320,192,98148,1,0,0:0:0:0:
192,192,98314,1,0,0:0:0:0:
320,192,98481,1,0,0:0:0:0:
64,192,98648,1,0,0:0:0:0:
64,192,98814,1,0,0:0:0:0:
192,192,99148,1,0,0:0:0:0:
320,192,99481,1,0,0:0:0:0:
192,192,99648,1,0,0:0:0:0:
64,192,99814,1,0,0:0:0:0:
192,192,99981,1,0,0:0:0:0:
320,192,100148,1,0,0:0:0:0:
448,192,100314,1,0,0:0:0:0:
320,192,100481,1,0,0:0:0:0:
320,192,100814,1,0,0:0:0:0:
192,192,100981,1,0,0:0:0:0:
320,192,101148,1,0,0:0:0:0:
64,192,101314,1,0,0:0:0:0:
64,192,101481,1,0,0:0:0:0:
192,192,101814,1,0,0:0:0:0:
320,192,102148,1,0,0:0:0:0:
192,192,102314,1,0,0:0:0:0:
64,192,102481,1,0,0:0:0:0:
448,192,102648,1,0,0:0:0:70:Kick.wav
320,192,102648,1,0,0:0:0:0:
448,192,102814,1,0,0:0:0:70:Kick.wav
320,192,102814,1,0,0:0:0:0:
64,192,102981,1,0,0:0:0:70:Kick.wav
192,192,102981,1,0,0:0:0:0:
192,192,103148,1,0,0:0:0:70:Kick.wav
64,192,103148,1,0,0:0:0:0:
448,192,103314,1,0,0:0:0:70:Kick.wav
320,192,103314,1,0,0:0:0:0:
448,192,103481,1,0,0:0:0:70:Kick.wav
320,192,103481,1,0,0:0:0:0:
192,192,103648,1,0,0:0:0:70:Kick.wav
64,192,103648,1,0,0:0:0:0:
192,192,103814,1,0,0:0:0:70:Kick.wav
64,192,103814,1,0,0:0:0:0:
320,192,103981,1,0,0:0:0:70:Kick.wav
448,192,103981,1,0,0:0:0:0:
192,192,104148,1,0,0:0:0:70:Kick.wav
320,192,104148,1,0,0:0:0:0:
192,192,104314,1,0,0:0:0:70:Kick.wav
64,192,104314,1,0,0:0:0:0:
448,192,104481,1,0,0:0:0:70:Kick.wav
320,192,104481,1,0,0:0:0:0:
64,192,104648,1,0,0:0:0:70:Kick.wav
192,192,104648,1,0,0:0:0:0:
320,192,104814,1,0,0:0:0:70:Kick.wav
192,192,104814,1,0,0:0:0:0:
448,192,104981,1,0,0:0:0:70:Kick.wav
320,192,104981,1,0,0:0:0:0:
192,192,105148,1,0,0:0:0:70:Kick.wav
64,192,105148,1,0,0:0:0:0:
448,192,105314,1,0,0:0:0:70:Kick.wav
320,192,105398,1,0,0:0:0:70:Kick.wav
64,192,105481,1,0,0:0:0:70:Kick.wav
320,192,105564,1,0,0:0:0:70:Kick.wav
192,192,105648,1,0,0:0:0:70:Kick.wav
448,192,105731,1,0,0:0:0:70:Kick.wav
64,192,105814,1,0,0:0:0:70:Kick.wav
192,192,105898,1,0,0:0:0:70:Kick.wav
448,192,105981,1,0,0:0:0:70:Kick.wav
192,192,106064,1,0,0:0:0:70:Kick.wav
320,192,106148,1,0,0:0:0:70:Kick.wav
64,192,106231,1,0,0:0:0:70:Kick.wav
320,192,106314,1,0,0:0:0:70:Kick.wav
192,192,106398,1,0,0:0:0:70:Kick.wav
448,192,106481,1,0,0:0:0:70:Kick.wav
320,192,106564,1,0,0:0:0:70:Kick.wav
64,192,106648,1,0,0:0:0:70:Kick.wav
192,192,106648,1,0,0:0:0:70:Cymbal.wav
448,192,106814,1,0,0:0:0:0:
320,192,107148,1,0,0:0:0:0:
64,192,107231,1,0,0:0:0:0:
320,192,107314,1,0,0:0:0:0:
448,192,107481,1,0,0:0:0:0:
320,192,107648,1,0,0:0:0:0:
192,192,107814,1,0,0:0:0:0:
448,192,107981,1,0,0:0:0:70:Kick.wav
64,192,107981,1,0,0:0:0:70:Cymbal.wav
192,192,109314,1,0,0:0:0:0:
192,192,109481,1,0,0:0:0:0:
448,192,109648,1,0,0:0:0:0:
192,192,109898,1,0,0:0:0:0:
192,192,110064,1,0,0:0:0:0:
448,192,110148,1,0,0:0:0:0:
320,192,110314,1,0,0:0:0:70:Kick.wav
192,192,110398,1,0,0:0:0:70:Kick.wav
448,192,110481,1,0,0:0:0:70:Kick.wav
320,192,110564,1,0,0:0:0:70:Kick.wav
192,192,110648,1,0,0:0:0:70:Cymbal.wav
64,192,110648,1,0,0:0:0:70:Kick.wav
320,192,110814,1,0,0:0:0:0:
448,192,110981,1,0,0:0:0:70:snare.wav
64,192,110981,128,0,111481:0:0:0:0:
192,192,111148,128,0,111481:0:0:0:0:
448,192,111481,1,0,0:0:0:70:Kick.wav
192,192,111648,1,0,0:0:0:70:snare.wav
64,192,111648,1,0,0:0:0:0:
320,192,111814,1,0,0:0:0:0:
448,192,111981,1,0,0:0:0:70:Kick.wav
192,192,111981,1,0,0:0:0:0:
64,192,112148,128,0,112814:0:0:0:0:
448,192,112314,1,0,0:0:0:70:snare.wav
320,192,112314,1,0,0:0:0:0:
320,192,112481,128,0,112814:0:0:0:0:
448,192,112814,1,0,0:0:0:70:Kick.wav
192,192,112981,1,0,0:0:0:70:snare.wav
64,192,112981,1,0,0:0:0:0:
448,192,113148,1,0,0:0:0:0:
320,192,113314,1,0,0:0:0:70:Kick.wav
64,192,113314,1,0,0:0:0:0:
192,192,113481,1,0,0:0:0:0:
448,192,113648,128,0,114148:0:0:0:70:snare.wav
64,192,113648,1,0,0:0:0:0:
320,192,113814,128,0,114148:0:0:0:0:
64,192,114148,1,0,0:0:0:70:Kick.wav
448,192,114314,1,0,0:0:0:70:snare.wav
320,192,114314,1,0,0:0:0:0:
192,192,114481,1,0,0:0:0:0:
320,192,114648,1,0,0:0:0:70:Kick.wav
64,192,114648,1,0,0:0:0:0:
448,192,114814,128,0,115481:0:0:0:0:
192,192,114981,1,0,0:0:0:70:snare.wav
64,192,114981,1,0,0:0:0:0:
320,192,115148,128,0,115481:0:0:0:0:
64,192,115481,1,0,0:0:0:70:Kick.wav
448,192,115648,1,0,0:0:0:70:snare.wav
320,192,115648,1,0,0:0:0:0:
64,192,115814,1,0,0:0:0:0:
192,192,115981,1,0,0:0:0:70:Kick.wav
448,192,115981,1,0,0:0:0:0:
320,192,116148,1,0,0:0:0:0:
192,192,116314,1,0,0:0:0:70:snare.wav
64,192,116314,1,0,0:0:0:0:
448,192,116481,128,0,116814:0:0:0:0:
320,192,116814,1,0,0:0:0:70:snare.wav
64,192,116814,1,0,0:0:0:0:
192,192,116981,1,0,0:0:0:0:
320,192,117148,1,0,0:0:0:70:Kick.wav
448,192,117148,1,0,0:0:0:0:
448,192,117314,1,0,0:0:0:70:Kick.wav
64,192,117314,1,0,0:0:0:70:Cymbal.wav
64,192,117564,1,0,0:0:0:70:Kick.wav
448,192,117564,1,0,0:0:0:70:Cymbal.wav
448,192,117814,1,0,0:0:0:70:Kick.wav
64,192,117814,1,0,0:0:0:70:Cymbal.wav
320,192,117981,1,0,0:0:0:0:
64,192,118148,1,0,0:0:0:70:Kick.wav
320,192,118148,128,0,118314:0:0:0:70:Cymbal.wav
192,192,118314,1,0,0:0:0:70:Kick.wav
64,192,118398,1,0,0:0:0:70:Kick.wav
320,192,118481,1,0,0:0:0:70:Kick.wav
192,192,118564,1,0,0:0:0:70:Kick.wav
448,192,118648,1,0,0:0:0:70:Kick.wav
64,192,118648,1,0,0:0:0:70:Cymbal.wav
192,192,118814,1,0,0:0:0:0:
448,192,118981,1,0,0:0:0:70:Kick.wav
320,192,118981,1,0,0:0:0:0:
64,192,119148,128,0,119481:0:0:0:0:
448,192,119314,1,0,0:0:0:70:Kick.wav
192,192,119481,1,0,0:0:0:0:
448,192,119648,1,0,0:0:0:70:Kick.wav
320,192,119648,1,0,0:0:0:0:
64,192,119814,1,0,0:0:0:0:
192,192,119981,1,0,0:0:0:70:Kick.wav
448,192,119981,1,0,0:0:0:0:
64,192,120148,128,0,120648:0:0:0:0:
448,192,120314,1,0,0:0:0:70:Kick.wav
320,192,120481,128,0,120648:0:0:0:0:
448,192,120648,1,0,0:0:0:70:Kick.wav
192,192,120814,1,0,0:0:0:0:
448,192,120981,1,0,0:0:0:70:snare.wav
64,192,120981,1,0,0:0:0:0:
320,192,121148,1,0,0:0:0:0:
448,192,121314,1,0,0:0:0:70:Kick.wav
192,192,121314,1,0,0:0:0:70:Cymbal.wav
64,192,121481,1,0,0:0:0:0:
320,192,121648,1,0,0:0:0:70:Kick.wav
448,192,121648,1,0,0:0:0:0:
192,192,121814,128,0,122148:0:0:0:0:
448,192,121981,1,0,0:0:0:70:Kick.wav
64,192,122148,1,0,0:0:0:0:
192,192,122314,1,0,0:0:0:70:Kick.wav
448,192,122314,1,0,0:0:0:0:
320,192,122481,1,0,0:0:0:0:
448,192,122648,1,0,0:0:0:70:Kick.wav
64,192,122648,1,0,0:0:0:0:
192,192,122814,128,0,123314:0:0:0:0:
448,192,122981,1,0,0:0:0:70:Kick.wav
64,192,123148,128,0,123314:0:0:0:0:
448,192,123314,1,0,0:0:0:70:Kick.wav
192,192,123481,1,0,0:0:0:0:
448,192,123648,1,0,0:0:0:70:snare.wav
64,192,123648,1,0,0:0:0:0:
320,192,123814,1,0,0:0:0:0:
64,192,123981,1,0,0:0:0:70:Kick.wav
192,192,123981,1,0,0:0:0:0:
64,192,124148,1,0,0:0:0:70:Kick.wav
192,192,124148,1,0,0:0:0:0:
448,192,124314,1,0,0:0:0:70:Kick.wav
320,192,124314,1,0,0:0:0:0:
320,192,124481,1,0,0:0:0:70:Kick.wav
448,192,124481,1,0,0:0:0:0:
64,192,124648,1,0,0:0:0:70:Kick.wav
192,192,124648,1,0,0:0:0:0:
64,192,124814,1,0,0:0:0:70:Kick.wav
192,192,124814,1,0,0:0:0:0:
320,192,124981,1,0,0:0:0:70:Kick.wav
448,192,124981,1,0,0:0:0:0:
320,192,125148,1,0,0:0:0:70:Kick.wav
448,192,125148,1,0,0:0:0:0:
192,192,125314,1,0,0:0:0:70:Kick.wav
64,192,125314,1,0,0:0:0:0:
320,192,125481,1,0,0:0:0:70:Kick.wav
192,192,125481,1,0,0:0:0:0:
320,192,125648,1,0,0:0:0:70:Kick.wav
448,192,125648,1,0,0:0:0:0:
64,192,125814,1,0,0:0:0:70:Kick.wav
192,192,125814,1,0,0:0:0:0:
448,192,125981,1,0,0:0:0:70:Kick.wav
320,192,125981,1,0,0:0:0:0:
192,192,126148,1,0,0:0:0:70:Kick.wav
320,192,126148,1,0,0:0:0:0:
64,192,126314,1,0,0:0:0:70:Kick.wav
192,192,126314,1,0,0:0:0:0:
320,192,126481,1,0,0:0:0:70:Kick.wav
448,192,126481,1,0,0:0:0:0:
64,192,126648,1,0,0:0:0:70:Kick.wav
192,192,126731,1,0,0:0:0:70:Kick.wav
448,192,126814,1,0,0:0:0:70:Kick.wav
192,192,126898,1,0,0:0:0:70:Kick.wav
320,192,126981,1,0,0:0:0:70:Kick.wav
64,192,127064,1,0,0:0:0:70:Kick.wav
448,192,127148,1,0,0:0:0:70:Kick.wav
320,192,127231,1,0,0:0:0:70:Kick.wav
64,192,127314,1,0,0:0:0:70:Kick.wav
320,192,127398,1,0,0:0:0:70:Kick.wav
192,192,127481,1,0,0:0:0:70:Kick.wav
448,192,127564,1,0,0:0:0:70:Kick.wav
192,192,127648,1,0,0:0:0:70:Kick.wav
320,192,127731,1,0,0:0:0:70:Kick.wav
64,192,127814,1,0,0:0:0:70:Kick.wav
192,192,127898,1,0,0:0:0:70:Kick.wav
448,192,127981,128,0,128314:0:0:0:70:Cymbal.wav
320,192,127981,1,0,0:0:0:70:Kick.wav
64,192,128148,128,0,128314:0:0:0:0:
192,192,128481,1,0,0:0:0:0:
448,192,128648,1,0,0:0:0:0:
320,192,128814,1,0,0:0:0:0:
192,192,128981,1,0,0:0:0:0:
64,192,129148,1,0,0:0:0:0:
448,192,129314,1,0,0:0:0:0:
192,192,129814,1,0,0:0:0:0:
64,192,130314,1,0,0:0:0:0:
64,192,130814,1,0,0:0:0:0:
320,192,130814,1,0,0:0:0:0:
448,192,131314,1,0,0:0:0:0:
192,192,131981,1,0,0:0:0:0:
320,192,132481,1,0,0:0:0:0:
64,192,132981,1,0,0:0:0:0:
448,192,133481,1,0,0:0:0:0:
192,192,133481,1,0,0:0:0:0:
