osu file format v14

[General]
AudioFilename: audio.mp3
AudioLeadIn: 0
PreviewTime: 244642
Countdown: 0
SampleSet: Drum
StackLeniency: 0.7
Mode: 2
LetterboxInBreaks: 0
WidescreenStoryboard: 1

[Editor]
Bookmarks: 380,14497,45556,70968,73997,85291,93761,105055,116349,127896,144837,153307,170207,183374,201631,226642,247213,271213,284927,298641,304288,326876,338170,369229,379817,389696,400990,406637
DistanceSpacing: 1
BeatDivisor: 4
GridSize: 4
TimelineZoom: 1.800007

[Metadata]
Title:Orchestra 11
TitleUnicode:オーケストラ11
Artist:MaouDamashii
ArtistUnicode:魔王魂
Creator:JBHyperion
Version:Eternal
Source:永恆的賽妮亞
Tags:Eternal Senia Holy Priest Koichi Morita Demon King magaleta arpg soundtrack final boss theme battle Joker Sounds orchestral instrumental electronic rock metal Soul of the Devil
BeatmapID:1958912
BeatmapSetID:936182

[Difficulty]
HPDrainRate:6
CircleSize:4.5
OverallDifficulty:9.2
ApproachRate:9.2
SliderMultiplier:2
SliderTickRate:1

[Events]
//Background and Video events
0,0,"Senia.jpg",0,0
//Break Periods
//Storyboard Layer 0 (Background)
//Storyboard Layer 1 (Fail)
//Storyboard Layer 2 (Pass)
//Storyboard Layer 3 (Foreground)
//Storyboard Layer 4 (Overlay)
//Storyboard Sound Samples

[TimingPoints]
380,352.941176470588,4,2,1,60,1,0
380,-133.333333333333,4,2,1,60,0,0
1085,-133.333333333333,4,2,1,40,0,0
3203,-133.333333333333,4,2,1,60,0,0
3909,-100,4,2,1,40,0,0
4438,-133.333333333333,4,2,1,40,0,0
5144,-133.333333333333,4,2,1,45,0,0
5321,-133.333333333333,4,2,1,50,0,0
5497,-133.333333333333,4,2,1,55,0,0
5674,-133.333333333333,4,2,1,60,0,0
5850,-133.333333333333,4,2,1,65,0,0
6027,-133.333333333333,4,2,1,60,0,0
6732,-133.333333333333,4,2,1,40,0,0
8850,-133.333333333333,4,2,1,60,0,0
9556,-133.333333333333,4,2,1,40,0,0
11674,-133.333333333333,4,2,2,50,0,0
12379,-133.333333333333,4,2,2,55,0,0
13085,-100,4,2,2,60,0,0
13438,-86.9565217391304,4,2,2,65,0,0
13791,-100,4,2,2,60,0,0
14497,-90.9090909090909,4,2,3,60,0,0
14850,-100,4,2,3,80,0,0
16438,-100,4,2,3,80,0,0
20144,-100,4,2,3,60,0,0
20321,-100,4,2,2,80,0,0
22968,-100,4,2,3,60,0,0
23144,-100,4,2,2,80,0,0
25791,-100,4,2,3,60,0,0
25968,-100,4,2,3,80,0,0
29321,-83.3333333333333,4,2,3,80,0,0
29674,-100,4,2,3,80,0,0
31438,-100,4,2,3,60,0,0
31615,-100,4,2,2,80,0,0
34262,-100,4,2,3,60,0,0
34438,-100,4,2,2,80,0,0
42379,-50,4,2,3,80,0,0
42556,-100,4,2,2,80,0,0
42732,-100,4,2,2,80,0,0
43438,-80,4,2,2,85,0,0
44144,-60.2409638554217,4,2,2,90,0,0
44497,-100,4,2,2,80,0,0
45732,-100,4,2,2,80,0,0
48379,-100,4,2,3,80,0,0
48556,-100,4,2,2,80,0,0
51203,-100,4,2,3,80,0,0
51380,-100,4,2,2,80,0,0
54027,-100,4,2,3,80,0,0
54204,-100,4,2,2,80,0,0
56850,-100,4,2,3,80,0,0
57027,-100,4,2,2,80,0,0
59674,-100,4,2,3,80,0,0
59851,-100,4,2,2,80,0,0
62497,-100,4,2,3,80,0,0
62674,-100,4,2,2,80,0,0
65321,-100,4,2,3,80,0,0
65498,-100,4,2,2,80,0,0
68144,-80,4,2,2,80,0,0
68850,-66.6666666666667,4,2,2,85,0,0
69556,-44.4444444444445,4,2,2,90,0,0
70262,-100,4,2,2,95,0,0
70615,-100,4,2,2,60,0,0
70968,-100,4,2,3,60,0,0
71144,-100,4,2,2,60,0,0
71674,-100,4,2,2,65,0,0
72379,-100,4,2,2,70,0,0
73085,444.444444444444,4,2,2,75,1,0
73085,-80,4,2,2,75,0,0
73529,468.75,4,2,2,80,1,0
73529,-66.6666666666667,4,2,2,80,0,0
73997,352.941176470588,4,2,2,100,1,0
73997,-133.333333333333,4,2,2,100,0,0
74173,-133.333333333333,4,2,0,60,0,0
79644,-100,4,2,3,80,0,0
79761,-100,4,2,2,80,0,0
85291,352.941176470588,3,2,3,80,1,0
85467,-100,3,2,2,60,0,0
88643,-100,3,2,2,80,0,0
89526,-100,3,2,3,60,0,0
89702,-100,3,2,2,60,0,0
93055,-100,3,2,3,60,0,0
93408,-100,3,2,2,60,0,0
93761,352.941176470588,4,2,2,70,1,0
94466,-100,4,2,3,70,0,0
94819,-100,4,2,2,70,0,0
95878,-100,4,2,3,70,0,0
96231,-100,4,2,2,70,0,0
97290,-100,4,2,3,70,0,0
97643,-100,4,2,2,70,0,0
98702,-100,4,2,3,70,0,0
99055,-100,4,2,2,70,0,0
100113,-100,4,2,3,70,0,0
100466,-100,4,2,2,70,0,0
101525,-100,4,2,3,70,0,0
101878,-100,4,2,2,70,0,0
102937,-100,4,2,3,70,0,0
103290,-100,4,2,2,70,0,0
104349,-100,4,2,3,70,0,0
104702,-100,4,2,3,60,0,0
105231,-100,4,2,2,70,0,0
106466,-75.187969924812,4,2,2,70,0,0
107172,-75.187969924812,4,2,3,80,0,0
107525,-100,4,2,2,70,0,0
107878,-100,4,2,2,80,0,0
108055,-100,4,2,2,70,0,0
108584,-100,4,2,3,80,0,0
108760,-100,4,2,2,70,0,0
109290,-75.187969924812,4,2,2,70,0,0
109643,-100,4,2,2,70,0,0
109996,-100,4,2,3,80,0,0
110172,-100,4,2,2,70,0,0
110702,-100,4,2,3,60,0,0
110878,-100,4,2,2,70,0,0
112819,-75.187969924812,4,2,3,80,0,0
113172,-100,4,2,2,70,0,0
115643,-100,4,2,3,80,0,0
115819,-100,4,2,2,70,0,0
116349,-75.187969924812,4,2,2,70,0,0
116702,-100,4,2,2,70,0,0
118466,-100,4,2,3,80,0,0
118643,-100,4,2,2,70,0,0
119172,-100,4,2,2,70,0,0
121290,-100,4,2,3,80,0,0
121643,-100,4,2,2,70,0,0
124113,-100,4,2,3,80,0,0
124466,-100,4,2,2,70,0,0
126760,434.782608695652,4,2,2,70,1,0
126977,419.58041958042,4,2,2,70,1,0
127396,500,4,2,2,70,1,0
127896,352.941176470588,4,2,2,80,1,0
128248,-75.187969924812,4,2,3,80,0,0
128601,-100,4,2,3,80,0,0
129307,-75.187969924812,4,2,3,80,0,0
130543,-100,4,2,3,80,0,0
132131,-80,4,2,3,80,0,0
133190,-100,4,2,3,80,0,0
133543,-100,4,2,2,80,0,0
139190,-100,4,2,3,60,0,0
139366,-100,4,2,3,80,0,0
143425,-80,4,2,2,80,0,0
144484,-100,4,2,2,80,0,0
144837,352.941176470588,3,2,2,80,1,0
144954,-100,3,2,2,70,0,0
145895,-94.3396226415094,3,2,2,65,0,0
146954,-89.2857142857143,3,2,3,60,0,0
147072,-89.2857142857143,3,2,2,70,0,0
148013,-84.7457627118644,3,2,2,75,0,0
149072,-80.6451612903226,3,2,3,70,0,0
149189,-80.6451612903226,3,2,2,80,0,0
150131,-76.9230769230769,3,2,2,85,0,0
151189,-73.5294117647059,3,2,3,80,0,0
151307,-73.5294117647059,3,2,2,90,0,0
151895,-66.6666666666667,3,2,2,90,0,0
152248,-70.4225352112676,3,2,2,95,0,0
152954,-55.5555555555556,3,2,2,95,0,0
153307,352.941176470588,4,2,2,100,1,0
153307,-133.333333333333,4,2,2,100,0,0
153483,-133.333333333333,4,2,2,80,0,0
154012,-100,4,2,2,80,0,0
156130,-90.9090909090909,4,2,2,90,0,0
156483,-100,4,2,2,90,0,0
158954,-100,4,2,2,95,0,0
159659,-100,4,2,3,100,0,0
160365,-100,4,2,2,90,0,0
160542,-100,4,2,2,80,0,0
163189,-100,4,2,3,65,0,0
163365,-100,4,2,2,80,0,0
165307,-90.9090909090909,4,2,2,80,0,0
165659,-83.3333333333333,4,2,2,80,0,0
165836,-100,4,2,2,80,0,0
166012,-100,4,2,3,65,0,0
166189,-100,4,2,2,80,0,0
168836,342.857142857143,4,2,2,85,1,0
169521,-100,4,2,2,90,0,0
169864,-100,4,2,2,95,0,0
170207,638.297872340426,4,2,2,100,1,0
170207,-200,4,2,2,100,0,0
171483,618.556701030928,4,2,3,70,1,0
172720,571.428571428571,4,2,2,90,1,0
173862,566.037735849057,4,2,3,80,1,0
173862,-83.3333333333333,4,2,3,80,0,0
174994,545.454545454546,4,2,2,80,1,0
174994,-80,4,2,2,80,0,0
176084,508.474576271186,4,2,3,90,1,0
176084,-80,4,2,3,90,0,0
177100,566.037735849057,4,2,2,90,1,0
178232,600,4,2,2,90,1,0
179432,648.648648648649,4,2,3,80,1,0
180729,-100,4,2,2,70,0,0
182026,674.157303370787,4,2,3,60,1,0
183374,352.941176470588,6,2,3,70,1,0
183550,-100,6,2,2,70,0,0
184432,-100,6,2,3,70,0,0
184609,-100,6,2,2,70,0,0
185491,352.941176470588,5,2,3,70,1,0
185667,-100,5,2,2,70,0,0
186549,-100,6,2,3,80,0,0
186726,-100,6,2,2,80,0,0
187255,352.941176470588,6,2,3,70,1,0
187431,-100,6,2,2,70,0,0
188313,-100,6,2,3,80,0,0
188490,-100,6,2,2,80,0,0
189372,352.941176470588,5,2,3,70,1,0
189548,-100,5,2,2,70,0,0
190430,-100,6,2,3,80,0,0
190607,-100,6,2,2,80,0,0
191136,352.941176470588,6,2,3,70,1,0
191312,-100,6,2,2,70,0,0
191841,-100,6,2,3,80,0,0
192018,-100,6,2,2,80,0,0
192547,-100,6,2,3,80,0,0
192724,-100,6,2,2,80,0,0
193253,352.941176470588,5,2,3,70,1,0
193429,-100,5,2,2,70,0,0
193958,-100,6,2,3,80,0,0
194488,-100,6,2,2,80,0,0
195017,352.941176470588,6,2,3,70,1,0
195193,-100,6,2,2,70,0,0
195722,-100,6,2,3,80,0,0
195899,-100,6,2,2,80,0,0
196428,-100,6,2,3,80,0,0
196605,-100,6,2,2,80,0,0
197134,352.941176470588,3,2,3,70,1,0
197310,-100,3,2,2,70,0,0
197839,-100,6,2,3,80,0,0
198016,-100,6,2,2,80,0,0
198192,352.941176470588,4,2,3,70,1,0
198368,-100,4,2,2,70,0,0
198897,379.746835443038,4,2,3,70,1,0
199086,-100,4,2,2,70,0,0
199656,416.666666666667,4,2,3,70,1,0
200072,468.75,4,2,2,70,1,0
200540,491.803278688525,4,2,3,70,1,0
201031,600,4,2,2,70,1,0
201031,-50,4,2,2,70,0,0
201631,500,4,2,2,60,1,0
201881,-100,4,2,1,60,0,0
203631,-100,4,2,1,50,0,0
203881,-100,4,2,1,60,0,0
204506,-100,4,2,1,20,0,0
204631,-83.3333333333333,4,2,1,60,0,0
205506,-100,4,2,1,20,0,0
205631,-66.6666666666667,4,2,1,50,0,0
205881,-66.6666666666667,4,2,1,60,0,0
207631,-133.333333333333,4,2,1,50,0,0
207881,-133.333333333333,4,2,1,60,0,0
209506,-100,4,2,1,20,0,0
209631,-100,4,2,1,60,0,0
211631,-100,4,2,1,50,0,0
211881,-100,4,2,1,60,0,0
212510,-100,4,2,1,20,0,0
212631,483.870967741935,4,2,1,60,1,0
212872,-100,4,2,1,50,0,0
213477,-100,4,2,1,20,0,0
213598,666.666666666667,4,2,1,50,1,0
213931,500,4,2,1,60,1,0
214181,400,4,2,1,60,1,0
214581,-98.7166831194472,4,2,1,60,0,0
214981,652.173913043478,4,2,1,60,1,0
215470,-100,4,2,1,40,0,0
215633,500,4,2,1,60,1,0
216508,-100,4,2,1,40,0,0
216633,-111.111111111111,4,2,1,60,0,0
217508,-100,4,2,1,40,0,0
217633,-111.111111111111,4,2,1,50,0,0
217883,-111.111111111111,4,2,1,60,0,0
219633,-111.111111111111,4,2,1,50,0,0
219883,-111.111111111111,4,2,1,60,0,0
221633,-111.111111111111,4,2,1,50,0,0
221883,-111.111111111111,4,2,1,60,0,0
222633,-111.111111111111,4,2,1,50,0,0
223131,571.428571428571,4,2,1,80,1,0
223131,-66.6666666666667,4,2,1,80,0,0
223702,631.578947368421,4,2,1,60,1,0
224333,666.666666666667,4,2,1,80,1,0
224999,821.917808219178,4,2,1,60,1,0
225204,-100,4,2,1,80,0,0
226642,428.571428571429,3,2,2,90,1,0
226642,-83.3333333333333,3,2,2,90,0,0
226856,-83.3333333333333,3,2,3,90,0,0
231784,-83.3333333333333,3,2,2,90,0,0
231999,-83.3333333333333,3,2,3,90,0,0
236927,-66.6666666666667,3,2,2,90,0,0
237142,-83.3333333333333,3,2,3,90,0,0
242070,-66.6666666666667,3,2,2,90,0,0
242392,-83.3333333333333,3,2,3,90,0,0
244642,-66.6666666666667,3,2,3,90,0,0
244963,-83.3333333333333,3,2,3,90,0,0
245927,-66.6666666666667,3,2,3,90,0,0
246142,-83.3333333333333,3,2,3,90,0,0
247213,-74.0740740740741,3,2,2,90,0,1
247427,-74.0740740740741,3,2,3,90,0,1
248070,-66.6666666666667,3,2,3,90,0,1
248499,-50,3,2,3,90,0,1
248927,-74.0740740740741,3,2,3,90,0,1
249356,-50,3,2,3,90,0,1
249784,-74.0740740740741,3,2,3,90,0,1
250642,-66.6666666666667,3,2,3,90,0,1
250856,-74.0740740740741,3,2,3,90,0,1
252356,-74.0740740740741,3,2,2,90,0,1
252463,-74.0740740740741,3,2,3,90,0,1
253642,-50,3,2,3,90,0,1
253856,-74.0740740740741,3,2,3,90,0,1
254927,-50,3,2,3,90,0,1
255142,-74.0740740740741,3,2,3,90,0,1
256213,-33.3333333333333,3,2,3,90,0,1
256427,-74.0740740740741,3,2,3,90,0,1
257499,428.571428571429,4,2,2,80,1,0
257606,-100,4,2,3,80,0,0
260070,-33.3333333333333,4,2,2,90,0,0
260820,-100,4,2,3,80,0,0
263499,-40,4,2,2,100,0,0
264356,-66.6666666666667,4,2,3,80,0,0
264570,-100,4,2,3,80,0,0
265641,-66.6666666666667,4,2,3,80,0,0
265856,-100,4,2,3,80,0,0
266927,-40,4,2,2,90,0,0
267784,-66.6666666666667,4,2,3,80,0,0
267999,-100,4,2,3,80,0,0
270356,-40,4,2,2,100,0,0
271213,-80,4,2,3,70,0,0
271641,-40,4,2,2,90,0,0
272070,-80,4,2,3,70,0,0
272499,-40,4,2,2,90,0,0
272927,-80,4,2,3,70,0,0
273356,-40,4,2,2,90,0,0
273784,-57.1428571428571,4,2,3,75,0,0
274213,-40,4,2,2,95,0,0
274641,-100,4,2,2,100,0,0
275391,-100,4,2,2,30,0,0
275499,-100,4,2,2,100,0,0
276356,-100,4,2,2,30,0,0
276784,-50,4,2,3,70,0,0
277213,-50,4,2,2,90,0,0
277641,-100,4,2,2,40,0,0
278070,-41.6666666666667,4,2,2,100,0,0
278820,-41.6666666666667,4,2,2,40,0,0
278927,-47.6190476190476,4,2,2,100,0,0
279784,-41.6666666666667,4,2,2,40,0,0
280213,-31.25,4,2,3,80,0,0
280641,-20,4,2,2,90,0,0
281070,-31.25,4,2,2,80,0,0
281499,-66.6666666666667,4,2,2,100,0,0
281713,-66.6666666666667,4,2,2,40,0,0
283213,-100,4,2,0,40,0,0
283641,-100,4,2,0,50,0,0
284070,-100,4,2,0,60,0,0
284499,-100,4,2,0,70,0,0
284927,-100,4,2,2,80,0,0
285784,-100,4,2,2,70,0,0
287284,-100,4,3,0,50,0,0
287499,-100,4,2,2,70,0,0
288356,-100,4,2,2,80,0,0
289213,-100,4,2,2,70,0,0
289749,-100,4,3,0,50,0,0
290070,-80,4,2,1,70,0,0
290499,-100,4,2,1,40,0,0
290927,-100,4,2,1,55,0,0
291356,-100,4,2,1,70,0,0
291784,-66.6666666666667,4,2,2,80,0,0
292427,-100,4,2,2,70,0,0
294141,-100,4,3,0,50,0,0
294356,-100,4,2,2,70,0,0
295213,-66.6666666666667,4,2,2,80,0,0
295856,-100,4,2,2,70,0,0
296927,-133.333333333333,4,2,1,50,0,0
297784,-100,4,2,1,40,0,0
297999,-100,4,2,1,50,0,0
298213,-100,4,2,1,60,0,0
298427,-100,4,2,1,70,0,0
298641,352.941176470588,4,2,2,80,1,0
298641,-75.187969924812,4,2,2,80,0,0
298817,-100,4,2,3,60,0,0
301111,-57.1428571428571,4,2,3,70,0,0
301376,-66.6666666666667,4,2,2,80,0,0
301641,-100,4,2,3,70,0,0
302876,-100,4,2,2,60,0,0
303052,-100,4,3,1,80,0,0
303582,-100,4,3,2,80,0,0
303935,-100,4,3,1,70,0,0
304111,-100,4,3,2,60,0,0
304288,-75.187969924812,4,3,1,80,0,1
304464,-100,4,3,1,80,0,1
306758,-75.187969924812,4,3,1,80,0,1
307023,-100,4,3,1,80,0,1
309582,-75.187969924812,4,3,1,80,0,1
309846,-100,4,3,1,80,0,1
309935,-80,4,3,1,90,0,1
312405,-66.6666666666667,4,3,1,90,0,1
312758,-80,4,3,1,90,0,1
315229,-66.6666666666667,4,3,1,90,0,1
315493,-100,4,3,1,90,0,0
315582,-100,4,3,1,80,0,1
318052,-80,4,3,1,80,0,1
318405,-100,4,3,1,80,0,1
320876,-80,4,3,1,80,0,1
321052,-100,4,3,1,80,0,1
321229,-80,4,3,1,90,0,1
323699,-40,4,3,1,90,0,1
323876,-80,4,3,1,90,0,1
324052,-80,4,3,1,80,0,1
324229,-80,4,3,2,80,0,1
324405,-80,4,3,1,80,0,1
324758,-80,4,3,2,80,0,1
324935,-80,4,3,1,80,0,1
325111,-40,4,3,1,80,0,1
325288,-40,4,3,2,80,0,1
325464,-80,4,3,2,80,0,1
325641,-80,4,3,1,80,0,1
325817,-80,4,3,2,80,0,1
325993,-80,4,3,1,80,0,1
326170,-66.6666666666667,4,3,1,80,0,1
326523,-25,4,3,2,80,0,1
326876,-80,4,2,2,90,0,0
327052,-80,4,2,3,80,0,0
331111,-80,4,2,2,80,0,0
331288,-80,4,2,3,80,0,0
332523,-80,4,2,2,80,0,0
332699,-80,4,2,3,80,0,0
336405,-66.6666666666667,4,2,3,80,0,0
336582,-80,4,2,3,80,0,0
336758,-80,4,2,3,90,0,0
337817,-80,4,2,2,80,0,0
338170,-100,4,2,2,90,0,0
338346,-100,4,2,3,80,0,0
339229,-75.187969924812,4,2,3,80,0,0
339582,-100,4,2,3,80,0,0
342758,-100,4,2,2,70,0,0
342935,-100,4,2,3,80,0,0
343464,-66.6666666666667,4,2,3,100,0,0
343817,-100,4,2,3,80,0,0
349464,-100,4,2,2,80,0,0
349640,-100,4,2,3,80,0,0
354052,-75.187969924812,4,2,3,80,0,0
354229,-100,4,2,3,80,0,0
354758,-100,4,2,2,80,0,0
354935,-100,4,2,3,80,0,0
359699,-100,4,2,2,80,0,0
359876,-100,4,2,3,80,0,0
360758,-100,4,2,2,80,0,0
360935,-100,4,2,3,80,0,0
366052,-100,4,2,2,80,0,0
366229,-100,4,2,3,100,0,0
366405,-100,4,2,2,80,0,0
367111,-100,4,2,2,90,0,0
367464,-80,4,2,3,90,0,0
367640,-100,4,2,3,90,0,0
367817,-40,4,2,2,100,0,0
368170,-100,4,2,2,100,0,0
368611,-100,4,2,2,60,0,0
368876,-100,4,2,3,80,0,0
368964,-100,4,2,3,60,0,0
369229,-100,4,2,2,80,0,0
369935,-100,4,2,2,85,0,0
370288,-80,4,2,2,85,0,0
370640,-66.6666666666667,4,2,2,90,0,0
371346,-66.6666666666667,4,2,2,95,0,0
371699,-50,4,2,2,100,0,0
372052,-100,4,2,1,60,0,0
374170,-66.6666666666667,4,2,1,60,0,0
374435,-100,4,2,1,60,0,0
378052,-100,4,2,0,28,0,0
378229,-100,4,2,0,30,0,0
378405,-100,4,2,0,32,0,0
378581,-100,4,2,0,34,0,0
378758,-100,4,2,0,36,0,0
378934,-100,4,2,0,38,0,0
379111,-100,4,2,0,40,0,0
379288,-100,4,2,0,42,0,0
379464,-100,4,2,0,44,0,0
379641,-100,4,2,0,46,0,0
379817,352.941176470588,6,2,2,100,1,0
379993,-100,6,2,3,90,0,0
381934,352.941176470588,5,2,2,90,1,0
382110,-100,5,2,3,90,0,0
383698,352.941176470588,6,2,2,90,1,0
384050,-66.6666666666667,6,2,3,90,0,0
384403,-40,6,2,3,90,0,0
384756,-66.6666666666667,6,2,3,90,0,0
384933,-100,6,2,3,90,0,0
385815,352.941176470588,3,2,2,90,1,0
386167,-66.6666666666667,6,2,3,90,0,0
386520,-40,6,2,3,90,0,0
386873,352.941176470588,4,2,2,90,1,0
386873,-66.6666666666667,6,2,2,90,0,0
387050,-100,6,2,3,90,0,0
387578,-100,6,2,3,85,0,0
388284,-100,6,2,2,80,0,0
388461,-100,6,2,3,80,0,0
388990,-100,6,2,3,75,0,0
389696,-66.6666666666667,4,2,2,80,0,1
390049,-100,4,2,3,80,0,1
391814,-66.6666666666667,4,2,3,80,0,1
391990,-100,4,2,3,80,0,1
392167,-66.6666666666667,4,2,2,80,0,1
392343,-100,4,2,3,80,0,1
392520,-66.6666666666667,4,2,3,80,0,1
392873,-100,4,2,3,80,0,1
395343,-66.6666666666667,4,2,2,80,0,1
395696,-100,4,2,3,80,0,1
397814,-66.6666666666667,4,2,2,80,0,1
397990,-66.6666666666667,4,2,3,80,0,1
398520,-100,4,2,3,80,0,1
400284,-75.187969924812,4,2,3,80,0,1
400637,-88.8888888888889,4,2,2,70,0,1
400990,-83.3333333333333,4,2,2,90,0,0
401167,-83.3333333333333,4,2,3,60,0,0
406814,-100,4,2,0,50,0,0
411931,-100,4,2,0,45,0,0
412108,-100,4,2,0,43,0,0
412284,-100,4,2,0,41,0,0
412461,-100,4,2,0,39,0,0
412637,-100,4,2,0,37,0,0
412814,-100,4,2,0,35,0,0
412990,-100,4,2,0,33,0,0
413167,-100,4,2,0,31,0,0
413343,-100,4,2,0,29,0,0
413520,-100,4,2,0,27,0,0
413696,-100,4,2,0,25,0,0
413873,-100,4,2,0,23,0,0
414049,-100,4,2,0,21,0,0
414226,-100,4,2,0,19,0,0
414402,-100,4,2,0,17,0,0
414578,-100,4,2,0,15,0,0
414755,-100,4,2,0,13,0,0
414931,-100,4,2,0,11,0,0
415108,-100,4,2,0,9,0,0
415284,-100,4,2,0,7,0,0
415461,-100,4,2,0,5,0,0

[Colours]
Combo1 : 175,175,175
Combo2 : 25,65,125
Combo3 : 200,125,200
Combo4 : 185,120,60
Combo5 : 255,205,100

[HitObjects]
140,192,380,5,8,0:0:0:0:
424,192,732,1,8,0:0:0:0:
232,192,1085,2,0,P|284:112|336:192,1,225.000008583069,2|0,0:0|0:0,0:0:0:0:
232,192,1791,2,0,P|72:272|236:360,1,450.000017166138,2|0,0:0|0:0,0:0:0:0:
500,360,3203,5,8,0:0:0:0:
224,360,3556,1,8,0:0:0:0:
404,364,3909,2,0,P|496:296|388:192,1,300,2|0,0:0|0:0,0:0:0:0:
240,192,4615,6,0,P|179:107|276:36,1,250.000009536744,2|0,0:0|0:0,0:0:0:0:
304,61,5261,1,0,0:0:0:0:
305,99,5320,1,0,0:0:0:0:
279,127,5379,1,0,0:0:0:0:
241,128,5438,1,0,0:0:0:0:
214,101,5497,1,0,0:0:0:0:
214,62,5555,1,0,0:0:0:0:
242,36,5614,1,0,0:0:0:0:
372,36,5674,1,0,0:0:0:0:
427,68,5732,1,0,0:0:0:0:
428,132,5791,1,0,0:0:0:0:
375,167,5850,1,0,0:0:0:0:
132,168,6027,5,8,0:0:0:0:
372,168,6379,1,8,0:0:0:0:
220,168,6732,2,0,P|276:248|308:168,1,225.000008583069,2|0,0:0|0:0,0:0:0:0:
148,164,7438,2,0,P|252:316|377:156,1,450.000017166138,2|0,0:0|0:0,0:0:0:0:
76,164,8850,5,8,0:0:0:0:
360,156,9203,1,8,0:0:0:0:
196,160,9556,2,0,P|232:268|328:312,1,225.000008583069,2|0,0:0|0:0,0:0:0:0:
236,308,10262,2,0,B|88:308|88:308|88:88|340:92,1,525.000020027161,2|0,0:0|0:0,0:0:0:0:
96,96,11674,5,8,0:0:0:0:
64,140,11791,1,0,0:0:0:0:
32,184,11909,1,0,0:0:0:0:
244,192,12027,1,8,0:0:0:0:
264,236,12144,1,0,0:0:0:0:
284,280,12262,1,0,0:0:0:0:
100,280,12379,1,8,0:0:0:0:
108,220,12497,1,0,0:0:0:0:
168,204,12615,1,0,0:0:0:0:
292,192,12732,1,8,0:0:0:0:
284,132,12850,1,0,0:0:0:0:
224,116,12968,1,0,0:0:0:0:
24,116,13085,6,0,L|92:116,2,66.6666666666667,8|2|2,0:0|0:0|0:0,0:0:0:0:
228,32,13438,2,0,L|148:32,2,76.6666681289673,8|2|2,0:0|0:0|0:0,0:0:0:0:
400,32,13791,2,0,P|508:112|392:248,1,350,12|0,0:0|0:0,0:0:0:0:
148,248,14497,6,0,L|32:248,2,110.000003356934,4|0|0,0:0|0:0|0:0,0:0:0:0:
348,248,15203,1,8,0:0:0:0:
88,248,15556,2,0,L|84:144,1,100
384,48,15909,2,0,P|372:124|268:172,1,200,2|2,0:0|0:0,0:0:0:0:
168,172,16438,1,0,0:0:0:0:
360,172,16615,2,0,B|460:172|460:172|468:272,1,200,8|0,0:0|0:0,0:0:0:0:
28,272,17321,6,0,B|128:272|128:272|144:168,1,200,2|0,0:0|0:0,0:0:0:0:
44,172,17850,1,0,0:0:0:0:
244,176,18027,2,0,B|344:176,1,100,8|0,0:0|0:0,0:0:0:0:
224,176,18379,2,0,L|220:76,1,100
500,76,18732,2,0,P|504:136|404:216,1,200,2|2,0:0|0:0,0:0:0:0:
304,216,19262,1,0,0:0:0:0:
204,216,19438,1,8,0:0:0:0:
464,216,19791,1,0,0:0:0:0:
44,216,20144,5,4,0:0:0:0:
0,136,20321,1,0,0:0:0:0:
44,56,20497,1,0,0:0:0:0:
296,56,20674,1,8,0:0:0:0:
188,56,20850,1,0,0:0:0:0:
288,56,21027,1,0,0:0:0:0:
88,156,21203,2,0,L|76:52,2,100,8|0|0,0:0|0:0|0:0,0:0:0:0:
360,156,21732,1,8,0:0:0:0:
270,156,21909,1,0,0:0:0:0:
180,156,22085,1,0,0:0:0:0:
372,228,22262,6,0,L|280:272,1,100,8|0,0:0|0:0,0:0:0:0:
20,272,22615,2,0,L|110:229,1,100,8|0,0:0|0:0,0:0:0:0:
380,228,22968,6,0,L|484:228,2,100,4|0|0,0:0|0:0|0:0,0:0:0:0:
240,112,23497,1,8,0:0:0:0:
352,112,23674,1,0,0:0:0:0:
460,112,23850,1,0,0:0:0:0:
265,162,24027,2,0,L|351:112,2,100,8|0|0,0:0|0:0|0:0,0:0:0:0:
76,164,24556,1,8,0:0:0:0:
76,64,24732,1,0,0:0:0:0:
176,64,24909,1,0,0:0:0:0:
364,64,25085,6,0,L|450:114,1,100,8|0,0:0|0:0,0:0:0:0:
176,164,25438,2,0,L|72:164,1,100,8|0,0:0|0:0,0:0:0:0:
364,260,25791,6,0,L|378:157,1,100,4|0,0:0|0:0,0:0:0:0:
188,264,26144,2,0,P|116:312|188:360,1,200,0|8,0:0|0:0,0:0:0:0:
504,360,26850,2,0,L|413:308,1,100
136,192,27203,2,0,P|72:156|136:80,1,200,2|2,0:0|0:0,0:0:0:0:
236,80,27732,1,0,0:0:0:0:
428,84,27909,2,0,P|476:160|428:252,1,200,8|0,0:0|0:0,0:0:0:0:
16,192,28615,6,0,B|216:192,1,200,2|0,0:0|0:0,0:0:0:0:
316,192,29144,1,0,0:0:0:0:
56,192,29321,2,0,P|28:116|140:36,1,239.999992675781,8|0,0:0|0:0,0:0:0:0:
268,36,29850,1,0,0:0:0:0:
460,56,30027,2,0,L|464:156,1,100,2|0,0:0|0:0,0:0:0:0:
304,156,30379,2,0,L|308:260,1,100,2|0,0:0|0:0,0:0:0:0:
463,155,30732,2,0,L|359:155,1,100,8|0,0:0|0:0,0:0:0:0:
180,356,31085,2,0,L|168:244,1,100
452,356,31438,6,0,L|340:356,2,100,4|0|0,0:0|0:0|0:0,0:0:0:0:
168,356,31968,2,0,L|268:356,2,100,8|0|0,0:0|0:0|0:0,0:0:0:0:
360,256,32497,1,8,0:0:0:0:
260,256,32674,1,0,0:0:0:0:
160,256,32850,1,0,0:0:0:0:
420,256,33027,2,0,L|508:204,2,100,8|0|0,0:0|0:0|0:0,0:0:0:0:
228,256,33556,6,0,L|137:204,1,100,8|2,0:0|0:0,0:0:0:0:
392,144,33909,2,0,L|496:144,1,100,8|2,0:0|0:0,0:0:0:0:
232,144,34262,6,0,L|128:144,1,100,4|0,0:0|0:0,0:0:0:0:
316,144,34615,1,0,0:0:0:0:
16,60,34791,2,0,L|116:60,2,100,8|0|0,0:0|0:0|0:0,0:0:0:0:
208,60,35321,1,8,0:0:0:0:
308,60,35497,1,0,0:0:0:0:
308,160,35674,1,0,0:0:0:0:
60,156,35850,2,0,L|160:156,1,100,8|0,0:0|0:0,0:0:0:0:
40,156,36203,1,0,0:0:0:0:
228,260,36379,6,0,L|137:208,1,100,8|2,0:0|0:0,0:0:0:0:
440,260,36732,2,0,L|448:152,1,100,8|2,0:0|0:0,0:0:0:0:
184,260,37085,6,0,L|80:260,1,100,8|2,0:0|0:0,0:0:0:0:
128,260,37350,1,2,0:0:0:0:
172,260,37438,1,2,0:0:0:0:
432,160,37615,1,8,0:0:0:0:
288,160,37791,1,0,0:0:0:0:
413,160,37968,1,0,0:0:0:0:
124,232,38144,2,0,L|31:192,1,100,8|2,0:0|0:0,0:0:0:0:
79,212,38409,1,2,0:0:0:0:
32,192,38497,1,2,0:0:0:0:
295,172,38674,1,8,0:0:0:0:
195,172,38850,1,0,0:0:0:0:
95,172,39027,1,0,0:0:0:0:
395,172,39203,6,0,L|399:116,1,50,8|2,0:0|0:0,0:0:0:0:
311,104,39379,2,0,L|307:48,1,50,2|2,0:0|0:0,0:0:0:0:
479,52,39556,2,0,L|487:152,1,100,8|0,0:0|0:0,0:0:0:0:
204,192,39909,6,0,L|306:192,1,100,8|2,0:0|0:0,0:0:0:0:
350,192,40174,1,2,0:0:0:0:
394,192,40262,1,2,0:0:0:0:
75,52,40438,2,0,L|175:52,2,100,8|0|0,0:0|0:0|0:0,0:0:0:0:
339,52,40968,2,0,L|347:156,1,100,8|2,0:0|0:0,0:0:0:0:
291,152,41232,1,2,0:0:0:0:
235,152,41321,1,2,0:0:0:0:
496,152,41497,2,0,L|404:192,2,100,8|0|0,0:0|0:0|0:0,0:0:0:0:
192,240,42027,6,0,L|296:240,1,100,8|0,0:0|0:0,0:0:0:0:
32,304,42379,2,0,L|232:304,1,200,8|2,0:0|0:0,0:0:0:0:
292,304,42644,1,2,0:0:0:0:
472,304,42732,6,0,P|508:220|456:132,1,200,12|2,0:0|0:0,0:0:0:0:
356,132,43262,1,0,0:0:0:0:
76,132,43438,2,0,L|200:132,1,125,8|0,0:0|0:0,0:0:0:0:
404,208,43791,2,0,L|280:208,1,125,2|0,0:0|0:0,0:0:0:0:
36,208,44144,6,0,L|368:208,1,332.000004812622,12|2,0:0|0:0,0:0:0:0:
192,208,44674,2,0,L|188:148,1,50,8|8,0:0|0:0,0:0:0:0:
368,48,44850,1,8,0:0:0:0:
32,144,45556,6,0,L|136:144,1,100,12|0,0:0|0:0,0:0:0:0:
232,144,45909,1,0,0:0:0:0:
472,144,46085,2,0,L|360:144,2,100,8|0|0,0:0|0:0|0:0,0:0:0:0:
280,144,46615,1,8,0:0:0:0:
280,232,46791,1,0,0:0:0:0:
372,232,46968,1,0,0:0:0:0:
104,232,47144,1,8,0:0:0:0:
284,232,47321,2,0,L|292:332,1,100
100,332,47674,6,0,L|112:233,1,100,8|2,0:0|0:0,0:0:0:0:
384,232,48027,2,0,L|388:120,1,100,8|2,0:0|0:0,0:0:0:0:
84,232,48379,5,12,0:0:0:0:
184,232,48556,1,0,0:0:0:0:
284,232,48732,1,0,0:0:0:0:
32,148,48909,2,0,L|132:148,1,100,8|0,0:0|0:0,0:0:0:0:
320,148,49262,1,0,0:0:0:0:
84,148,49438,2,0,L|72:48,1,100,8|0,0:0|0:0,0:0:0:0:
184,48,49791,1,0,0:0:0:0:
436,48,49968,2,0,L|332:48,1,100,8|0,0:0|0:0,0:0:0:0:
236,48,50321,1,0,0:0:0:0:
421,99,50497,6,0,L|328:43,1,100,8|2,0:0|0:0,0:0:0:0:
64,48,50850,2,0,L|168:48,1,100,8|2,0:0|0:0,0:0:0:0:
412,192,51203,6,0,L|308:192,1,100,12|0,0:0|0:0,0:0:0:0:
492,192,51556,1,0,0:0:0:0:
212,192,51732,2,0,L|324:192,2,100,8|0|0,0:0|0:0|0:0,0:0:0:0:
20,192,52262,1,8,0:0:0:0:
136,192,52438,1,0,0:0:0:0:
36,192,52615,1,0,0:0:0:0:
276,192,52791,1,8,0:0:0:0:
92,192,52968,2,0,L|100:296,1,100
288,292,53321,6,0,L|194:326,1,100,8|2,0:0|0:0,0:0:0:0:
452,292,53674,2,0,L|460:176,1,100,8|2,0:0|0:0,0:0:0:0:
208,192,54026,5,12,0:0:0:0:
308,192,54203,1,0,0:0:0:0:
408,192,54379,1,0,0:0:0:0:
158,104,54556,2,0,L|258:104,1,100,8|0,0:0|0:0,0:0:0:0:
442,104,54909,1,0,0:0:0:0:
194,24,55085,2,0,L|94:24,1,100,8|0,0:0|0:0,0:0:0:0:
204,24,55438,1,0,0:0:0:0:
16,24,55615,2,0,L|106:76,1,100,8|0,0:0|0:0,0:0:0:0:
4,72,55968,1,0,0:0:0:0:
172,188,56144,6,0,L|264:144,1,100,8|2,0:0|0:0,0:0:0:0:
496,108,56497,2,0,L|392:108,1,100,8|2,0:0|0:0,0:0:0:0:
44,108,56850,6,0,L|32:208,1,100,12|2,0:0|0:0,0:0:0:0:
92,204,57115,1,2,0:0:0:0:
152,204,57203,1,2,0:0:0:0:
388,204,57379,1,8,0:0:0:0:
248,204,57556,1,0,0:0:0:0:
108,204,57732,1,0,0:0:0:0:
360,204,57909,1,8,0:0:0:0:
240,204,58085,1,2,0:0:0:0:
236,264,58174,1,2,0:0:0:0:
232,324,58262,1,2,0:0:0:0:
492,204,58438,2,0,L|392:204,2,100,8|0|0,0:0|0:0|0:0,0:0:0:0:
300,324,58968,6,0,L|209:272,1,100,8|2,0:0|0:0,0:0:0:0:
472,124,59321,2,0,L|368:124,1,100,8|2,0:0|0:0,0:0:0:0:
112,124,59674,5,12,0:0:0:0:
292,124,59850,2,0,L|308:72,2,50,2|2|2,0:0|0:0|0:0,0:0:0:0:
40,48,60203,2,0,L|144:48,2,100,8|2|0,0:0|0:0|0:0,0:0:0:0:
306,76,60732,1,8,0:0:0:0:
204,76,60909,1,2,0:0:0:0:
252,76,60997,1,2,0:0:0:0:
306,76,61085,1,2,0:0:0:0:
44,192,61262,1,8,0:0:0:0:
224,192,61438,1,2,0:0:0:0:
84,192,61615,1,0,0:0:0:0:
264,192,61791,6,0,L|350:242,1,100,8|2,0:0|0:0,0:0:0:0:
80,272,62144,2,0,L|183:272,1,100,8|2,0:0|0:0,0:0:0:0:
480,96,62497,6,0,L|492:196,1,100,12|2,0:0|0:0,0:0:0:0:
432,196,62762,1,2,0:0:0:0:
491,195,62850,1,2,0:0:0:0:
192,196,63026,1,8,0:0:0:0:
342,196,63203,1,2,0:0:0:0:
491,195,63379,1,0,0:0:0:0:
252,196,63556,1,8,0:0:0:0:
132,196,63732,1,2,0:0:0:0:
192,196,63821,1,2,0:0:0:0:
252,196,63909,1,2,0:0:0:0:
16,196,64085,2,0,L|120:196,2,100,8|2|0,0:0|0:0|0:0,0:0:0:0:
208,296,64615,6,0,L|213:195,1,100,8|2,0:0|0:0,0:0:0:0:
488,192,64968,2,0,L|384:192,1,100,8|2,0:0|0:0,0:0:0:0:
136,192,65321,5,12,0:0:0:0:
316,192,65497,1,2,0:0:0:0:
372,192,65585,1,2,0:0:0:0:
428,192,65674,1,2,0:0:0:0:
168,92,65850,2,0,L|272:92,2,100,8|2|0,0:0|0:0|0:0,0:0:0:0:
432,92,66379,1,8,0:0:0:0:
252,24,66556,1,2,0:0:0:0:
204,24,66644,1,2,0:0:0:0:
150,24,66732,1,2,0:0:0:0:
432,88,66909,1,8,0:0:0:0:
244,88,67085,1,2,0:0:0:0:
404,88,67262,1,0,0:0:0:0:
204,88,67438,6,0,L|117:138,1,100,8|2,0:0|0:0,0:0:0:0:
388,192,67791,2,0,L|491:192,1,100,8|2,0:0|0:0,0:0:0:0:
188,192,68144,6,0,L|444:192,1,250,12|2,0:0|0:0,0:0:0:0:
188,192,68674,1,0,0:0:0:0:
492,272,68850,2,0,L|192:272,1,300.000011444092,8|2,0:0|0:0,0:0:0:0:
480,344,69556,6,0,L|28:344,2,450.000017166138,12|8|8,0:0|0:0|0:0,0:0:0:0:
256,344,70615,1,2,0:0:0:0:
356,344,70791,2,0,L|360:288,1,50,8|8,3:2|3:2,0:0:0:0:
180,296,70968,6,0,L|176:192,1,100,4|0,0:0|0:0,0:0:0:0:
364,196,71321,2,0,L|368:92,1,100,8|0,0:0|0:0,0:0:0:0:
132,200,71674,2,0,L|58:126,1,100,8|0,0:0|0:0,0:0:0:0:
300,200,72027,2,0,L|373:126,1,100,8|0,0:0|0:0,0:0:0:0:
96,293,72379,6,0,L|132:197,1,100,8|0,0:0|0:0,0:0:0:0:
405,222,72732,2,0,L|369:126,1,100,8|0,0:0|0:0,0:0:0:0:
31,199,73085,2,0,L|160:200,1,125,8|0,0:0|0:0,0:0:0:0:
496,128,73529,2,0,L|344:128,1,150.000005722046,8|0,0:0|0:0,0:0:0:0:
20,192,73997,5,12,0:0:0:0:
256,192,74173,12,0,79467,0:0:0:0:
199,192,79644,6,0,L|103:192,2,66.6666666666667,4|0|0,0:0|0:0|0:0,0:0:0:0:
279,192,79997,2,0,L|359:192,1,66.6666666666667,2|0,0:0|0:0,0:0:0:0:
279,192,80232,1,0,0:0:0:0:
71,192,80349,2,0,L|-1:192,2,66.6666666666667,8|0|0,0:0|0:0|0:0,0:0:0:0:
207,192,80702,1,2,0:0:0:0:
127,192,80820,1,0,0:0:0:0:
47,192,80938,1,0,0:0:0:0:
263,192,81055,6,0,L|335:192,2,66.6666666666667,8|0|0,0:0|0:0|0:0,0:0:0:0:
183,192,81408,2,0,L|103:192,1,66.6666666666667,2|0,0:0|0:0,0:0:0:0:
183,192,81643,1,0,0:0:0:0:
376,192,81761,2,0,L|456:192,2,66.6666666666667,8|0|0,0:0|0:0|0:0,0:0:0:0:
230,192,82114,2,0,L|150:192,2,66.6666666666667,2|0|0,0:0|0:0|0:0,0:0:0:0:
478,192,82467,5,8,0:0:0:0:
478,192,82585,1,0,0:0:0:0:
406,192,82702,1,0,0:0:0:0:
326,192,82820,1,2,0:0:0:0:
254,192,82937,1,0,0:0:0:0:
254,192,83055,1,0,0:0:0:0:
478,192,83173,2,0,L|382:192,2,66.6666666666667,8|0|0,0:0|0:0|0:0,0:0:0:0:
326,192,83526,2,0,L|398:192,2,66.6666666666667,2|0|0,0:0|0:0|0:0,0:0:0:0:
64,192,83879,6,0,L|144:192,1,66.6666666666667,8|0,0:0|0:0,0:0:0:0:
208,192,84114,1,0,0:0:0:0:
130,192,84232,2,0,L|212:192,2,66.6666666666667,2|0|0,0:0|0:0|0:0,0:0:0:0:
336,192,84585,2,0,L|268:192,2,66.6666666666667,8|0|0,0:0|0:0|0:0,0:0:0:0:
197,192,84938,2,0,L|125:192,2,66.6666666666667,2|0|0,0:0|0:0|0:0,0:0:0:0:
424,192,85291,6,0,L|424:88,1,100,4|0,0:0|0:0,0:0:0:0:
168,192,85643,2,0,L|168:88,1,100,8|0,0:0|0:0,0:0:0:0:
288,192,85996,1,2,0:0:0:0:
96,192,86173,1,10,0:0:0:0:
96,142,86261,1,2,0:0:0:0:
96,92,86349,1,2,0:0:0:0:
368,192,86526,6,0,L|368:88,1,100,8|0,0:0|0:0,0:0:0:0:
256,192,86879,1,2,0:0:0:0:
496,192,87055,2,0,L|496:88,1,100,8|0,0:0|0:0,0:0:0:0:
256,192,87408,6,0,L|256:80,1,100,8|0,0:0|0:0,0:0:0:0:
16,192,87761,2,0,L|120:192,1,100,8|0,0:0|0:0,0:0:0:0:
16,192,88114,1,2,0:0:0:0:
312,192,88291,1,10,0:0:0:0:
312,142,88379,1,2,0:0:0:0:
312,92,88467,1,2,0:0:0:0:
128,192,88643,5,2,0:0:0:0:
312,192,88820,1,8,0:0:0:0:
56,192,88996,1,2,0:0:0:0:
392,192,89173,2,0,L|392:80,1,100,8|0,0:0|0:0,0:0:0:0:
56,192,89526,6,0,L|56:80,1,100,4|0,0:0|0:0,0:0:0:0:
312,192,89879,2,0,L|312:80,1,100,8|2,0:0|0:0,0:0:0:0:
368,192,90143,1,2,0:0:0:0:
424,192,90232,1,2,0:0:0:0:
236,192,90408,2,0,L|236:88,1,100,8|0,0:0|0:0,0:0:0:0:
496,192,90761,6,0,L|496:88,1,100,8|0,0:0|0:0,0:0:0:0:
392,192,91114,1,2,0:0:0:0:
120,192,91291,2,0,L|120:88,1,100,8|0,0:0|0:0,0:0:0:0:
408,192,91643,6,0,L|408:88,1,100,8|0,0:0|0:0,0:0:0:0:
144,192,91996,2,0,L|256:192,1,100,8|2,0:0|0:0,0:0:0:0:
288,192,92261,1,2,0:0:0:0:
332,192,92349,1,2,0:0:0:0:
144,192,92526,2,0,L|144:88,1,100,8|0,0:0|0:0,0:0:0:0:
67,192,92879,5,2,0:0:0:0:
224,192,93055,2,0,L|220:88,1,100,8|0,0:0|0:0,0:0:0:0:
67,192,93408,2,0,L|72:84,1,100,8|0,0:0|0:0,0:0:0:0:
400,192,93761,6,0,L|504:192,1,100,12|0,0:0|0:0,0:0:0:0:
400,192,94113,2,0,L|504:192,1,100,2|0,0:0|0:0,0:0:0:0:
112,192,94466,2,0,L|108:88,1,100,8|0,0:0|0:0,0:0:0:0:
300,192,94819,2,0,L|416:192,1,100,8|0,0:0|0:0,0:0:0:0:
112,192,95172,6,0,L|12:192,1,100,8|0,0:0|0:0,0:0:0:0:
112,192,95525,2,0,L|12:192,1,100,2|0,0:0|0:0,0:0:0:0:
408,192,95878,2,0,L|412:84,1,100,8|0,0:0|0:0,0:0:0:0:
220,192,96231,1,8,0:0:0:0:
332,192,96408,1,8,0:0:0:0:
16,192,96584,6,0,L|120:192,1,100,8|0,0:0|0:0,0:0:0:0:
212,192,96937,2,0,L|108:192,1,100,2|0,0:0|0:0,0:0:0:0:
496,192,97290,2,0,L|360:192,1,100,8|0,0:0|0:0,0:0:0:0:
212,192,97643,2,0,L|84:192,1,100,8|0,0:0|0:0,0:0:0:0:
396,192,97996,6,0,L|504:192,1,100,8|0,0:0|0:0,0:0:0:0:
376,192,98349,1,2,0:0:0:0:
496,192,98525,1,8,0:0:0:0:
128,192,98702,2,0,L|20:192,1,100,8|0,0:0|0:0,0:0:0:0:
216,192,99055,2,0,L|112:192,1,100,8|0,0:0|0:0,0:0:0:0:
432,192,99408,6,0,L|312:192,1,100,8|0,0:0|0:0,0:0:0:0:
224,192,99761,2,0,L|344:192,1,100,2|0,0:0|0:0,0:0:0:0:
48,192,100113,2,0,L|44:88,1,100,8|0,0:0|0:0,0:0:0:0:
228,76,100466,2,0,L|328:76,1,100,8|0,0:0|0:0,0:0:0:0:
136,192,100819,6,0,L|248:192,1,100,8|0,0:0|0:0,0:0:0:0:
278,192,101084,1,0,0:0:0:0:
320,192,101172,2,0,L|200:192,1,100,2|0,0:0|0:0,0:0:0:0:
496,192,101525,2,0,L|392:192,1,100,8|0,0:0|0:0,0:0:0:0:
208,192,101878,1,8,0:0:0:0:
340,192,102055,1,8,0:0:0:0:
16,192,102231,6,0,L|152:192,1,100,8|0,0:0|0:0,0:0:0:0:
16,192,102584,2,0,L|120:192,1,100,2|0,0:0|0:0,0:0:0:0:
392,192,102937,2,0,L|396:80,1,100,8|0,0:0|0:0,0:0:0:0:
208,192,103290,2,0,L|96:192,1,100,8|0,0:0|0:0,0:0:0:0:
392,192,103643,6,0,L|292:192,1,100,8|0,0:0|0:0,0:0:0:0:
192,192,103996,1,2,0:0:0:0:
312,192,104172,1,8,0:0:0:0:
24,192,104349,2,0,L|20:92,1,100,8|0,0:0|0:0,0:0:0:0:
224,192,104702,1,8,0:0:0:0:
274,192,104790,1,0,0:0:0:0:
324,192,104878,1,0,0:0:0:0:
40,192,105055,6,0,L|144:192,2,100,4|0|2,0:0|0:0|0:0,0:0:0:0:
176,192,105584,1,0,0:0:0:0:
440,192,105761,2,0,L|485:166,2,50,8|2|2,0:0|0:0|0:0,0:0:0:0:
252,192,106113,1,8,0:0:0:0:
360,192,106290,1,2,0:0:0:0:
60,192,106466,6,0,P|144:152|60:48,1,265.999989041138,8|8,0:0|0:0,0:0:0:0:
184,48,106996,1,2,0:0:0:0:
476,192,107172,2,0,L|208:192,1,265.999989041138,8|8,0:0|0:0,0:0:0:0:
404,192,107702,1,2,0:0:0:0:
144,192,107878,6,0,P|40:144|56:80,1,200,8|2,0:0|0:0,0:0:0:0:
148,69,108408,1,0,0:0:0:0:
408,192,108584,2,0,L|280:192,1,100,8|0,0:0|0:0,0:0:0:0:
496,192,108937,2,0,L|368:192,1,100,2|0,0:0|0:0,0:0:0:0:
120,192,109290,6,0,P|68:136|192:72,1,265.999989041138,8|2,0:0|0:0,0:0:0:0:
296,192,109819,1,0,0:0:0:0:
24,192,109996,2,0,L|24:88,1,100,8|0,0:0|0:0,0:0:0:0:
160,192,110349,2,0,L|56:192,1,100,8|0,0:0|0:0,0:0:0:0:
336,192,110702,6,0,L|440:192,2,100,4|0|2,0:0|0:0|0:0,0:0:0:0:
464,192,111231,1,0,0:0:0:0:
152,192,111408,1,10,0:0:0:0:
102,192,111496,1,2,0:0:0:0:
52,192,111584,1,2,0:0:0:0:
244,192,111760,1,8,0:0:0:0:
72,192,111937,1,2,0:0:0:0:
432,192,112113,6,0,P|488:144|448:40,1,200,8|2,0:0|0:0,0:0:0:0:
348,40,112643,1,0,0:0:0:0:
148,192,112819,2,0,L|416:192,1,265.999989041138,8|8,0:0|0:0,0:0:0:0:
414,192,113349,1,2,0:0:0:0:
112,192,113525,6,0,P|16:160|40:60,1,200,8|2,0:0|0:0,0:0:0:0:
104,41,114055,1,0,0:0:0:0:
392,192,114231,2,0,L|392:88,1,100,8|0,0:0|0:0,0:0:0:0:
200,192,114584,2,0,L|72:192,1,100,2|0,0:0|0:0,0:0:0:0:
392,192,114937,6,0,P|480:144|400:96,1,200,8|2,0:0|0:0,0:0:0:0:
312,192,115466,1,2,0:0:0:0:
16,192,115643,2,0,L|144:192,1,100,8|0,0:0|0:0,0:0:0:0:
296,192,115996,1,8,0:0:0:0:
128,192,116172,1,2,0:0:0:0:
488,192,116349,6,0,B|476:64|476:64|316:32,1,265.999989041138,12|2,0:0|0:0,0:0:0:0:
424,192,116878,1,0,0:0:0:0:
88,192,117055,2,0,P|16:160|48:56,1,200,8|2,0:0|0:0,0:0:0:0:
140,56,117584,1,0,0:0:0:0:
496,192,117760,5,8,0:0:0:0:
40,192,118113,1,8,0:0:0:0:
352,192,118466,2,0,L|348:84,1,100,8|0,0:0|0:0,0:0:0:0:
40,192,118819,2,0,L|144:192,1,100,8|0,0:0|0:0,0:0:0:0:
424,192,119172,6,0,L|184:192,1,200,8|2,0:0|0:0,0:0:0:0:
104,192,119702,1,0,0:0:0:0:
392,192,119878,2,0,P|488:152|480:64,1,200,8|2,0:0|0:0,0:0:0:0:
48,192,120584,6,0,P|8:144|96:56,1,200,8|8,0:0|0:0,0:0:0:0:
200,192,121113,1,2,0:0:0:0:
464,192,121290,2,0,P|496:144|432:32,1,200,8|2,0:0|0:0,0:0:0:0:
16,192,121996,5,8,0:0:0:0:
116,192,122349,2,0,L|12:192,1,100,2|0,0:0|0:0,0:0:0:0:
256,192,122702,2,0,L|8:192,1,200,8|0,0:0|0:0,0:0:0:0:
472,192,123408,6,0,P|512:168|456:56,1,200,8|2,0:0|0:0,0:0:0:0:
360,56,123937,1,0,0:0:0:0:
48,192,124113,2,0,L|288:192,1,200,8|0,0:0|0:0,0:0:0:0:
360,192,124643,1,0,0:0:0:0:
80,192,124819,6,0,P|24:136|72:32,1,200,8|2,0:0|0:0,0:0:0:0:
472,192,125525,1,8,0:0:0:0:
336,192,125878,2,0,L|448:192,1,100,8|2,0:0|0:0,0:0:0:0:
128,192,126231,6,0,P|56:160|112:72,1,200,8|2,0:0|0:0,0:0:0:0:
208,192,126760,1,0,0:0:0:0:
416,192,126977,2,0,P|480:160|416:80,1,200,2|0,0:0|0:0,0:0:0:0:
232,192,127646,1,0,0:0:0:0:
200,196,127708,1,0,0:0:0:0:
180,220,127771,1,0,0:0:0:0:
184,252,127833,1,0,0:0:0:0:
392,192,127896,6,0,L|496:192,1,100,4|0,0:0|0:0,0:0:0:0:
288,192,128248,2,0,B|144:192|144:192|128:72,1,265.999989041138,0|8,0:0|0:0,0:0:0:0:
480,192,128954,1,0,0:0:0:0:
64,192,129307,6,0,P|4:116|108:20,1,265.999989041138,8|2,0:0|0:0,0:0:0:0:
208,20,129837,1,0,0:0:0:0:
462,192,130013,2,0,L|62:192,1,398.999983561707,8|0,0:0|0:0,0:0:0:0:
376,192,130719,6,0,P|480:144|368:88,1,300,8|0,0:0|0:0,0:0:0:0:
88,192,131425,2,0,L|208:192,1,100,8|0,0:0|0:0,0:0:0:0:
368,192,131778,2,0,L|472:192,1,100
16,72,132131,6,0,P|256:312|496:72,1,750,8|0,0:0|0:0,0:0:0:0:
24,192,133543,6,0,L|128:192,2,100,12|0|0,0:0|0:0|0:0,0:0:0:0:
344,192,134072,2,0,L|224:192,2,100,8|0|0,0:0|0:0|0:0,0:0:0:0:
80,192,134601,2,0,L|80:80,1,100,8|0,0:0|0:0,0:0:0:0:
192,192,134954,1,0,0:0:0:0:
456,192,135131,6,0,L|328:192,2,100,8|0|0,0:0|0:0|0:0,0:0:0:0:
192,192,135660,2,0,L|88:192,1,100,8|2,0:0|0:0,0:0:0:0:
356,192,136013,2,0,L|460:192,1,100,8|2,0:0|0:0,0:0:0:0:
92,192,136366,6,0,L|192:192,2,100,8|0|0,0:0|0:0|0:0,0:0:0:0:
456,192,136896,2,0,L|356:192,2,100,8|0|0,0:0|0:0|0:0,0:0:0:0:
184,192,137425,2,0,L|184:80,1,100,8|0,0:0|0:0,0:0:0:0:
288,192,137778,1,0,0:0:0:0:
24,192,137954,6,0,L|136:192,2,100,8|0|0,0:0|0:0|0:0,0:0:0:0:
288,192,138484,2,0,L|392:192,1,100,8|2,0:0|0:0,0:0:0:0:
124,192,138837,2,0,L|20:192,1,100,8|2,0:0|0:0,0:0:0:0:
328,192,139190,6,0,L|216:192,1,100,4|0,0:0|0:0,0:0:0:0:
416,192,139543,2,0,P|440:160|328:88,1,200,0|8,0:0|0:0,0:0:0:0:
48,192,140248,1,0,0:0:0:0:
480,192,140601,6,0,P|472:112|376:52,1,200,2|2,0:0|0:0,0:0:0:0:
288,47,141131,1,0,0:0:0:0:
96,192,141307,2,0,L|400:192,1,300,8|0,0:0|0:0,0:0:0:0:
96,192,142013,6,0,P|24:144|144:32,1,300,2|0,0:0|0:0,0:0:0:0:
424,192,142719,2,0,L|304:192,1,100,8|0,0:0|0:0,0:0:0:0:
128,192,143072,2,0,L|24:192,1,100
496,72,143425,6,0,P|256:312|16:72,1,750,8|0,0:0|0:0,0:0:0:0:
424,192,144837,6,0,L|496:192,2,66.6666666666667,12|0|0,0:0|0:0|0:0,0:0:0:0:
352,192,145189,1,2,0:0:0:0:
424,192,145307,1,0,0:0:0:0:
490,192,145425,1,0,0:0:0:0:
290,192,145542,2,0,L|434:192,1,133.333333333333,8|0,0:0|0:0,0:0:0:0:
176,192,145895,6,0,L|104:192,2,70.6666667744954,8|0|0,0:0|0:0|0:0,0:0:0:0:
314,192,146247,1,2,0:0:0:0:
242,192,146365,1,0,0:0:0:0:
176,192,146483,1,0,0:0:0:0:
384,192,146601,2,0,L|240:192,1,141.333333548991,8|0,0:0|0:0,0:0:0:0:
496,192,146954,6,0,L|416:192,2,74.666667578125,4|0|0,0:0|0:0|0:0,0:0:0:0:
272,192,147307,2,0,L|192:192,2,74.666667578125,2|0|0,0:0|0:0|0:0,0:0:0:0:
496,192,147660,2,0,L|344:192,1,149.33333515625,8|0,0:0|0:0,0:0:0:0:
112,192,148013,6,0,L|200:192,2,78.6666639058432,8|0|0,0:0|0:0|0:0,0:0:0:0:
400,192,148366,2,0,L|480:192,2,78.6666639058432,2|0|0,0:0|0:0|0:0,0:0:0:0:
112,192,148719,2,0,L|280:192,1,157.333327811686,8|0,0:0|0:0,0:0:0:0:
29,192,149072,6,0,L|129:192,2,82.6666633870444,4|0|0,0:0|0:0|0:0,0:0:0:0:
351,192,149425,2,0,L|247:192,2,82.6666633870444,2|0|0,0:0|0:0|0:0,0:0:0:0:
68,192,149778,2,0,L|236:192,1,165.333326774089,8|0,0:0|0:0,0:0:0:0:
488,192,150131,6,0,L|392:192,2,86.6666626993817,8|0|0,0:0|0:0|0:0,0:0:0:0:
229,192,150484,2,0,L|316:192,2,86.6666626993817,8|0|0,0:0|0:0|0:0,0:0:0:0:
488,192,150837,2,0,L|304:192,1,173.333325398763,8|0,0:0|0:0,0:0:0:0:
60,192,151189,6,0,L|152:192,2,90.6666672200521,4|0|0,0:0|0:0|0:0,0:0:0:0:
432,192,151542,2,0,L|340:192,2,90.6666672200521,2|0|0,0:0|0:0|0:0,0:0:0:0:
150,192,151895,2,0,L|374:192,1,200.000007629395,8|0,0:0|0:0,0:0:0:0:
82,192,152248,6,0,L|178:136,2,94.6666618998212,8|0|0,0:0|0:0|0:0,0:0:0:0:
444,192,152601,2,0,L|348:192,2,94.6666618998212,2|0|0,0:0|0:0|0:0,0:0:0:0:
82,192,152954,2,0,L|328:192,1,239.999992675781,8|0,0:0|0:0,0:0:0:0:
82,192,153307,6,0,L|66:40,1,150.000005722046,4|0,0:0|0:0,0:0:0:0:
384,44,154012,1,8,0:0:0:0:
144,44,154365,1,0,0:0:0:0:
464,44,154718,6,0,L|456:244,1,200,2|0,0:0|0:0,0:0:0:0:
196,244,155424,1,8,0:0:0:0:
436,244,155777,1,0,0:0:0:0:
116,244,156130,6,0,L|340:244,1,220.000006713867,2|0,0:0|0:0,0:0:0:0:
76,244,156836,1,8,0:0:0:0:
376,244,157189,1,0,0:0:0:0:
136,192,157542,5,8,0:0:0:0:
276,192,157718,1,0,0:0:0:0:
80,192,157895,2,0,L|76:88,1,100,8|0,0:0|0:0,0:0:0:0:
268,92,158248,2,0,L|168:92,1,100,8|0,0:0|0:0,0:0:0:0:
356,92,158601,2,0,L|468:92,1,100,8|0,0:0|0:0,0:0:0:0:
192,92,158954,6,0,L|184:152,1,50,8|0,0:0|0:0,0:0:0:0:
260,140,159130,2,0,L|268:200,1,50,8|0,0:0|0:0,0:0:0:0:
124,140,159307,2,0,L|87:187,1,50,8|8,0:0|0:0,0:0:0:0:
292,140,159483,2,0,L|328:187,1,50,8|8,0:0|0:0,0:0:0:0:
96,140,159659,2,0,P|8:236|92:368,1,300,8|0,0:0|0:0,0:0:0:0:
108,372,160233,1,0,0:0:0:0:
129,376,160277,1,0,0:0:0:0:
288,276,160365,6,0,B|432:240|432:240|472:192|472:76,1,300,4|0,0:0|0:0,0:0:0:0:
196,24,161071,2,0,L|8:92,1,200,8|0,0:0|0:0,0:0:0:0:
120,92,161601,1,0,0:0:0:0:
380,164,161777,5,8,0:0:0:0:
260,164,161954,1,0,0:0:0:0:
448,164,162130,2,0,L|452:264,1,100,2|0,0:0|0:0,0:0:0:0:
260,264,162483,2,0,L|152:264,1,100,8|0,0:0|0:0,0:0:0:0:
352,264,162836,1,8,0:0:0:0:
160,264,163012,1,2,0:0:0:0:
408,264,163189,6,0,P|496:192|396:76,1,300,4|0,0:0|0:0,0:0:0:0:
148,76,163895,2,0,L|348:76,1,200,8|0,0:0|0:0,0:0:0:0:
104,76,164601,5,8,0:0:0:0:
232,76,164777,1,0,0:0:0:0:
32,76,164954,2,0,P|48:156|112:192,1,150,8|0,0:0|0:0,0:0:0:0:
316,188,165307,2,0,L|428:188,1,110.000003356934,2|0,0:0|0:0,0:0:0:0:
148,192,165659,2,0,L|27:191,1,119.999996337891,8|0,0:0|0:0,0:0:0:0:
360,316,166012,6,0,L|368:6,1,300,4|0,0:0|0:0,0:0:0:0:
144,116,166718,1,8,0:0:0:0:
388,40,167071,2,0,L|272:40,1,100,2|0,0:0|0:0,0:0:0:0:
36,116,167424,6,0,P|48:188|152:244,1,200,8|8,0:0|0:0,0:0:0:0:
392,312,168130,2,0,L|100:244,1,300,2|0,0:0|0:0,0:0:0:0:
356,192,168836,5,8,0:0:0:0:
244,192,169007,1,0,0:0:0:0:
396,120,169178,1,2,0:0:0:0:
204,120,169350,1,2,0:0:0:0:
472,192,169521,2,0,L|372:192,1,100,8|2,0:0|0:0,0:0:0:0:
120,192,169864,1,8,0:0:0:0:
360,192,170036,1,2,0:0:0:0:
64,192,170207,6,0,L|56:16,1,175,12|0,0:0|0:0,0:0:0:0:
340,20,171483,2,0,B|140:20|140:20|292:20,1,350,4|0,0:0|0:0,0:0:0:0:
44,16,172720,6,0,B|0:56|0:152|36:204|36:204|184:204,1,350,12|0,0:0|0:0,0:0:0:0:
460,332,173862,2,0,P|324:204|460:72,1,419.999987182618,4|0,0:0|0:0,0:0:0:0:
132,72,174994,6,0,P|184:244|408:348,1,437.5,12|0,0:0|0:0,0:0:0:0:
104,348,176084,2,0,B|352:348|352:348|152:348,1,437.5,4|0,0:0|0:0,0:0:0:0:
427,347,177100,6,0,L|76:348,1,350,12|0,0:0|0:0,0:0:0:0:
428,360,178232,2,0,P|472:176|412:32,1,350,12|0,0:0|0:0,0:0:0:0:
64,20,179432,2,0,L|56:372,1,350,4|0,0:0|0:0,0:0:0:0:
408,376,180729,6,0,P|300:272|416:152,1,350,12|0,0:0|0:0,0:0:0:0:
124,100,182026,2,0,L|384:248,1,300,4|0,0:0|0:0,0:0:0:0:
408,260,183121,1,0,0:0:0:0:
429,270,183205,1,0,0:0:0:0:
133,199,183374,6,0,L|122:84,1,100,4|0,0:0|0:0,0:0:0:0:
284,100,183726,2,0,L|296:204,1,100,2|0,0:0|0:0,0:0:0:0:
36,200,184079,1,8,0:0:0:0:
196,200,184432,1,10,0:0:0:0:
388,200,184609,2,0,L|288:200,2,100,2|8|2,0:0|0:0|0:0,0:0:0:0:
108,200,185138,1,8,0:0:0:0:
268,296,185491,6,0,L|180:248,1,100,4|0,0:0|0:0,0:0:0:0:
372,296,185843,2,0,L|460:248,1,100,2|0,0:0|0:0,0:0:0:0:
180,248,186196,2,0,L|176:140,1,100,8|0,0:0|0:0,0:0:0:0:
496,152,186549,2,0,L|384:152,1,100,8|0,0:0|0:0,0:0:0:0:
204,248,186902,1,8,0:0:0:0:
384,248,187079,1,2,0:0:0:0:
124,248,187255,6,0,L|120:348,1,100,4|0,0:0|0:0,0:0:0:0:
308,348,187607,2,0,L|196:348,1,100,2|0,0:0|0:0,0:0:0:0:
484,348,187960,1,8,0:0:0:0:
284,348,188313,1,8,0:0:0:0:
92,348,188490,2,0,L|192:348,2,100,2|8|2,0:0|0:0|0:0,0:0:0:0:
392,348,189019,1,8,0:0:0:0:
212,268,189372,6,0,L|302:216,1,100,4|0,0:0|0:0,0:0:0:0:
108,192,189724,2,0,L|208:192,1,100,2|0,0:0|0:0,0:0:0:0:
468,192,190077,2,0,L|472:92,1,100,8|0,0:0|0:0,0:0:0:0:
152,92,190430,2,0,L|52:92,1,100,8|0,0:0|0:0,0:0:0:0:
244,92,190783,1,8,0:0:0:0:
384,92,190960,1,2,0:0:0:0:
124,92,191136,6,0,L|216:144,1,100,4|0,0:0|0:0,0:0:0:0:
400,92,191488,2,0,L|492:144,1,100,2|0,0:0|0:0,0:0:0:0:
196,140,191841,2,0,L|192:248,1,100,8|0,0:0|0:0,0:0:0:0:
388,240,192194,1,8,0:0:0:0:
268,240,192371,2,0,L|180:192,2,100,2|8|2,0:0|0:0|0:0,0:0:0:0:
16,192,192900,1,8,0:0:0:0:
280,192,193253,6,0,L|180:192,1,100,4|0,0:0|0:0,0:0:0:0:
368,272,193605,2,0,L|268:272,1,100,2|0,0:0|0:0,0:0:0:0:
16,272,193958,2,0,L|24:164,1,100,8|0,0:0|0:0,0:0:0:0:
324,172,194311,1,8,0:0:0:0:
72,176,194488,1,2,0:0:0:0:
252,172,194664,1,8,0:0:0:0:
120,176,194841,1,2,0:0:0:0:
400,176,195017,6,0,L|404:72,1,100,4|0,0:0|0:0,0:0:0:0:
212,172,195369,2,0,L|207:73,1,100,2|0,0:0|0:0,0:0:0:0:
488,76,195722,2,0,L|388:76,1,100,8|0,0:0|0:0,0:0:0:0:
196,76,196075,1,8,0:0:0:0:
316,76,196252,2,0,L|216:76,2,100,2|8|2,0:0|0:0|0:0,0:0:0:0:
56,76,196781,1,8,0:0:0:0:
316,148,197134,6,0,L|212:148,1,100,4|0,0:0|0:0,0:0:0:0:
28,148,197486,2,0,L|132:148,1,100,2|0,0:0|0:0,0:0:0:0:
408,148,197839,2,0,L|412:248,1,100,8|0,0:0|0:0,0:0:0:0:
112,248,198192,6,0,L|12:248,1,100,4|0,0:0|0:0,0:0:0:0:
332,248,198544,2,0,L|420:300,1,100,2|0,0:0|0:0,0:0:0:0:
136,248,198897,2,0,L|72:324,1,100,8|0,0:0|0:0,0:0:0:0:
352,248,199276,2,0,L|368:348,1,100,2|0,0:0|0:0,0:0:0:0:
28,248,199656,6,0,L|44:148,1,100,8|0,0:0|0:0,0:0:0:0:
276,192,200072,2,0,L|224:104,1,100,2|0,0:0|0:0,0:0:0:0:
28,248,200540,2,0,L|117:195,1,100,8|0,0:0|0:0,0:0:0:0:
276,192,201031,2,0,L|72:192,1,200,2|0,0:0|0:0,0:0:0:0:
436,192,201631,6,0,L|504:120,2,100,4|0|0,0:0|0:0|0:0,0:0:0:0:
216,192,202631,1,2,0:0:0:0:
496,192,203131,1,0,0:0:0:0:
64,348,203631,6,0,P|32:252|164:64,1,350,4|0,0:0|0:0,0:0:0:0:
396,64,204631,2,0,P|480:232|324:360,1,419.999987182618,2|0,0:0|0:0,0:0:0:0:
96,360,205631,6,0,B|4:360|4:192|184:192,1,300.000011444092,4|0,0:0|0:0,0:0:0:0:
232,192,206214,1,0,0:0:0:0:
280,180,206297,1,0,0:0:0:0:
316,148,206381,1,0,0:0:0:0:
332,104,206464,1,0,0:0:0:0:
332,56,206547,1,0,0:0:0:0:
292,28,206631,1,0,0:0:0:0:
212,28,206714,5,2,0:0:0:0:
182,65,206797,1,0,0:0:0:0:
183,112,206881,1,0,0:0:0:0:
214,149,206964,1,0,0:0:0:0:
261,156,207047,1,0,0:0:0:0:
303,132,207131,1,0,0:0:0:0:
319,87,207214,1,0,0:0:0:0:
302,42,207297,1,0,0:0:0:0:
256,16,207381,1,0,0:0:0:0:
204,16,207464,1,0,0:0:0:0:
140,16,207547,1,0,0:0:0:0:
72,16,207631,6,0,B|-12:140|72:280|72:280|184:280|184:140|16:140,1,562.500021457673,4|0,0:0|0:0,0:0:0:0:
224,140,209631,5,2,0:0:0:0:
344,140,209881,1,0,0:0:0:0:
464,140,210131,1,0,0:0:0:0:
204,140,210631,1,2,0:0:0:0:
504,140,211131,1,0,0:0:0:0:
64,192,211631,6,0,L|420:192,1,350,4|0,0:0|0:0,0:0:0:0:
208,192,212631,2,0,P|88:280|208:380,1,350,2|0,0:0|0:0,0:0:0:0:
460,192,213598,6,0,L|352:192,1,100,4|0,0:0|0:0,0:0:0:0:
288,192,214056,1,0,0:0:0:0:
220,148,214181,1,0,0:0:0:0:
220,64,214314,1,0,0:0:0:0:
288,28,214447,1,0,0:0:0:0:
476,28,214581,2,0,P|488:124|248:336,1,450,2|0,0:0|0:0,0:0:0:0:
160,336,215633,6,0,L|480:192,1,350,2|0,0:0|0:0,0:0:0:0:
400,192,216633,2,0,P|248:132|192:0,1,314.999990386963,2|0,0:0|0:0,0:0:0:0:
280,0,217633,6,0,L|384:0,2,89.9999972534181,4|0|0,0:0|0:0|0:0,0:0:0:0:
64,192,218633,2,0,P|12:120|68:72,1,179.999994506836,2|0,0:0|0:0,0:0:0:0:
196,72,219383,1,0,0:0:0:0:
396,72,219633,6,0,L|488:72,1,90,4|0,0:0|0:0,0:0:0:0:
148,72,220133,2,0,B|56:72|56:72|56:160,1,179.999994506836,2|0,0:0|0:0,0:0:0:0:
288,160,221133,1,2,0:0:0:0:
88,160,221383,1,0,0:0:0:0:
448,160,221633,5,4,0:0:0:0:
312,160,221883,1,0,0:0:0:0:
176,160,222133,1,0,0:0:0:0:
420,160,222383,1,2,0:0:0:0:
76,160,222633,2,0,L|72:300,1,134.999995880127,4|0,0:0|0:0,0:0:0:0:
292,296,223131,6,0,L|448:296,1,150,2|0,0:0|0:0,0:0:0:0:
60,296,223702,1,4,0:0:0:0:
208,296,224017,1,0,0:0:0:0:
352,296,224333,1,0,0:0:0:0:
32,296,224666,1,2,0:0:0:0:
436,292,224999,6,0,P|508:176|372:48,1,350,4|0,0:0|0:0,0:0:0:0:
84,52,226642,6,0,B|24:52|24:52|88:52,1,119.999996337891,6|0,0:0|0:0,0:0:0:0:
156,52,226963,1,2,0:0:0:0:
288,52,227070,1,8,0:0:0:0:
144,56,227284,2,0,L|140:132,1,59.9999981689454,2|2,0:0|0:0,0:0:0:0:
360,196,227499,2,0,L|420:196,2,59.9999981689454,8|0|2,0:0|0:0|0:0,0:0:0:0:
56,192,227927,6,0,L|180:192,1,119.999996337891,2|0,0:0|0:0,0:0:0:0:
248,192,228249,1,2,0:0:0:0:
104,328,228356,1,8,0:0:0:0:
320,192,228570,1,2,0:0:0:0:
380,192,228677,1,2,0:0:0:0:
176,192,228784,1,8,0:0:0:0:
116,192,228891,1,0,0:0:0:0:
56,192,228998,1,2,0:0:0:0:
360,120,229213,6,0,L|480:120,1,119.999996337891,2|0,0:0|0:0,0:0:0:0:
408,120,229534,1,2,0:0:0:0:
260,120,229642,1,8,0:0:0:0:
392,120,229856,2,0,L|396:56,1,59.9999981689454,2|0,0:0|0:0,0:0:0:0:
184,32,230070,1,8,0:0:0:0:
242,46,230177,1,2,0:0:0:0:
300,60,230284,1,2,0:0:0:0:
20,192,230499,6,0,P|8:136|56:80,1,119.999996337891,2|0,0:0|0:0,0:0:0:0:
112,72,230820,1,2,0:0:0:0:
256,60,230927,1,8,0:0:0:0:
40,192,231142,1,2,0:0:0:0:
100,192,231249,1,0,0:0:0:0:
312,220,231356,1,8,0:0:0:0:
240,204,231463,1,2,0:0:0:0:
170,190,231570,1,2,0:0:0:0:
448,192,231784,6,0,B|508:192|508:192|444:192,1,119.999996337891,6|0,0:0|0:0,0:0:0:0:
376,192,232106,1,2,0:0:0:0:
240,204,232213,2,0,L|236:140,1,59.9999981689454,8|0,0:0|0:0,0:0:0:0:
312,80,232427,2,0,L|248:80,1,59.9999981689454,2|0,0:0|0:0,0:0:0:0:
40,80,232642,2,0,L|20:20,2,59.9999981689454,8|2|2,0:0|0:0|0:0,0:0:0:0:
328,192,233070,6,0,L|448:192,1,119.999996337891,2|0,0:0|0:0,0:0:0:0:
376,192,233392,1,2,0:0:0:0:
232,192,233499,2,0,L|228:280,1,59.9999981689454,8|0,0:0|0:0,0:0:0:0:
152,252,233713,2,0,L|148:328,1,59.9999981689454,2|0,0:0|0:0,0:0:0:0:
360,308,233927,1,8,0:0:0:0:
420,308,234034,1,2,0:0:0:0:
480,308,234141,1,2,0:0:0:0:
180,192,234356,6,0,B|120:192|120:192|120:260,1,119.999996337891,2|0,0:0|0:0,0:0:0:0:
180,252,234677,1,2,0:0:0:0:
324,192,234784,2,0,L|328:264,1,59.9999981689454,8|0,0:0|0:0,0:0:0:0:
252,320,234999,2,0,L|192:320,1,59.9999981689454,2|2,0:0|0:0,0:0:0:0:
427,252,235213,1,8,0:0:0:0:
375,222,235320,1,0,0:0:0:0:
323,192,235427,1,2,0:0:0:0:
36,192,235642,6,0,B|36:252|36:252|96:252,1,119.999996337891,2|0,0:0|0:0,0:0:0:0:
32,252,235963,1,2,0:0:0:0:
172,252,236070,2,0,L|232:252,1,59.9999981689454,8|2,0:0|0:0,0:0:0:0:
156,252,236284,2,0,L|152:192,1,59.9999981689454,2|0,0:0|0:0,0:0:0:0:
360,192,236499,1,8,0:0:0:0:
420,192,236606,1,0,0:0:0:0:
480,192,236713,1,2,0:0:0:0:
100,192,236927,6,0,P|28:120|100:44,1,225.000008583069,6|2,0:0|0:0,0:0:0:0:
328,44,237356,2,0,L|392:44,1,59.9999981689454,8|0,0:0|0:0,0:0:0:0:
256,44,237570,2,0,L|252:120,1,59.9999981689454,2|0,0:0|0:0,0:0:0:0:
468,192,237784,2,0,L|472:112,1,59.9999981689454,8|8,0:0|0:0,0:0:0:0:
404,100,237999,1,2,0:0:0:0:
100,192,238213,6,0,L|32:192,1,59.9999981689454,2|0,0:0|0:0,0:0:0:0:
112,192,238427,2,0,L|48:192,1,59.9999981689454,2|2,0:0|0:0,0:0:0:0:
296,192,238642,1,8,0:0:0:0:
104,192,238856,2,0,L|100:272,1,59.9999981689454,2|0,0:0|0:0,0:0:0:0:
320,336,239070,1,8,0:0:0:0:
252,316,239177,1,8,0:0:0:0:
184,292,239284,1,2,0:0:0:0:
484,192,239499,6,0,L|492:280,1,59.9999981689454,2|0,0:0|0:0,0:0:0:0:
428,316,239713,2,0,L|364:316,1,59.9999981689454,0|2,0:0|0:0,0:0:0:0:
152,192,239927,2,0,L|148:264,1,59.9999981689454,8|2,0:0|0:0,0:0:0:0:
280,192,240142,2,0,L|276:128,1,59.9999981689454,2|0,0:0|0:0,0:0:0:0:
48,56,240356,1,8,0:0:0:0:
120,56,240463,1,8,0:0:0:0:
48,56,240570,2,0,L|44:120,1,59.9999981689454,2|0,0:0|0:0,0:0:0:0:
280,192,240784,6,0,L|344:192,1,59.9999981689454,2|0,0:0|0:0,0:0:0:0:
268,192,240999,2,0,L|208:192,1,59.9999981689454,0|2,0:0|0:0,0:0:0:0:
424,192,241213,1,8,0:0:0:0:
232,192,241427,2,0,L|292:192,1,59.9999981689454,2|2,0:0|0:0,0:0:0:0:
80,192,241642,2,0,L|16:192,1,59.9999981689454,8|8,0:0|0:0,0:0:0:0:
20,192,241856,1,2,0:0:0:0:
436,192,242070,6,0,P|508:120|436:44,1,225.000008583069,6|2,0:0|0:0,0:0:0:0:
232,44,242499,2,0,L|168:44,1,59.9999981689454,8|8,0:0|0:0,0:0:0:0:
292,120,242713,2,0,L|216:120,1,59.9999981689454,2|2,0:0|0:0,0:0:0:0:
24,192,242927,2,0,L|20:116,1,59.9999981689454,8|0,0:0|0:0,0:0:0:0:
96,96,243142,1,2,0:0:0:0:
412,192,243356,6,0,L|480:192,1,59.9999981689454,2|2,0:0|0:0,0:0:0:0:
400,192,243570,2,0,L|464:192,1,59.9999981689454,2|0,0:0|0:0,0:0:0:0:
216,192,243784,2,0,L|212:260,1,59.9999981689454,8|8,0:0|0:0,0:0:0:0:
440,280,243999,2,0,L|376:280,1,59.9999981689454,2|2,0:0|0:0,0:0:0:0:
144,271,244213,1,8,0:0:0:0:
212,251,244320,1,0,0:0:0:0:
144,271,244427,1,2,0:0:0:0:
472,280,244642,6,0,P|480:212|368:124,1,225.000008583069,2|2,0:0|0:0,0:0:0:0:
152,124,245070,2,0,L|212:124,1,59.9999981689454,8|8,0:0|0:0,0:0:0:0:
272,48,245284,2,0,L|204:48,1,59.9999981689454,2|2,0:0|0:0,0:0:0:0:
424,48,245499,2,0,L|484:48,2,59.9999981689454,8|8|2,0:0|0:0|0:0,0:0:0:0:
112,48,245927,6,0,B|36:48|36:48|116:48,1,150.000005722046,2|2,0:0|0:0,0:0:0:0:
184,48,246249,1,2,0:0:0:0:
20,48,246356,2,0,L|16:120,1,59.9999981689454,8|0,0:0|0:0,0:0:0:0:
208,192,246570,2,0,L|272:192,1,59.9999981689454,2|2,0:0|0:0,0:0:0:0:
460,192,246784,1,8,0:0:0:0:
268,192,246892,1,8,0:0:0:0:
76,192,246999,1,2,0:0:0:0:
460,192,247213,6,0,P|472:280|432:324,1,135.000000514984,12|0,0:0|0:0,0:0:0:0:
376,348,247534,1,0,0:0:0:0:
144,348,247642,2,0,L|140:280,1,67.5000002574921,8|0,0:0|0:0,0:0:0:0:
268,192,247856,2,0,L|272:124,1,67.5000002574921,2|0,0:0|0:0,0:0:0:0:
76,192,248070,2,0,L|152:192,1,75.0000028610231,2|0,0:0|0:0,0:0:0:0:
296,192,248284,2,0,L|372:192,1,75.0000028610231,2|2,0:0|0:0,0:0:0:0:
88,192,248499,6,0,P|0:108|28:48,1,200,8|0,0:0|0:0,0:0:0:0:
104,6,248820,1,0,0:0:0:0:
340,4,248927,2,0,L|344:96,1,67.5000002574921,8|0,0:0|0:0,0:0:0:0:
208,192,249142,2,0,L|280:192,1,67.5000002574921,2|2,0:0|0:0,0:0:0:0:
64,192,249356,2,0,B|164:192|164:192|64:196|64:196|164:196,1,300,8|0,0:0|0:0,0:0:0:0:
368,192,249784,6,0,B|436:192|436:192|436:260,1,135.000000514984,2|0,0:0|0:0,0:0:0:0:
368,260,250106,1,0,0:0:0:0:
140,340,250213,2,0,L|276:324,1,135.000000514984,8|2,0:0|0:0,0:0:0:0:
208,332,250534,1,2,0:0:0:0:
436,260,250642,2,0,P|480:204|436:152,1,150.000005722046,2|2,0:0|0:0,0:0:0:0:
364,152,250963,1,0,0:0:0:0:
144,152,251070,6,0,L|140:72,1,67.5000002574921,8|0,0:0|0:0,0:0:0:0:
268,152,251284,2,0,L|336:152,1,67.5000002574921,2|2,0:0|0:0,0:0:0:0:
116,152,251499,1,8,0:0:0:0:
48,120,251606,1,0,0:0:0:0:
48,44,251713,1,2,0:0:0:0:
116,12,251820,1,0,0:0:0:0:
336,152,251927,1,8,0:0:0:0:
268,152,252034,1,8,0:0:0:0:
201,152,252141,1,2,0:0:0:0:
268,152,252249,1,2,0:0:0:0:
68,192,252356,6,0,L|136:192,1,67.5000002574921,6|0,0:0|0:0,0:0:0:0:
60,264,252570,2,0,L|128:264,1,67.5000002574921
336,308,252784,2,0,L|472:308,1,135.000000514984,8|0,0:0|0:0,0:0:0:0:
404,308,253106,1,0,0:0:0:0:
188,308,253213,2,0,L|120:308,1,67.5000002574921,2|2,0:0|0:0,0:0:0:0:
336,308,253427,2,0,L|340:220,1,67.5000002574921,8|0,0:0|0:0,0:0:0:0:
116,192,253642,6,0,B|16:192|16:192|120:192,1,200,2|2,0:0|0:0,0:0:0:0:
40,192,253963,1,2,0:0:0:0:
304,192,254070,1,8,0:0:0:0:
380,192,254177,1,0,0:0:0:0:
424,132,254284,1,0,0:0:0:0:
408,60,254392,1,0,0:0:0:0:
216,60,254499,2,0,L|284:60,1,67.5000002574921,2|0,0:0|0:0,0:0:0:0:
488,192,254713,2,0,L|420:192,1,67.5000002574921,8|0,0:0|0:0,0:0:0:0:
152,192,254927,6,0,L|356:192,1,200,2|2,0:0|0:0,0:0:0:0:
420,192,255249,1,2,0:0:0:0:
152,192,255356,1,8,0:0:0:0:
136,120,255464,1,0,0:0:0:0:
180,60,255571,1,0,0:0:0:0:
256,60,255678,1,0,0:0:0:0:
48,60,255784,2,0,L|120:60,1,67.5000002574921,2|2,0:0|0:0,0:0:0:0:
308,192,255999,2,0,L|228:192,1,67.5000002574921,8|8,0:0|0:0,0:0:0:0:
472,192,256213,6,0,L|168:192,1,300.000011444092,2|2,0:0|0:0,0:0:0:0:
76,192,256534,1,2,0:0:0:0:
304,280,256642,2,0,L|168:280,1,135.000000514984,8|2,0:0|0:0,0:0:0:0:
256,280,256963,1,2,0:0:0:0:
60,280,257070,2,0,L|56:368,1,67.5000002574921,8|2,0:0|0:0,0:0:0:0:
360,360,257284,2,0,L|432:360,1,67.5000002574921,8|2,0:0|0:0,0:0:0:0:
176,192,257499,6,0,L|116:192,2,50,6|2|2,0:0|0:0|0:0,0:0:0:0:
472,192,257927,1,8,0:0:0:0:
292,192,258141,1,2,0:0:0:0:
356,192,258249,1,2,0:0:0:0:
176,192,258356,1,2,0:0:0:0:
356,192,258570,1,2,0:0:0:0:
76,192,258784,1,8,0:0:0:0:
74,142,258891,1,2,0:0:0:0:
72,92,258998,1,2,0:0:0:0:
372,24,259213,5,2,0:0:0:0:
192,24,259427,1,2,0:0:0:0:
292,24,259535,1,2,0:0:0:0:
192,24,259642,1,8,0:0:0:0:
372,24,259856,1,2,0:0:0:0:
36,192,260070,2,0,L|488:192,1,450.000017166138,6|0,0:0|0:0,0:0:0:0:
486,192,260499,2,0,L|34:192,1,450.000017166138,6|0,0:0|0:0,0:0:0:0:
248,192,260927,5,2,0:0:0:0:
304,192,261034,1,2,0:0:0:0:
360,192,261141,1,2,0:0:0:0:
80,192,261355,1,8,0:0:0:0:
260,192,261569,1,2,0:0:0:0:
192,192,261677,1,2,0:0:0:0:
372,192,261784,1,2,0:0:0:0:
192,192,261999,1,2,0:0:0:0:
460,192,262212,1,8,0:0:0:0:
344,192,262319,1,2,0:0:0:0:
228,192,262426,1,2,0:0:0:0:
496,192,262641,5,2,0:0:0:0:
316,192,262855,1,2,0:0:0:0:
416,192,262963,1,2,0:0:0:0:
316,192,263070,1,8,0:0:0:0:
136,192,263284,1,2,0:0:0:0:
416,80,263499,6,0,P|512:192|380:336,1,375,6|0,0:0|0:0,0:0:0:0:
96,304,263927,2,0,P|0:192|132:48,1,375,6|0,0:0|0:0,0:0:0:0:
372,192,264356,6,0,L|296:192,2,75.0000028610231,2|2|2,0:0|0:0|0:0,0:0:0:0:
104,192,264784,1,8,0:0:0:0:
276,324,264999,2,0,L|332:324,1,50,2|2,0:0|0:0,0:0:0:0:
144,324,265213,1,8,0:0:0:0:
424,192,265427,1,2,0:0:0:0:
64,192,265641,6,0,L|140:192,2,75.0000028610231,8|8|2,0:0|0:0|0:0,0:0:0:0:
340,192,266070,1,8,0:0:0:0:
168,192,266284,1,2,0:0:0:0:
276,192,266391,1,2,0:0:0:0:
76,192,266499,2,0,L|72:128,1,50,8|8,0:0|0:0,0:0:0:0:
340,192,266713,2,0,L|408:192,1,50,2|2,0:0|0:0,0:0:0:0:
80,80,266927,6,0,P|84:204|88:80,1,375,6|0,0:0|0:0,0:0:0:0:
412,130,267356,2,0,P|408:254|404:130,1,375,6|0,0:0|0:0,0:0:0:0:
140,192,267784,6,0,L|64:192,2,75.0000028610231,8|2|2,0:0|0:0|0:0,0:0:0:0:
408,192,268212,1,8,0:0:0:0:
240,324,268427,2,0,L|184:324,1,50,2|2,0:0|0:0,0:0:0:0:
372,324,268641,2,0,L|376:264,1,50,8|8,0:0|0:0,0:0:0:0:
106,192,268856,2,0,L|156:192,1,50,2|0,0:0|0:0,0:0:0:0:
375,274,269070,5,8,0:0:0:0:
204,192,269177,1,8,0:0:0:0:
32,192,269284,1,2,0:0:0:0:
356,192,269498,1,8,0:0:0:0:
180,192,269713,1,2,0:0:0:0:
400,192,269819,1,2,0:0:0:0:
156,192,269927,2,0,L|152:132,1,50,8|8,0:0|0:0,0:0:0:0:
444,192,270141,2,0,L|512:192,1,50,2|2,0:0|0:0,0:0:0:0:
44,352,270356,6,0,P|88:128|208:92,1,375,6|0,0:0|0:0,0:0:0:0:
468,32,270784,2,0,P|436:240|300:284,1,375,6|0,0:0|0:0,0:0:0:0:
60,24,271213,6,0,L|60:216,1,187.5,6|0,0:0|0:0,0:0:0:0:
360,304,271641,2,0,P|480:184|360:64,1,375,6|0,0:0|0:0,0:0:0:0:
292,64,272070,6,0,L|480:64,1,187.5,6|0,0:0|0:0,0:0:0:0:
150,64,272499,2,0,P|32:184|152:304,1,375,6|0,0:0|0:0,0:0:0:0:
220,304,272927,6,0,L|220:116,1,187.5,6|0,0:0|0:0,0:0:0:0:
472,192,273356,2,0,L|96:192,1,375,6|0,0:0|0:0,0:0:0:0:
164,192,273784,6,0,P|248:112|164:28,1,262.500002503395,6|0,0:0|0:0,0:0:0:0:
460,316,274213,2,0,P|340:196|460:76,1,375,6|0,0:0|0:0,0:0:0:0:
0,360,274641,6,0,L|0:8,1,350,6|0,0:0|0:0,0:0:0:0:
512,10,275499,2,0,B|512:360|512:360|512:296,1,400,6|0,0:0|0:0,0:0:0:0:
164,192,276784,6,0,L|368:192,1,200,6|0,0:0|0:0,0:0:0:0:
164,192,277213,2,0,B|364:192|364:192|364:92|364:92|364:192,1,400,6|0,0:0|0:0,0:0:0:0:
464,192,277856,1,2,0:0:0:0:
16,308,278070,6,0,P|256:27|496:308,1,839.999974365235,6|0,0:0|0:0,0:0:0:0:
52,308,278927,2,0,B|256:308|476:308|476:208|36:132|36:32|256:32|472:32,1,839.999974365235,6|0,0:0|0:0,0:0:0:0:
364,192,280213,6,0,L|44:192,1,320,6|0,0:0|0:0,0:0:0:0:
496,192,280641,2,0,B|0:192|0:192|0:32|0:32|0:128,1,750,6|0,0:0|0:0,0:0:0:0:
260,352,281070,2,0,P|416:180|264:52,1,480,6|0,0:0|0:0,0:0:0:0:
0,52,281499,6,0,B|0:200|0:200|152:200|152:200|152:52|152:52|304:52|304:52|304:200|304:200|456:200|456:200|456:48|456:48|376:48,1,1125.00004291535,6|0,0:0|0:0,0:0:0:0:
256,192,283213,12,0,284713,0:0:0:0:
144,192,284927,6,0,L|140:84,1,100,6|0,0:0|0:0,0:0:0:0:
452,264,285356,2,0,L|456:160,1,100,6|0,0:0|0:0,0:0:0:0:
386,136,285677,1,0,0:0:0:0:
316,136,285784,2,0,L|424:136,1,100,2|2,0:0|0:0,0:0:0:0:
484,136,286106,1,2,0:0:0:0:
364,228,286213,2,0,L|312:228,1,50,8|0,0:0|0:0,0:0:0:0:
304,228,286427,1,0,0:0:0:0:
116,324,286641,6,0,L|112:208,1,100,2|2,0:0|0:0,0:0:0:0:
304,228,287070,2,0,L|192:228,1,100,8|0,0:0|0:0,0:0:0:0:
136,228,287391,1,0,0:0:0:0:
204,228,287499,1,0,0:0:0:0:
44,228,287713,1,2,0:0:0:0:
224,228,287927,2,0,L|328:228,1,100,8|0,0:0|0:0,0:0:0:0:
28,228,288356,6,0,L|24:116,1,100,6|0,0:0|0:0,0:0:0:0:
408,144,288784,2,0,L|408:40,1,100,6|0,0:0|0:0,0:0:0:0:
340,24,289106,1,0,0:0:0:0:
408,44,289213,1,2,0:0:0:0:
228,140,289427,2,0,L|224:196,1,50,2|0,0:0|0:0,0:0:0:0:
344,228,289641,2,0,L|396:228,2,50,8|0|0,0:0|0:0|0:0,0:0:0:0:
168,24,290070,6,0,P|104:88|164:168,1,208.333333333333,2|0,0:0|0:0,0:0:0:0:
212,168,290499,1,2,0:0:0:0:
248,185,290570,1,0,0:0:0:0:
270,220,290641,1,0,0:0:0:0:
269,262,290713,1,0,0:0:0:0:
246,295,290784,1,0,0:0:0:0:
208,312,290856,1,0,0:0:0:0:
72,336,290927,5,2,0:0:0:0:
43,292,290998,1,0,0:0:0:0:
41,239,291069,1,0,0:0:0:0:
66,193,291141,1,0,0:0:0:0:
111,167,291212,1,0,0:0:0:0:
164,168,291284,1,0,0:0:0:0:
360,192,291356,5,2,0:0:0:0:
422,174,291427,1,0,0:0:0:0:
458,119,291498,1,0,0:0:0:0:
447,55,291570,1,0,0:0:0:0:
396,14,291641,1,0,0:0:0:0:
331,18,291713,1,0,0:0:0:0:
164,16,291784,6,0,L|8:16,1,150.000005722046,6|0,0:0|0:0,0:0:0:0:
316,124,292213,2,0,L|160:124,1,150.000005722046,6|0,0:0|0:0,0:0:0:0:
96,124,292534,1,0,0:0:0:0:
166,124,292641,2,0,L|170:244,1,100,2|2,0:0|0:0,0:0:0:0:
352,308,293070,2,0,L|356:228,1,50,8|0,0:0|0:0,0:0:0:0:
292,352,293284,2,0,L|236:352,1,50
372,308,293499,6,0,L|380:200,1,100,2|2,0:0|0:0,0:0:0:0:
180,224,293927,2,0,L|184:124,1,100,8|0,0:0|0:0,0:0:0:0:
256,124,294249,1,0,0:0:0:0:
183,124,294356,2,0,L|124:124,1,50,2|0,0:0|0:0,0:0:0:0:
196,60,294570,2,0,L|144:60,1,50,2|2,0:0|0:0,0:0:0:0:
276,124,294784,2,0,L|384:124,1,100,8|0,0:0|0:0,0:0:0:0:
68,268,295213,6,0,L|220:268,1,150.000005722046,6|0,0:0|0:0,0:0:0:0:
496,268,295641,2,0,L|344:268,1,150.000005722046,6|0,0:0|0:0,0:0:0:0:
184,192,296070,1,2,0:0:0:0:
180,260,296177,1,2,0:0:0:0:
244,292,296284,1,2,0:0:0:0:
60,192,296499,2,0,L|120:192,1,50,8|8,0:0|0:0,0:0:0:0:
184,192,296713,2,0,L|180:256,1,50,2|0,0:0|0:0,0:0:0:0:
60,80,296927,6,0,P|4:184|56:312,1,262.500010013581,4|0,0:0|0:0,0:0:0:0:
104,310,297784,2,0,L|52:310,3,50
136,312,298213,2,0,L|135:250,1,50,2|2,0:0|0:0,0:0:0:0:
52,236,298427,2,0,L|51:174,1,50,10|2,0:0|0:0,0:0:0:0:
296,192,298641,6,0,P|360:136|348:96,1,132.999994520569,6|0,0:0|0:0,0:0:0:0:
295,67,298905,1,0,0:0:0:0:
135,67,298993,2,0,L|235:67,1,100,8|0,0:0|0:0,0:0:0:0:
295,67,299258,1,0,0:0:0:0:
184,140,299346,2,0,L|132:140,1,50,2|0,0:0|0:0,0:0:0:0:
312,192,299523,2,0,L|416:192,1,100,0|8,0:0|0:0,0:0:0:0:
352,192,299788,1,0,0:0:0:0:
412,192,299876,1,0,0:0:0:0:
352,192,299964,1,0,0:0:0:0:
176,276,300052,6,0,L|64:276,1,100,2|2,0:0|0:0,0:0:0:0:
128,276,300317,1,0,0:0:0:0:
240,360,300405,2,0,L|244:308,1,50,8|0,0:0|0:0,0:0:0:0:
420,308,300582,2,0,L|304:308,1,100,2|0,0:0|0:0,0:0:0:0:
260,308,300846,1,0,0:0:0:0:
372,308,300935,2,0,L|376:272,1,25,2|2,0:0|0:0,0:0:0:0:
344,248,301023,1,2,0:0:0:0:
136,192,301111,2,0,P|48:120|136:40,1,262.500002503395,8|0,0:0|0:0,0:0:0:0:
336,192,301464,6,0,L|184:192,1,150.000005722046,6|0,0:0|0:0,0:0:0:0:
448,72,301817,2,0,L|340:72,1,100,8|0,0:0|0:0,0:0:0:0:
296,72,302082,1,0,0:0:0:0:
408,152,302170,2,0,L|356:152,1,50,2|0,0:0|0:0,0:0:0:0:
160,192,302346,1,0,0:0:0:0:
344,280,302523,2,0,L|288:280,1,50,8|0,0:0|0:0,0:0:0:0:
352,280,302699,2,0,L|292:280,1,50
100,280,302876,5,6,0:0:0:0:
364,360,303052,2,0,L|416:360,1,50,8|8,0:0|0:0,0:0:0:0:
172,360,303229,2,0,L|126:334,1,50,8|8,0:0|0:0,0:0:0:0:
327,323,303405,2,0,L|353:277,1,50,2|2,0:0|0:0,0:0:0:0:
172,360,303582,1,8,0:0:0:0:
139,294,303670,1,8,0:0:0:0:
163,225,303758,1,8,0:0:0:0:
228,191,303846,1,8,0:0:0:0:
420,196,303935,2,0,L|416:132,1,50,2|2,0:0|0:0,0:0:0:0:
163,225,304111,1,8,0:0:0:0:
136,200,304155,1,8,0:0:0:0:
128,164,304199,1,8,0:0:0:0:
144,132,304243,1,8,0:0:0:0:
300,68,304288,6,0,L|440:68,1,132.999994520569,6|8,0:0|0:0,0:0:0:0:
372,68,304552,1,0,0:0:0:0:
164,68,304641,2,0,L|160:16,1,50,2|2,0:0|0:0,0:0:0:0:
432,68,304817,1,8,0:0:0:0:
478,111,304905,1,0,0:0:0:0:
463,173,304993,1,2,0:0:0:0:
402,192,305081,1,0,0:0:0:0:
200,192,305170,2,0,L|140:192,1,50,8|0,0:0|0:0,0:0:0:0:
352,192,305346,2,0,L|404:192,3,50,2|2|8|0,0:0|0:0|0:0|0:0,0:0:0:0:
176,276,305699,6,0,L|76:276,1,100,2|8,0:0|0:0,0:0:0:0:
136,276,305964,1,0,0:0:0:0:
336,328,306052,2,0,L|340:276,1,50,2|2,0:0|0:0,0:0:0:0:
128,356,306229,2,0,L|184:356,1,50,8|2,0:0|0:0,0:0:0:0:
428,192,306405,2,0,L|368:192,1,50,2|2,0:0|0:0,0:0:0:0:
272,192,306582,2,0,L|216:192,1,50,8|2,0:0|0:0,0:0:0:0:
464,192,306758,2,0,P|484:144|444:72,1,132.999994520569,2|8,0:0|0:0,0:0:0:0:
391,55,307023,1,0,0:0:0:0:
192,56,307111,6,0,L|88:56,1,100,2|8,0:0|0:0,0:0:0:0:
152,56,307376,1,0,0:0:0:0:
352,56,307464,2,0,L|356:112,1,50,2|2,0:0|0:0,0:0:0:0:
144,192,307641,1,8,0:0:0:0:
204,192,307729,1,0,0:0:0:0:
264,192,307817,1,2,0:0:0:0:
324,192,307905,1,0,0:0:0:0:
124,192,307993,2,0,L|128:136,1,50,8|0,0:0|0:0,0:0:0:0:
356,276,308170,2,0,B|408:276|408:276|352:276,1,100,2|8,0:0|0:0,0:0:0:0:
300,276,308435,1,2,0:0:0:0:
88,304,308523,6,0,L|192:304,1,100,2|8,0:0|0:0,0:0:0:0:
128,304,308788,1,2,0:0:0:0:
332,276,308876,2,0,L|336:220,1,50,2|0,0:0|0:0,0:0:0:0:
124,192,309052,2,0,L|64:192,1,50,8|0,0:0|0:0,0:0:0:0:
288,108,309229,2,0,L|344:108,1,50,2|2,0:0|0:0,0:0:0:0:
252,24,309405,2,0,L|304:24,1,50,8|0,0:0|0:0,0:0:0:0:
51,55,309582,2,0,P|31:103|71:175,1,132.999994520569,2|8,0:0|0:0,0:0:0:0:
124,192,309847,1,2,0:0:0:0:
360,192,309935,6,0,L|488:192,1,125,2|8,0:0|0:0,0:0:0:0:
412,192,310199,1,0,0:0:0:0:
192,192,310288,2,0,L|260:192,1,62.5,2|2,0:0|0:0,0:0:0:0:
36,192,310464,1,8,0:0:0:0:
21,251,310552,1,2,0:0:0:0:
47,307,310640,1,2,0:0:0:0:
102,335,310728,1,0,0:0:0:0:
340,336,310817,2,0,L|276:336,1,62.5,8|2,0:0|0:0,0:0:0:0:
72,192,310993,2,0,L|140:192,1,62.5,2|2,0:0|0:0,0:0:0:0:
60,192,311170,2,0,L|128:192,1,62.5,8|0,0:0|0:0,0:0:0:0:
340,192,311346,6,0,L|212:192,1,125,2|8,0:0|0:0,0:0:0:0:
284,192,311611,1,0,0:0:0:0:
60,192,311699,2,0,L|56:128,1,62.5,2|2,0:0|0:0,0:0:0:0:
296,48,311876,2,0,L|376:48,1,62.5,8|0,0:0|0:0,0:0:0:0:
168,48,312052,2,0,L|164:116,1,62.5,2|2,0:0|0:0,0:0:0:0:
284,192,312229,2,0,L|280:260,1,62.5,8|2,0:0|0:0,0:0:0:0:
488,192,312405,2,0,B|484:268|484:268|416:300,1,150.000005722046,2|8,0:0|0:0,0:0:0:0:
340,300,312670,1,2,0:0:0:0:
124,252,312758,6,0,L|252:252,1,125,2|8,0:0|0:0,0:0:0:0:
320,252,313023,1,0,0:0:0:0:
100,172,313111,2,0,L|168:172,1,62.5,2|2,0:0|0:0,0:0:0:0:
384,80,313288,1,8,0:0:0:0:
324,80,313376,1,0,0:0:0:0:
264,80,313464,1,2,0:0:0:0:
204,80,313552,1,2,0:0:0:0:
404,80,313640,2,0,L|340:80,1,62.5,8|0,0:0|0:0,0:0:0:0:
120,80,313817,2,0,B|56:80|56:80|124:80,1,125,2|8,0:0|0:0,0:0:0:0:
180,80,314082,1,2,0:0:0:0:
384,192,314170,6,0,L|256:192,1,125,2|8,0:0|0:0,0:0:0:0:
188,192,314435,1,0,0:0:0:0:
412,264,314523,2,0,L|344:264,1,62.5,2|2,0:0|0:0,0:0:0:0:
148,264,314699,2,0,L|80:264,1,62.5,8|2,0:0|0:0,0:0:0:0:
340,48,314876,2,0,L|344:116,1,62.5,2|0,0:0|0:0,0:0:0:0:
228,192,315053,2,0,L|232:260,1,62.5,8|2,0:0|0:0,0:0:0:0:
16,192,315229,2,0,B|20:268|20:268|88:300,1,150.000005722046,2|8,0:0|0:0,0:0:0:0:
164,300,315494,1,2,0:0:0:0:
364,192,315582,6,0,L|464:192,1,100,6|8,0:0|0:0,0:0:0:0:
408,192,315846,1,0,0:0:0:0:
204,192,315935,2,0,L|140:192,1,50,2|2,0:0|0:0,0:0:0:0:
364,192,316111,1,8,0:0:0:0:
370,127,316199,1,0,0:0:0:0:
334,73,316287,1,2,0:0:0:0:
271,55,316375,1,0,0:0:0:0:
68,56,316464,2,0,L|64:128,1,50,8|2,0:0|0:0,0:0:0:0:
264,192,316641,2,0,L|368:192,1,100,2|8,0:0|0:0,0:0:0:0:
308,192,316905,1,0,0:0:0:0:
108,192,316993,6,0,L|104:256,1,50,2|2,0:0|0:0,0:0:0:0:
308,312,317170,2,0,L|368:312,1,50,8|0,0:0|0:0,0:0:0:0:
156,192,317346,1,2,0:0:0:0:
92,212,317434,1,2,0:0:0:0:
56,268,317522,1,8,0:0:0:0:
72,332,317610,1,0,0:0:0:0:
288,192,317699,2,0,L|344:192,1,50,2|2,0:0|0:0,0:0:0:0:
92,212,317876,2,0,L|88:156,1,50,8|2,0:0|0:0,0:0:0:0:
338,192,318052,2,0,L|264:192,3,62.5,2|2|8|2,0:0|0:0|0:0|0:0,0:0:0:0:
88,162,318405,6,0,B|36:162|36:162|92:162,1,100,2|8,0:0|0:0,0:0:0:0:
144,160,318670,1,2,0:0:0:0:
356,192,318758,2,0,L|424:192,1,50,2|2,0:0|0:0,0:0:0:0:
192,160,318935,1,8,0:0:0:0:
185,95,319023,1,0,0:0:0:0:
221,41,319111,1,2,0:0:0:0:
284,23,319199,1,2,0:0:0:0:
80,40,319288,2,0,L|28:40,1,50,8|0,0:0|0:0,0:0:0:0:
240,232,319465,2,0,L|136:232,1,100,2|8,0:0|0:0,0:0:0:0:
80,232,319729,1,0,0:0:0:0:
320,192,319817,6,0,L|428:192,1,100,2|8,0:0|0:0,0:0:0:0:
360,192,320082,1,2,0:0:0:0:
156,312,320170,2,0,L|228:312,1,50,2|0,0:0|0:0,0:0:0:0:
428,336,320346,2,0,L|376:336,1,50,8|2,0:0|0:0,0:0:0:0:
176,192,320523,1,2,0:0:0:0:
252,192,320611,1,2,0:0:0:0:
328,192,320699,1,8,0:0:0:0:
404,192,320788,1,2,0:0:0:0:
180,108,320876,2,0,L|48:108,1,125,2|8,0:0|0:0,0:0:0:0:
116,108,321141,1,2,0:0:0:0:
364,48,321229,6,0,L|240:48,1,125,2|8,0:0|0:0,0:0:0:0:
308,48,321493,1,0,0:0:0:0:
56,108,321582,2,0,L|52:176,1,62.5,2|2,0:0|0:0,0:0:0:0:
304,192,321758,2,0,L|368:192,1,62.5,8|0,0:0|0:0,0:0:0:0:
368,260,321935,2,0,L|304:260,1,62.5,2|2,0:0|0:0,0:0:0:0:
52,170,322111,2,0,L|120:170,1,62.5,8|2,0:0|0:0,0:0:0:0:
356,260,322288,2,0,L|356:336,1,62.5,2|2,0:0|0:0,0:0:0:0:
244,260,322464,2,0,L|244:328,1,62.5,8|0,0:0|0:0,0:0:0:0:
472,192,322641,6,0,L|476:124,1,62.5,2|2,0:0|0:0,0:0:0:0:
224,40,322817,1,8,0:0:0:0:
153,45,322905,1,0,0:0:0:0:
107,99,322993,1,2,0:0:0:0:
114,170,323081,1,2,0:0:0:0:
368,192,323170,2,0,L|304:192,1,62.5,8|2,0:0|0:0,0:0:0:0:
56,248,323346,2,0,L|120:248,1,62.5,2|0,0:0|0:0,0:0:0:0:
44,248,323523,2,0,L|48:324,1,62.5,8|2,0:0|0:0,0:0:0:0:
318,248,323699,2,0,L|60:248,1,250,2|8,0:0|0:0,0:0:0:0:
144,248,323964,1,2,0:0:0:0:
424,128,324052,6,0,L|296:128,1,125,6|8,0:0|0:0,0:0:0:0:
236,128,324317,1,8,0:0:0:0:
380,128,324405,2,0,L|312:128,1,62.5,2|2,0:0|0:0,0:0:0:0:
28,36,324582,2,0,L|156:36,1,125,6|8,0:0|0:0,0:0:0:0:
216,36,324847,1,8,0:0:0:0:
72,36,324935,2,0,L|140:36,1,62.5,2|2,0:0|0:0,0:0:0:0:
432,224,325111,6,0,L|168:224,2,250,6|8|8,0:0|0:0|0:0,0:0:0:0:
356,224,325552,1,8,0:0:0:0:
124,224,325641,2,0,L|120:160,1,62.5,8|8,0:0|0:0,0:0:0:0:
236,72,325817,2,0,L|240:144,1,62.5,8|8,0:0|0:0,0:0:0:0:
356,224,325993,2,0,L|359:161,1,62.5,2|2,0:0|0:0,0:0:0:0:
132,320,326170,2,0,L|288:320,1,150.000005722046,8|0,0:0|0:0,0:0:0:0:
36,224,326523,2,0,L|436:224,1,400,8|0,0:0|0:0,0:0:0:0:
36,224,326876,6,0,P|32:152|164:52,1,250,6|2,0:0|0:0,0:0:0:0:
24,56,327405,1,0,0:0:0:0:
340,56,327582,2,0,P|424:124|336:192,1,250,8|2,0:0|0:0,0:0:0:0:
136,192,328111,1,8,0:0:0:0:
448,296,328288,5,2,0:0:0:0:
248,296,328464,1,8,0:0:0:0:
436,296,328641,2,0,L|440:164,1,125,2|0,0:0|0:0,0:0:0:0:
116,192,328993,2,0,P|29:125|113:55,1,250,8|2,0:0|0:0,0:0:0:0:
328,56,329523,1,8,0:0:0:0:
28,192,329699,6,0,L|280:192,1,250,2|2,0:0|0:0,0:0:0:0:
140,192,330229,1,0,0:0:0:0:
428,192,330405,2,0,L|432:68,1,125,8|0,0:0|0:0,0:0:0:0:
212,64,330758,1,2,0:0:0:0:
496,68,330935,1,8,0:0:0:0:
196,64,331111,6,0,L|68:64,1,125,6|0,0:0|0:0,0:0:0:0:
304,64,331464,1,2,0:0:0:0:
16,64,331641,1,8,0:0:0:0:
352,192,331817,1,2,0:0:0:0:
408,192,331905,1,2,0:0:0:0:
464,192,331993,1,2,0:0:0:0:
176,192,332170,2,0,L|48:192,1,125,8|0,0:0|0:0,0:0:0:0:
352,192,332523,6,0,P|424:208|496:360,1,250,6|2,0:0|0:0,0:0:0:0:
296,356,333052,2,0,L|232:356,1,62.5
176,356,333229,2,0,L|172:232,1,125,8|0,0:0|0:0,0:0:0:0:
388,192,333582,2,0,L|440:149,2,62.5,2|2|8,0:0|0:0|0:0,0:0:0:0:
76,192,333935,6,0,L|72:68,1,125,2|8,0:0|0:0,0:0:0:0:
288,24,334288,2,0,L|164:24,1,125,2|2,0:0|0:0,0:0:0:0:
226,24,334552,1,2,0:0:0:0:
106,124,334641,2,0,L|81:60,2,62.5,8|8|2,0:0|0:0|0:0,0:0:0:0:
380,192,334993,2,0,L|508:192,1,125,8|0,0:0|0:0,0:0:0:0:
160,192,335346,6,0,L|152:336,1,125,2|2,0:0|0:0,0:0:0:0:
372,360,335699,2,0,P|400:300|360:248,1,125,8|2,0:0|0:0,0:0:0:0:
319,232,335964,1,2,0:0:0:0:
440,192,336052,1,2,0:0:0:0:
440,192,336140,1,8,0:0:0:0:
440,192,336228,1,2,0:0:0:0:
168,192,336405,2,0,L|320:192,1,150.000005722046,8|0,0:0|0:0,0:0:0:0:
24,192,336758,6,0,P|4:120|40:88,1,125,2|2,0:0|0:0,0:0:0:0:
328,24,337111,2,0,L|464:24,1,125,8|2,0:0|0:0,0:0:0:0:
388,24,337376,1,2,0:0:0:0:
176,192,337464,1,8,0:0:0:0:
276,192,337552,1,8,0:0:0:0:
376,192,337641,1,8,0:0:0:0:
88,192,337817,1,12,0:0:0:0:
412,192,337993,1,8,0:0:0:0:
36,192,338170,5,12,0:0:0:0:
20,260,338258,1,0,0:0:0:0:
44,324,338346,1,0,0:0:0:0:
108,348,338434,1,0,0:0:0:0:
312,352,338523,2,0,L|432:352,1,100,8|0,0:0|0:0,0:0:0:0:
356,352,338788,1,0,0:0:0:0:
168,192,338876,2,0,L|112:192,2,50,2|2|2,0:0|0:0|0:0,0:0:0:0:
448,192,339229,2,0,P|496:128|416:68,1,199.499991780854,8|0,0:0|0:0,0:0:0:0:
224,68,339582,5,2,0:0:0:0:
174,68,339670,1,2,0:0:0:0:
124,68,339758,1,2,0:0:0:0:
312,68,339935,2,0,L|316:184,1,100,8|2,0:0|0:0,0:0:0:0:
256,192,340199,1,2,0:0:0:0:
76,192,340288,2,0,L|24:192,2,50,2|0|2,0:0|0:0|0:0,0:0:0:0:
328,312,340641,2,0,L|384:312,1,50,8|0,0:0|0:0,0:0:0:0:
308,312,340817,2,0,L|304:252,1,50
488,192,340993,6,0,L|492:136,1,50,2|0,0:0|0:0,0:0:0:0:
432,104,341170,1,2,0:0:0:0:
248,104,341346,2,0,L|140:104,1,100,8|0,0:0|0:0,0:0:0:0:
208,104,341611,1,2,0:0:0:0:
16,104,341699,2,0,L|12:48,1,50,2|0,0:0|0:0,0:0:0:0:
76,24,341876,1,2,0:0:0:0:
336,104,342052,1,8,0:0:0:0:
386,104,342140,1,0,0:0:0:0:
416,104,342228,1,0,0:0:0:0:
386,104,342317,1,0,0:0:0:0:
176,192,342405,6,0,L|64:192,1,100,2|2,0:0|0:0,0:0:0:0:
376,192,342758,2,0,L|432:192,1,50,6|0,0:0|0:0,0:0:0:0:
226,192,342935,2,0,L|166:192,1,50,2|0,0:0|0:0,0:0:0:0:
288,192,343111,2,0,L|340:192,2,50,8|8|2,0:0|0:0|0:0,0:0:0:0:
36,192,343464,2,0,P|4:256|92:360,1,225.000008583069,8|0,0:0|0:0,0:0:0:0:
304,360,343817,6,0,L|404:360,1,100,6|0,0:0|0:0,0:0:0:0:
228,360,344170,1,8,0:0:0:0:
476,360,344346,1,2,0:0:0:0:
500,304,344434,1,2,0:0:0:0:
488,244,344522,1,2,0:0:0:0:
448,200,344610,1,2,0:0:0:0:
388,192,344698,1,2,0:0:0:0:
136,192,344876,6,0,L|236:192,2,100,8|0|2,0:0|0:0|0:0,0:0:0:0:
316,192,345405,1,2,0:0:0:0:
56,192,345582,2,0,P|32:144|64:96,1,100,8|2,0:0|0:0,0:0:0:0:
104,76,345846,1,2,0:0:0:0:
224,76,345935,1,2,0:0:0:0:
274,76,346023,1,2,0:0:0:0:
324,76,346111,1,2,0:0:0:0:
54,5,346288,2,0,L|50:105,1,100,8|0,0:0|0:0,0:0:0:0:
316,192,346641,6,0,L|320:260,1,50,2|0,0:0|0:0,0:0:0:0:
240,128,346817,2,0,L|244:196,1,50,2|2,0:0|0:0,0:0:0:0:
368,192,346993,1,8,0:0:0:0:
96,332,347170,1,2,0:0:0:0:
40,316,347258,1,2,0:0:0:0:
20,260,347346,1,2,0:0:0:0:
44,204,347434,1,2,0:0:0:0:
104,192,347522,1,2,0:0:0:0:
288,192,347699,6,0,L|184:192,2,100,8|0|2,0:0|0:0|0:0,0:0:0:0:
200,192,348141,1,2,0:0:0:0:
112,192,348229,1,2,0:0:0:0:
392,192,348405,2,0,L|396:136,1,50,8|0,0:0|0:0,0:0:0:0:
276,192,348582,2,0,L|220:192,1,50,0|2,0:0|0:0,0:0:0:0:
395,142,348758,1,8,0:0:0:0:
336,120,348846,1,8,0:0:0:0:
395,142,348934,1,2,0:0:0:0:
144,192,349111,1,8,0:0:0:0:
320,192,349288,1,2,0:0:0:0:
36,192,349464,6,0,L|32:80,1,100,6|0,0:0|0:0,0:0:0:0:
288,20,349817,2,0,L|388:20,1,100,8|0,0:0|0:0,0:0:0:0:
440,20,350082,1,2,0:0:0:0:
320,100,350170,1,2,0:0:0:0:
370,100,350258,1,0,0:0:0:0:
420,100,350346,1,2,0:0:0:0:
160,192,350523,2,0,L|40:192,1,100,8|0,0:0|0:0,0:0:0:0:
392,192,350876,6,0,L|396:320,1,100,2|2,0:0|0:0,0:0:0:0:
216,348,351229,1,8,0:0:0:0:
332,296,351405,2,0,L|272:296,1,50,2|2,0:0|0:0,0:0:0:0:
396,292,351582,2,0,L|452:292,2,50,2|0|2,0:0|0:0|0:0,0:0:0:0:
144,192,351935,2,0,L|28:192,1,100,8|0,0:0|0:0,0:0:0:0:
320,192,352288,6,0,L|424:192,1,100,2|2,0:0|0:0,0:0:0:0:
244,96,352640,2,0,L|352:96,1,100,8|2,0:0|0:0,0:0:0:0:
396,96,352905,1,2,0:0:0:0:
196,36,352993,2,0,P|168:80|256:172,1,200,2|8,0:0|0:0,0:0:0:0:
304,172,353435,1,0,0:0:0:0:
352,172,353523,1,0,0:0:0:0:
108,192,353699,6,0,L|8:192,1,100,2|2,0:0|0:0,0:0:0:0:
308,304,354052,2,0,B|376:304|376:304|296:304,1,132.999994520569,8|8,0:0|0:0,0:0:0:0:
220,304,354317,1,0,0:0:0:0:
420,192,354405,2,0,L|368:192,1,50,2|2,0:0|0:0,0:0:0:0:
168,192,354582,2,0,L|116:192,1,50,2|2,0:0|0:0,0:0:0:0:
348,120,354758,2,0,L|452:120,1,100,6|2,0:0|0:0,0:0:0:0:
388,120,355023,1,0,0:0:0:0:
240,32,355111,6,0,L|140:32,1,100,4|2,0:0|0:0,0:0:0:0:
316,32,355464,1,8,0:0:0:0:
68,32,355640,1,2,0:0:0:0:
124,52,355728,1,2,0:0:0:0:
140,112,355816,1,2,0:0:0:0:
124,172,355904,1,0,0:0:0:0:
68,192,355992,1,2,0:0:0:0:
320,112,356170,6,0,L|220:112,2,100,8|0|2,0:0|0:0|0:0,0:0:0:0:
140,112,356699,1,2,0:0:0:0:
400,112,356876,2,0,P|424:160|392:208,1,100,8|2,0:0|0:0,0:0:0:0:
352,228,357140,1,2,0:0:0:0:
228,192,357229,1,2,0:0:0:0:
284,192,357317,1,2,0:0:0:0:
340,192,357405,1,2,0:0:0:0:
108,192,357582,2,0,L|8:192,1,100,8|0,0:0|0:0,0:0:0:0:
281,241,357935,6,0,L|285:173,1,50,2|0,0:0|0:0,0:0:0:0:
205,305,358111,2,0,L|209:237,1,50,2|0,0:0|0:0,0:0:0:0:
96,192,358287,1,8,0:0:0:0:
368,192,358464,1,2,0:0:0:0:
424,192,358552,1,2,0:0:0:0:
368,192,358640,1,2,0:0:0:0:
312,192,358728,1,2,0:0:0:0:
368,192,358816,1,2,0:0:0:0:
98,192,358993,6,0,L|202:192,2,100,8|0|2,0:0|0:0|0:0,0:0:0:0:
156,192,359435,1,2,0:0:0:0:
212,192,359523,1,2,0:0:0:0:
472,192,359699,2,0,L|476:248,1,50,6|0,0:0|0:0,0:0:0:0:
248,344,359876,2,0,L|192:344,1,50,8|0,0:0|0:0,0:0:0:0:
404,244,360052,1,8,0:0:0:0:
340,272,360140,1,2,0:0:0:0:
404,244,360228,1,2,0:0:0:0:
150,192,360405,1,8,0:0:0:0:
332,192,360582,1,8,0:0:0:0:
92,32,360758,6,0,L|192:32,1,100,6|0,0:0|0:0,0:0:0:0:
16,32,361111,1,8,0:0:0:0:
332,32,361287,1,2,0:0:0:0:
272,32,361375,1,2,0:0:0:0:
212,32,361463,1,2,0:0:0:0:
152,32,361551,1,0,0:0:0:0:
92,32,361639,1,2,0:0:0:0:
344,116,361817,6,0,L|244:116,2,100,8|0|2,0:0|0:0|0:0,0:0:0:0:
164,116,362346,1,2,0:0:0:0:
424,116,362523,2,0,P|448:164|416:212,1,100,8|2,0:0|0:0,0:0:0:0:
376,232,362787,1,2,0:0:0:0:
184,228,362876,2,0,L|180:288,1,50,2|2,0:0|0:0,0:0:0:0:
292,192,363052,2,0,L|288:132,1,50,2|2,0:0|0:0,0:0:0:0:
84,228,363229,2,0,L|184:228,1,100,8|0,0:0|0:0,0:0:0:0:
429,202,363582,6,0,L|433:134,1,50,2|0,0:0|0:0,0:0:0:0:
320,192,363758,2,0,L|324:260,1,50,2|0,0:0|0:0,0:0:0:0:
136,144,363935,2,0,L|76:144,1,50,8|0,0:0|0:0,0:0:0:0:
292,32,364111,1,2,0:0:0:0:
236,52,364199,1,2,0:0:0:0:
220,112,364287,1,2,0:0:0:0:
236,172,364375,1,2,0:0:0:0:
292,192,364463,1,2,0:0:0:0:
56,192,364640,6,0,L|160:192,2,100,8|0|2,0:0|0:0|0:0,0:0:0:0:
114,192,365082,1,2,0:0:0:0:
170,192,365170,1,2,0:0:0:0:
472,192,365346,2,0,L|476:248,1,50,8|0,0:0|0:0,0:0:0:0:
248,344,365523,2,0,L|192:344,1,50,8|8,0:0|0:0,0:0:0:0:
404,244,365699,1,8,0:0:0:0:
340,272,365787,1,8,0:0:0:0:
404,244,365876,1,2,0:0:0:0:
150,192,366052,1,12,0:0:0:0:
332,192,366229,1,8,0:0:0:0:
52,192,366405,6,0,P|16:156|92:56,1,200,6|8,0:0|0:0,0:0:0:0:
268,56,366935,2,0,L|328:56,1,50,2|2,0:0|0:0,0:0:0:0:
102,192,367111,2,0,L|38:192,2,50,8|0|8,0:0|0:0|0:0,0:0:0:0:
344,192,367464,2,0,L|200:192,1,125,8|2,0:0|0:0,0:0:0:0:
472,304,367817,6,0,L|216:304,2,250,6|0|8,0:0|0:0|0:0,0:0:0:0:
156,304,368346,2,0,L|96:304,1,50,2|2,0:0|0:0,0:0:0:0:
308,192,368523,1,8,0:0:0:0:
358,192,368611,1,0,0:0:0:0:
408,192,368699,1,8,0:0:0:0:
228,192,368876,2,0,L|224:136,1,50,8|0,0:0|0:0,0:0:0:0:
280,76,369052,2,0,L|336:76,1,50
128,192,369229,6,0,L|124:92,1,100,12|0,0:0|0:0,0:0:0:0:
400,292,369582,2,0,L|404:192,1,100,12|0,0:0|0:0,0:0:0:0:
336,180,369846,1,0,0:0:0:0:
124,92,369935,2,0,L|60:92,3,50,12|0|0|0,0:0|0:0|0:0|0:0,0:0:0:0:
336,180,370288,2,0,L|256:180,3,62.5,12|0|0|0,0:0|0:0|0:0|0:0,0:0:0:0:
68,192,370640,6,0,L|64:272,1,75.0000028610231,12|0,0:0|0:0,0:0:0:0:
252,352,370817,2,0,L|256:276,1,75.0000028610231
480,192,370993,2,0,L|407:150,1,75.0000028610231,12|0,0:0|0:0,0:0:0:0:
224,72,371170,2,0,L|289:34,1,75.0000028610231
64,28,371346,6,0,L|152:28,1,75.0000028610231,12|0,0:0|0:0,0:0:0:0:
440,28,371523,2,0,L|352:28,1,75.0000028610231
64,28,371699,1,12,0:0:0:0:
216,28,371788,1,0,0:0:0:0:
440,28,371876,1,0,0:0:0:0:
288,34,371964,1,0,0:0:0:0:
124,192,372052,6,0,L|120:304,1,100,2|0,0:0|0:0,0:0:0:0:
280,192,372405,2,0,L|284:92,1,100,2|0,0:0|0:0,0:0:0:0:
44,192,372736,2,0,L|44:176,1,12.5,0|4,0:0|0:0,0:0:0:0:
156,192,372913,2,0,L|156:176,1,12.5,0|2,0:0|0:0,0:0:0:0:
264,192,373089,2,0,L|264:176,1,12.5,0|2,0:0|0:0,0:0:0:0:
32,60,373288,2,0,L|136:60,2,100,4|0|2,0:0|0:0|0:0,0:0:0:0:
220,60,373817,1,2,0:0:0:0:
232,107,373905,1,0,0:0:0:0:
218,154,373993,1,0,0:0:0:0:
180,187,374082,1,0,0:0:0:0:
120,192,374170,6,0,L|348:192,1,225.000008583069,2|0,0:0|0:0,0:0:0:0:
224,192,374523,2,0,L|124:192,1,100,2|0,0:0|0:0,0:0:0:0:
300,352,374876,2,0,L|304:244,1,100,2|0,0:0|0:0,0:0:0:0:
48,280,375229,2,0,L|148:280,1,100,4|0,0:0|0:0,0:0:0:0:
404,192,375582,2,0,L|327:127,1,100,2|0,0:0|0:0,0:0:0:0:
152,192,375935,2,0,L|169:93,1,100,2|0,0:0|0:0,0:0:0:0:
236,92,376199,1,0,0:0:0:0:
432,40,376288,6,0,L|328:40,2,100,2|0|2,0:0|0:0|0:0,0:0:0:0:
180,192,376817,2,0,L|180:208,1,12.5,2|0,0:0|0:0,0:0:0:0:
360,192,376993,2,0,L|360:208,1,12.5,4|0,0:0|0:0,0:0:0:0:
256,192,377170,2,0,L|256:208,1,12.5,2|0,0:0|0:0,0:0:0:0:
152,192,377346,2,0,L|152:208,1,12.5,2|0,0:0|0:0,0:0:0:0:
332,288,377523,2,0,L|432:288,2,100,2|2|0,0:0|0:0|0:0,0:0:0:0:
256,192,378052,12,0,379640,0:0:0:0:
392,192,379817,6,0,L|392:80,1,100,6|0,0:0|0:0,0:0:0:0:
136,192,380169,2,0,L|62:118,1,100,2|0,0:0|0:0,0:0:0:0:
392,192,380522,2,0,L|496:192,1,100,8|0,0:0|0:0,0:0:0:0:
208,192,380875,2,0,L|320:192,1,100,2|0,0:0|0:0,0:0:0:0:
36,192,381228,2,0,L|32:248,1,50,8|8,0:0|0:0,0:0:0:0:
136,304,381405,2,0,L|188:304,1,50,2|2,0:0|0:0,0:0:0:0:
388,304,381581,2,0,L|492:304,1,100,8|2,0:0|0:0,0:0:0:0:
156,192,381934,6,0,L|156:80,1,100,6|0,0:0|0:0,0:0:0:0:
412,192,382286,2,0,L|485:118,1,100,2|0,0:0|0:0,0:0:0:0:
156,192,382639,2,0,L|52:192,1,100,8|0,0:0|0:0,0:0:0:0:
360,192,382992,1,8,0:0:0:0:
84,192,383169,1,2,0:0:0:0:
344,192,383345,1,8,0:0:0:0:
376,136,383434,1,8,0:0:0:0:
356,76,383522,1,8,0:0:0:0:
296,56,383610,1,8,0:0:0:0:
112,56,383698,6,0,L|0:56,1,100,6|0,0:0|0:0,0:0:0:0:
256,192,384050,2,0,L|104:192,1,150.000005722046,2|0,0:0|0:0,0:0:0:0:
408,324,384403,2,0,L|32:324,1,375,8|0,0:0|0:0,0:0:0:0:
256,192,384756,2,0,L|408:192,1,150,8|2,0:0|0:0,0:0:0:0:
340,192,385021,1,2,0:0:0:0:
160,192,385109,2,0,L|156:124,1,50,8|8,0:0|0:0,0:0:0:0:
252,104,385286,2,0,L|256:44,1,50,2|2,0:0|0:0,0:0:0:0:
56,192,385462,2,0,L|52:84,1,100,8|2,0:0|0:0,0:0:0:0:
334,56,385815,6,0,L|446:56,1,100,6|0,0:0|0:0,0:0:0:0:
190,192,386167,2,0,L|342:192,1,150.000005722046,8|0,0:0|0:0,0:0:0:0:
38,324,386520,2,0,L|414:324,1,375,8|0,0:0|0:0,0:0:0:0:
190,192,386873,6,0,L|38:192,1,150,12|0,0:0|0:0,0:0:0:0:
320,88,387225,1,8,0:0:0:0:
256,88,387314,1,8,0:0:0:0:
192,88,387402,1,2,0:0:0:0:
128,88,387490,1,2,0:0:0:0:
340,88,387578,2,0,L|440:88,1,100,8|0,0:0|0:0,0:0:0:0:
176,192,387931,2,0,L|172:264,1,50,8|0,0:0|0:0,0:0:0:0:
272,192,388108,2,0,L|332:192,1,50,8|0,0:0|0:0,0:0:0:0:
132,192,388284,6,0,L|28:192,1,100,12|0,0:0|0:0,0:0:0:0:
316,344,388637,1,2,0:0:0:0:
248,344,388725,1,2,0:0:0:0:
316,344,388814,1,2,0:0:0:0:
248,344,388902,1,2,0:0:0:0:
448,344,388990,1,8,0:0:0:0:
472,283,389078,1,0,0:0:0:0:
449,222,389167,1,2,0:0:0:0:
392,192,389255,1,2,0:0:0:0:
200,192,389343,2,0,L|252:192,1,50,8|2,0:0|0:0,0:0:0:0:
352,192,389520,2,0,L|348:136,1,50,2|0,0:0|0:0,0:0:0:0:
96,192,389696,6,0,P|28:120|152:8,1,300.000011444092,12|2,0:0|0:0,0:0:0:0:
216,4,390137,1,0,0:0:0:0:
252,4,390225,1,2,0:0:0:0:
216,4,390314,1,0,0:0:0:0:
24,8,390402,2,0,L|20:128,1,100,8|0,0:0|0:0,0:0:0:0:
208,192,390755,1,2,0:0:0:0:
32,108,390931,1,8,0:0:0:0:
348,192,391108,6,0,L|240:192,2,100,2|8|2,0:0|0:0|0:0,0:0:0:0:
228,192,391637,1,2,0:0:0:0:
180,192,391725,1,2,0:0:0:0:
392,192,391814,2,0,B|468:192|468:192|388:192,1,150.000005722046,8|0,0:0|0:0,0:0:0:0:
228,192,392167,1,2,0:0:0:0:
408,192,392343,1,8,0:0:0:0:
156,284,392520,6,0,B|381:283|381:283|380:208,1,300.000011444092,2|2,0:0|0:0,0:0:0:0:
320,200,392961,1,2,0:0:0:0:
260,192,393049,1,2,0:0:0:0:
320,200,393137,1,2,0:0:0:0:
108,192,393225,2,0,L|104:76,1,100,8|0,0:0|0:0,0:0:0:0:
288,32,393578,1,2,0:0:0:0:
116,92,393755,1,8,0:0:0:0:
400,32,393931,5,2,0:0:0:0:
148,92,394108,1,8,0:0:0:0:
328,92,394284,2,0,P|336:148|308:192,1,100,2|2,0:0|0:0,0:0:0:0:
256,192,394549,1,2,0:0:0:0:
76,192,394637,2,0,L|72:296,1,100,8|0,0:0|0:0,0:0:0:0:
240,336,394990,1,8,0:0:0:0:
56,292,395167,1,2,0:0:0:0:
400,336,395343,6,0,P|460:280|352:140,1,300.000011444092,12|2,0:0|0:0,0:0:0:0:
292,140,395784,1,2,0:0:0:0:
232,140,395873,1,2,0:0:0:0:
484,140,396049,2,0,L|488:24,1,100,8|0,0:0|0:0,0:0:0:0:
300,56,396402,1,2,0:0:0:0:
476,40,396578,1,8,0:0:0:0:
200,192,396755,6,0,L|308:192,2,100,2|8|2,0:0|0:0|0:0,0:0:0:0:
320,192,397284,2,0,L|324:132,1,50,2|2,0:0|0:0,0:0:0:0:
120,192,397461,2,0,P|80:156|160:64,1,200,8|2,0:0|0:0,0:0:0:0:
344,64,397990,1,8,0:0:0:0:
48,64,398167,6,0,P|36:136|64:56,1,300.000011444092,2|2,0:0|0:0,0:0:0:0:
28,52,398608,1,2,0:0:0:0:
74,54,398696,1,2,0:0:0:0:
324,192,398873,2,0,L|436:192,1,100,8|0,0:0|0:0,0:0:0:0:
248,192,399225,1,2,0:0:0:0:
436,192,399402,1,8,0:0:0:0:
152,296,399578,5,2,0:0:0:0:
340,196,399755,1,8,0:0:0:0:
164,296,399931,2,0,L|160:192,1,100,2|0,0:0|0:0,0:0:0:0:
468,192,400284,2,0,P|472:124|372:48,1,199.499991780854,8|0,0:0|0:0,0:0:0:0:
156,44,400637,2,0,L|100:44,1,56.2500021457673,2|2,0:0|0:0,0:0:0:0:
156,44,400814,2,0,L|220:44,1,56.2500021457673,2|2,0:0|0:0,0:0:0:0:
496,352,400990,6,0,B|496:112|496:112|16:112|16:112|16:352|16:352|256:352|256:352|256:112|256:112|16:112|16:112|496:112|496:112|496:352|496:352|256:352|256:352|496:352|496:352|256:112|256:112|256:352|256:352|16:112|16:112,1,3779.99988464356,12|0,0:0|0:0,0:0:0:0:
484,112,406637,5,4,0:0:0:0:
256,192,406814,12,0,415461,0:0:0:0:
