osu file format v14

[General]
AudioFilename: audio.mp3
AudioLeadIn: 0
PreviewTime: 66378
Countdown: 0
SampleSet: Soft
StackLeniency: 0.7
Mode: 0
LetterboxInBreaks: 0
WidescreenStoryboard: 1

[Editor]
Bookmarks: 101775
DistanceSpacing: 1
BeatDivisor: 4
GridSize: 32
TimelineZoom: 1

[Metadata]
Title:DEAD OR LIE (TV Size)
TitleUnicode:DEAD OR LIE (TV Size)
Artist:Maon Kurosaki feat. TRUSTRICK
ArtistUnicode:黒崎真音 feat. TRUSTRICK
Creator:tears_
Version:NORMAL
Source:ダンガンロンパ3-The End of 希望ヶ峰学園- 未来編
Tags:j-rock jrock female vocals japanese rock Danganronpa 3: The End of Hope's Peak High School - Future Arc Mirai-hen The End of Kibougamine Gakuen anime opening op xiirn assassinalpha solarmymommy
BeatmapID:3645709
BeatmapSetID:1716336

[Difficulty]
HPDrainRate:3
CircleSize:3.3
OverallDifficulty:4.5
ApproachRate:5.5
SliderMultiplier:1.1
SliderTickRate:1

[Events]
//Background and Video events
0,0,"kirigir.jpg",0,0
//Break Periods
2,26418,32713
//Storyboard Layer 0 (Background)
//Storyboard Layer 1 (Fail)
//Storyboard Layer 2 (Pass)
//Storyboard Layer 3 (Foreground)
//Storyboard Layer 4 (Overlay)
//Storyboard Sound Samples

[TimingPoints]
-684,326.086956521739,4,2,0,100,1,0
14950,317.460317460317,4,2,1,60,1,0
14950,-111.111111111111,4,2,1,60,0,0
16061,-111.111111111111,4,2,1,65,0,0
16219,317.460317460317,4,2,1,65,1,0
16219,-111.111111111111,4,2,1,65,0,0
26378,-111.111111111111,4,2,1,40,0,0
30981,-111.111111111111,4,2,1,50,0,0
33838,-111.111111111111,4,2,1,55,0,0
34315,-111.111111111111,4,2,1,55,0,0
36378,-111.111111111111,4,2,1,60,0,0
43997,-111.111111111111,4,2,1,65,0,0
46696,-125,4,2,1,55,0,0
51616,-111.111111111111,4,2,1,60,0,0
54315,-111.111111111111,4,2,1,65,0,0
59394,-111.111111111111,4,2,1,70,0,0
60505,-111.111111111111,4,2,1,65,0,0
64473,-111.111111111111,4,2,1,70,0,0
66853,-100,4,2,1,75,0,1
84791,-100,4,2,1,80,0,1
86537,-100,4,2,1,75,0,1
87171,-111.111111111111,4,2,1,65,0,0
92727,-111.111111111111,4,2,1,75,0,0
97648,-111.111111111111,4,2,1,70,0,0
97965,-111.111111111111,4,2,1,65,0,0
98283,-111.111111111111,4,2,1,60,0,0
98600,-111.111111111111,4,2,1,60,0,0
98918,-111.111111111111,4,2,1,60,0,0
99235,-111.111111111111,4,2,1,55,0,0
99553,-111.111111111111,4,2,1,50,0,0
99870,-111.111111111111,4,2,1,45,0,0
100188,-111.111111111111,4,2,1,40,0,0
100505,-111.111111111111,4,2,1,35,0,0
100823,-111.111111111111,4,2,1,30,0,0
101140,-111.111111111111,4,2,1,25,0,0
101457,-111.111111111111,4,2,1,20,0,0
101775,-111.111111111111,4,2,1,15,0,0
102092,-111.111111111111,4,2,1,10,0,0
102410,-111.111111111111,4,2,1,5,0,0
102807,-111.111111111111,4,2,1,5,0,0
102886,-111.111111111111,4,2,1,5,0,0

[Colours]
Combo1 : 244,184,138
Combo2 : 255,64,64
Combo3 : 190,190,190

[HitObjects]
339,319,14950,5,8,0:0:0:0:
250,361,15267,1,8,0:0:0:0:
172,302,15584,2,0,P|175:259|177:233,2,49.4999984893799,10|2|10,0:0|3:0|0:0,0:0:0:0:
139,340,16061,6,0,P|93:357|50:316,1,98.9999969787599,6|0,3:2|3:0,0:0:0:0:
34,285,16537,1,8,0:0:0:0:
94,207,16854,1,0,3:0:0:0:
94,207,17013,2,0,P|97:172|101:136,1,49.4999984893799,2|8,3:0|0:0,0:0:0:0:
94,108,17330,2,0,B|53:106|53:106|23:123|23:123|-17:122,2,98.9999969787599,2|2|2,3:0|3:0|0:0,0:0:0:0:
184,67,18283,2,0,P|224:66|253:65,1,49.4999984893799,2|8,3:0|0:0,0:0:0:0:
279,82,18600,6,0,P|279:146|282:184,1,98.9999969787599,6|0,3:2|3:0,0:0:0:0:
292,229,19076,1,8,0:0:0:0:
223,301,19394,1,0,3:0:0:0:
223,301,19553,2,0,P|190:298|155:296,1,49.4999984893799,2|10,3:0|0:0,0:0:0:0:
125,284,19870,2,0,P|130:229|135:171,1,98.9999969787599,2|0,3:0|3:0,0:0:0:0:
138,135,20346,1,8,0:0:0:0:
227,92,20664,2,0,B|279:75|277:117|333:99,1,98.9999969787599,14|8,0:0|0:0,0:0:0:0:
366,78,21140,6,0,P|369:140|369:194,1,98.9999969787599,6|2,3:2|3:0,0:0:0:0:
346,220,21616,1,8,0:0:0:0:
411,293,21934,1,2,3:0:0:0:
411,293,22092,2,0,P|439:299|463:290,1,49.4999984893799,2|10,3:0|0:0,0:0:0:0:
498,263,22410,1,2,3:0:0:0:
470,168,22727,2,0,P|473:133|474:100,1,49.4999984893799,2|10,3:0|0:0,0:0:0:0:
462,70,23045,2,0,B|427:88|427:88|358:70,1,98.9999969787599,2|2,0:0|3:0,0:0:0:0:
333,38,23521,1,14,0:2:0:0:
234,43,23838,6,0,P|237:114|241:154,1,98.9999969787599,10|0,0:0|0:0,0:0:0:0:
266,183,24315,2,0,P|263:254|259:294,1,98.9999969787599,2|0,0:0|0:0,0:0:0:0:
239,326,24791,2,0,P|160:350|114:290,2,148.49999546814,2|2|10,0:0|0:0|0:0,0:0:0:0:
274,292,25901,2,0,L|331:286,1,49.4999984893799,10|8,3:0|3:0,0:0:0:0:
369,305,26218,1,12,0:0:0:0:
188,116,33838,5,14,0:0:0:0:
54,50,34315,6,0,B|16:111|16:111|60:198,2,148.49999546814,14|14|14,0:0|0:0|0:0,0:0:0:0:
150,66,35584,2,0,P|187:58|219:59,1,49.4999984893799,0|8,3:0|0:0,0:0:0:0:
242,81,35901,2,0,P|279:89|311:88,1,49.4999984893799,2|0,0:0|3:0,0:0:0:0:
335,67,36218,1,8,0:0:0:0:
335,67,36378,1,4,3:2:0:0:
413,141,36696,5,0,3:0:0:0:
413,141,36854,2,0,P|400:204|393:252,1,98.9999969787599,10|2,0:0|3:0,0:0:0:0:
347,325,37489,1,8,0:0:0:0:
270,271,37807,1,2,3:0:0:0:
270,271,37965,2,0,P|227:277|158:289,1,98.9999969787599,2|2,3:0|0:0,0:0:0:0:
89,231,38600,2,0,P|87:204|84:168,1,49.4999984893799,2|8,3:0|0:0,0:0:0:0:
90,140,38918,6,0,B|116:125|116:125|199:147,1,98.9999969787599,2|0,3:0|3:0,0:0:0:0:
227,164,39394,1,10,0:0:0:0:
227,164,39553,1,2,0:0:0:0:
318,125,39870,2,0,P|318:82|316:54,1,49.4999984893799,2|8,3:0|0:0,0:0:0:0:
301,28,40188,2,0,P|247:26|179:33,1,98.9999969787599,6|8,3:2|0:0,0:0:0:0:
107,59,40822,2,0,P|112:28|113:-5,2,49.4999984893799,4|2|0,3:2|0:0|3:0,0:0:0:0:
83,102,41298,1,8,0:0:0:0:
83,102,41457,6,0,P|132:136|124:192,1,98.9999969787599,6|2,3:2|3:0,0:0:0:0:
118,218,41934,1,8,0:0:0:0:
196,277,42251,1,2,3:0:0:0:
289,237,42569,1,8,0:0:0:0:
289,237,42727,2,0,P|284:192|277:124,1,98.9999969787599,2|2,3:0|3:0,0:0:0:0:
261,91,43203,1,8,0:0:0:0:
346,40,43521,1,2,3:0:0:0:
432,87,43838,1,8,0:0:0:0:
432,87,43997,6,0,P|427:132|420:200,1,98.9999969787599,6|10,3:2|3:0,0:0:0:0:
409,233,44473,1,10,0:0:0:0:
486,295,44791,1,10,0:0:0:0:
441,373,45108,1,10,0:0:0:0:
356,320,45426,1,6,3:0:0:0:
356,320,45584,2,0,P|357:355|357:385,2,49.4999984893799,8|12|8,3:0|0:0|3:0,0:0:0:0:
324,281,46061,2,0,B|288:269|264:287|264:287|238:273|238:273|214:295|175:283,1,148.49999546814,10|0,0:0|0:0,0:0:0:0:
147,267,46696,6,0,P|142:228|139:210,2,44,4|0|2,3:2|3:0|0:0,0:0:0:0:
103,343,47330,2,0,P|57:357|32:327,1,88,10|2,0:0|0:0,0:0:0:0:
8,252,47965,1,2,3:0:0:0:
8,252,48124,1,2,3:0:0:0:
75,194,48442,2,0,P|79:148|81:99,1,88,2|2,3:0|0:0,0:0:0:0:
139,40,49076,1,10,0:0:0:0:
139,40,49234,6,0,P|196:45|215:81,1,88,6|2,3:2|0:0,0:0:0:0:
208,111,49711,1,2,3:0:0:0:
262,179,50028,1,2,3:0:0:0:
204,245,50345,2,0,B|175:285|175:285|202:329,1,88,10|10,0:0|0:0,0:0:0:0:
276,352,50980,1,0,3:0:0:0:
276,352,51139,2,0,L|365:333,1,88,8|8,0:0|0:0,0:0:0:0:
403,313,51616,5,6,3:2:0:0:
423,214,51934,1,2,3:0:0:0:
423,214,52092,2,0,P|388:220|354:214,1,49.4999984893799,10|2,0:0|0:0,0:0:0:0:
341,181,52410,1,0,3:0:0:0:
261,240,52727,1,8,0:0:0:0:
261,240,52886,2,0,B|220:238|220:238|190:255|190:255|150:254,1,98.9999969787599,2|0,3:0|3:0,0:0:0:0:
135,215,53362,1,10,0:0:0:0:
188,131,53680,1,2,3:0:0:0:
188,131,53838,6,0,L|183:81,2,49.4999984893799,2|8|2,3:0|0:0|3:0,0:0:0:0:
217,171,54315,2,0,P|274:190|316:161,1,98.9999969787599,14|0,0:0|3:0,0:0:0:0:
334,134,54791,1,14,0:0:0:0:
420,180,55107,1,0,3:0:0:0:
420,180,55267,2,0,P|416:244|411:299,1,98.9999969787599,14|0,0:0|3:0,0:0:0:0:
435,323,55743,1,14,0:0:0:0:
348,368,56060,1,0,3:0:0:0:
348,368,56219,2,0,P|308:369|287:372,1,49.4999984893799,14|2,0:0|3:0,0:0:0:0:
206,333,56696,5,4,3:2:0:0:
237,240,57012,2,0,P|235:207|230:170,1,49.4999984893799,2|10,3:0|0:0,0:0:0:0:
193,160,57330,2,0,P|196:110|203:54,1,98.9999969787599,2|2,0:0|0:0,0:0:0:0:
246,36,57806,1,10,0:0:0:0:
246,36,57965,1,2,3:0:0:0:
331,86,58282,2,0,P|354:79|386:75,1,49.4999984893799,2|10,3:0|0:0,0:0:0:0:
425,57,58599,2,0,P|453:111|429:160,1,98.9999969787599,2|2,0:0|3:0,0:0:0:0:
406,178,59076,1,10,0:0:0:0:
301,220,59394,6,0,B|275:264|275:264|296:319,1,98.9999969787599,6|8,3:2|0:0,0:0:0:0:
319,353,59870,1,2,3:0:0:0:
319,353,60029,2,0,L|385:351,1,49.4999984893799,8|2,0:0|3:0,0:0:0:0:
451,297,60505,2,0,P|446:246|439:188,1,98.9999969787599,6|2,3:2|3:0,0:0:0:0:
435,149,60981,1,10,0:0:0:0:
342,183,61299,1,0,3:0:0:0:
276,114,61616,1,8,3:0:0:0:
276,114,61775,6,0,P|222:160|190:156,1,98.9999969787599,4|0,3:2|3:0,0:0:0:0:
164,121,62251,1,10,0:0:0:0:
84,171,62568,2,0,P|86:207|87:224,1,49.4999984893799,10|0,0:0|3:0,0:0:0:0:
93,269,62885,1,10,0:0:0:0:
176,322,63203,1,10,0:0:0:0:
236,244,63520,2,0,P|272:242|289:241,1,49.4999984893799,10|0,0:0|3:0,0:0:0:0:
332,225,63838,1,10,0:0:0:0:
404,293,64156,1,10,0:0:0:0:
460,211,64473,6,0,L|462:102,1,98.9999969787599,14|0,0:0|3:0,0:0:0:0:
439,67,64949,1,14,0:0:0:0:
350,111,65266,1,0,3:0:0:0:
350,111,65426,2,0,P|288:137|260:103,1,98.9999969787599,14|0,0:0|3:0,0:0:0:0:
239,87,65902,1,12,0:0:0:0:
239,87,66061,2,0,L|248:31,2,49.4999984893799,0|0|8,3:0|3:0|0:0,0:0:0:0:
347,192,66853,6,0,P|356:253|362:317,1,110,6|0,3:2|3:0,0:0:0:0:
344,353,67330,1,10,0:0:0:0:
238,383,67647,1,2,3:0:0:0:
151,325,67965,1,10,0:0:0:0:
151,325,68124,2,0,B|114:320|114:320|79:345|79:345|45:342,1,110,2|2,0:0|0:0,0:0:0:0:
15,298,68600,1,10,0:0:0:0:
74,207,68918,1,2,3:0:0:0:
74,207,69076,6,0,P|90:138|75:81,1,110,2|2,0:0|0:0,0:0:0:0:
75,45,69552,1,2,3:0:0:0:
75,45,69711,1,2,0:0:0:0:
182,71,70029,1,2,0:0:0:0:
182,71,70188,2,0,B|219:66|219:66|254:91|254:91|288:88,1,110,2|10,3:0|0:0,0:0:0:0:
336,73,70664,1,2,0:0:0:0:
398,163,70981,1,2,0:0:0:0:
324,244,71298,1,2,0:0:0:0:
324,244,71457,2,0,P|274:264|228:238,1,110,8|8,0:0|0:0,0:0:0:0:
208,185,71934,6,0,P|213:117|219:53,1,110,6|0,3:2|3:0,0:0:0:0:
196,24,72410,2,0,P|165:28|129:26,1,55,10|0,0:0|3:2,0:0:0:0:
88,34,72727,1,2,0:0:0:0:
25,125,73045,1,8,0:0:0:0:
25,125,73203,2,0,B|4:178|4:178|23:240,1,110,6|0,3:2|3:0,0:0:0:0:
54,272,73680,2,0,P|92:266|118:261,1,55,10|0,0:0|3:2,0:0:0:0:
158,241,73997,1,2,0:0:0:0:
230,323,74315,1,8,0:0:0:0:
230,323,74473,6,0,P|290:320|353:322,1,110,6|2,3:2|3:0,0:0:0:0:
394,328,74949,1,10,0:0:0:0:
479,258,75267,1,10,0:0:0:0:
393,188,75584,1,10,0:0:0:0:
485,128,75902,2,0,P|488:89|491:51,1,55,10|0,0:0|3:0,0:0:0:0:
450,34,76219,2,0,B|398:18|398:62|344:47,1,110,14|2,0:0|3:0,0:0:0:0:
244,14,76854,1,10,0:0:0:0:
244,14,77013,6,0,B|213:64|213:64|242:129,1,110,6|0,3:2|3:0,0:0:0:0:
256,164,77489,1,10,0:0:0:0:
189,251,77807,2,0,P|148:248|117:248,1,55,2|0,3:0|0:0,0:0:0:0:
85,268,78124,1,10,0:0:0:0:
85,268,78283,2,0,P|87:201|85:151,1,110,2|2,0:0|0:0,0:0:0:0:
94,103,78759,1,10,0:0:0:0:
180,34,79076,1,2,3:0:0:0:
180,34,79235,2,0,P|248:54|281:24,1,110,2|2,0:0|0:0,0:0:0:0:
327,16,79711,6,0,P|335:53|339:81,1,55,10|2,0:0|0:0,0:0:0:0:
378,106,80028,2,0,P|370:143|366:171,1,55,10|2,0:0|0:0,0:0:0:0:
373,214,80345,1,2,3:2:0:0:
275,261,80664,1,10,0:0:0:0:
275,261,80823,2,0,P|292:331|300:374,2,110,2|2|2,0:0|0:0|0:0,0:0:0:0:
242,216,81615,2,0,P|203:221|172:208,1,55,8|10,3:2|0:0,0:0:0:0:
137,196,81933,1,10,0:0:0:0:
137,196,82092,5,4,3:2:0:0:
44,252,82410,1,0,0:0:0:0:
44,252,82569,2,0,B|23:308|23:308|50:363,1,110,10|2,0:0|3:0,0:0:0:0:
97,370,83045,1,2,0:0:0:0:
188,311,83362,2,0,B|244:295|246:344|305:316,1,110,2|8,0:0|0:0,0:0:0:0:
347,303,83838,1,10,0:0:0:0:
340,195,84156,1,2,3:0:0:0:
340,195,84315,2,0,L|332:128,1,55,8|8,0:0|0:0,0:0:0:0:
270,57,84791,5,14,0:2:0:0:
270,57,84949,1,2,3:0:0:0:
174,109,85267,1,14,0:2:0:0:
174,109,85426,1,2,3:0:0:0:
75,64,85743,1,14,0:2:0:0:
75,64,85902,1,2,3:0:0:0:
23,162,86219,1,14,0:2:0:0:
23,162,86378,2,0,B|6:219|6:219|27:284,1,110,2|10,3:0|0:0,0:0:0:0:
66,299,86854,2,0,P|100:290|132:286,1,55,10|2,3:0|3:0,0:0:0:0:
163,262,87171,6,0,B|202:259|202:259|233:280|233:280|267:281,1,98.9999969787599,6|0,3:2|3:0,0:0:0:0:
300,260,87648,1,8,0:0:0:0:
263,173,87965,1,0,3:0:0:0:
263,173,88124,2,0,P|261:142|260:108,1,49.4999984893799,2|8,3:0|0:0,0:0:0:0:
281,78,88442,2,0,P|331:109|372:97,2,98.9999969787599,2|2|2,3:0|3:0|0:0,0:0:0:0:
193,30,89394,2,0,P|161:34|124:41,1,49.4999984893799,2|8,3:2|0:0,0:0:0:0:
94,29,89711,6,0,B|71:86|71:86|89:141,1,98.9999969787599,6|0,3:2|3:0,0:0:0:0:
108,164,90188,1,8,0:0:0:0:
195,210,90505,1,0,3:0:0:0:
195,210,90664,2,0,P|190:239|186:268,1,49.4999984893799,2|10,3:0|0:0,0:0:0:0:
189,306,90981,2,0,P|238:334|287:304,1,98.9999969787599,2|0,3:0|3:0,0:0:0:0:
309,284,91457,1,8,0:0:0:0:
377,212,91775,2,0,B|429:195|427:237|483:219,1,98.9999969787599,14|8,0:0|0:0,0:0:0:0:
512,251,92251,6,0,P|505:301|497:358,1,98.9999969787599,6|2,3:2|3:0,0:0:0:0:
451,365,92727,1,10,0:0:0:0:
376,300,93044,1,10,0:0:0:0:
294,353,93361,2,0,L|230:356,1,49.4999984893799,10|2,0:0|3:0,0:0:0:0:
194,358,93679,1,8,0:0:0:0:
118,303,93996,2,0,L|115:239,1,49.4999984893799,10|2,0:0|3:0,0:0:0:0:
120,203,94314,1,8,0:0:0:0:
56,127,94632,1,14,0:0:0:0:
124,55,94949,6,0,P|193:84|214:69,1,98.9999969787599,10|0,0:0|0:0,0:0:0:0:
254,61,95426,2,0,P|323:32|344:47,1,98.9999969787599,2|0,3:0|0:0,0:0:0:0:
366,79,95902,2,0,P|357:157|357:194,1,98.9999969787599,2|0,3:0|0:0,0:0:0:0:
377,222,96377,1,10,0:0:0:0:
328,308,96695,1,0,3:0:0:0:
328,308,96853,2,0,L|266:299,2,49.4999984893799,8|6|8,0:0|3:0|3:0,0:0:0:0:
368,336,97330,5,12,3:2:0:0:
256,192,97410,12,0,102886,0:0:0:0:
